osu file format v14

[General]
AudioFilename: 66016b95b9.mp3
AudioLeadIn: 1000
PreviewTime: 17420
Countdown: 0
SampleSet: Soft
StackLeniency: 0.7
Mode: 0
LetterboxInBreaks: 0
WidescreenStoryboard: 0

[Editor]
DistanceSpacing: 1.2
BeatDivisor: 4
GridSize: 4
TimelineZoom: 2.999999

[Metadata]
Title:Beautiful World
TitleUnicode:Beautiful World
Artist:Utada Hikaru
ArtistUnicode:宇多田ヒカル
Creator:tutuhaha
Version:Normal
Source:ヱヴァンゲリヲン新劇場版:序
Tags:EVA Neon Genesis Evangelion cut
BeatmapID:557662
BeatmapSetID:240627

[Difficulty]
HPDrainRate:3
CircleSize:3
OverallDifficulty:3
ApproachRate:5
SliderMultiplier:1.4
SliderTickRate:1

[Events]
//Background and Video events
0,0,"f4793dfbfca03f324e4aea2e.jpg",0,0
Video,0,"Beautiful World.avi"
//Break Periods
//Storyboard Layer 0 (Background)
//Storyboard Layer 1 (Fail)
//Storyboard Layer 2 (Pass)
//Storyboard Layer 3 (Foreground)
//Storyboard Sound Samples

[TimingPoints]
855,521.739130434783,4,2,1,20,1,0
855,-133.333333333333,4,2,1,20,0,0
9202,-100,4,2,1,20,0,0
17550,-100,4,1,1,20,0,1
36072,-100,4,3,1,40,0,1
36202,-100,4,1,1,20,0,1
38159,-100,4,3,1,40,0,1
38420,-100,4,1,1,20,0,1
40246,-100,4,3,1,40,0,1
40376,-100,4,1,1,20,0,1
44420,-100,4,3,1,40,0,1
44550,-100,4,1,1,20,0,1
46507,-100,4,3,1,40,0,1
46768,-100,4,1,1,20,0,1
48594,-100,4,3,1,40,0,1
48855,-100,4,1,1,20,0,1
50941,-100,4,1,1,20,0,0
59289,-100,4,2,2,30,0,0
109376,-100,4,1,1,30,0,1
127898,-100,4,3,1,40,0,1
128028,-100,4,1,1,30,0,1
129855,-100,4,2,2,40,0,1
129985,-100,4,3,1,40,0,1
130246,-100,4,1,1,30,0,1
132072,-100,4,3,1,40,0,1
132202,-100,4,1,1,30,0,1
136246,-100,4,3,1,40,0,1
136376,-100,4,1,1,30,0,1
138202,-100,4,2,2,40,0,1
138333,-100,4,3,1,40,0,1
138594,-100,4,1,1,30,0,1
140420,-100,4,3,1,40,0,1
140681,-100,4,1,1,30,0,1
142768,-100,4,1,1,30,0,0
147072,-100,4,2,1,5,0,0

[Colours]
Combo1 : 159,255,64
Combo2 : 85,170,255
Combo3 : 140,140,140
Combo4 : 170,85,255

[HitObjects]
32,112,855,6,0,P|124:116|384:28,1,367.500014019013,2|2,0:0|0:0,0:0:0:0:
480,272,5028,6,0,P|388:268|128:356,1,367.500014019013,2|2,0:0|0:0,0:0:0:0:
144,208,7637,2,0,P|96:192|32:196,2,105.000004005432,0|2|2,0:0|0:0|0:0,0:0:0:0:
72,56,9202,6,0,P|136:40|240:48,1,140,4|2,0:0|0:0,0:0:0:0:
268,104,9985,1,0,0:0:0:0:
324,164,10246,2,0,P|360:196|388:252,2,105,0|2|2,0:0|0:0|0:0,0:0:0:0:
348,84,11289,6,0,P|392:56|500:36,1,140,0|2,0:0|0:0,0:0:0:0:
500,116,12072,1,0,0:0:0:0:
500,200,12333,2,0,P|496:256|504:320,2,105,0|2|2,0:0|0:0|0:0,0:0:0:0:
428,160,13376,6,0,P|384:152|348:136,1,70,0|2,0:0|0:0,0:0:0:0:
288,100,13898,2,0,P|252:80|208:64,1,70,0|2,0:0|0:0,0:0:0:0:
140,56,14420,2,0,P|80:56|16:68,2,105,0|2|2,0:0|0:0|0:0,0:0:0:0:
172,136,15463,6,0,P|220:176|256:192,1,70,0|2,0:0|0:0,0:0:0:0:
216,264,15985,2,0,P|256:296|280:336,1,70,0|2,0:0|0:0,0:0:0:0:
332,364,16507,2,0,P|396:372|460:360,2,105,0|2|2,0:0|0:0|0:0,0:0:0:0:
360,284,17550,6,0,P|312:240|280:144,1,140,6|10,0:0|0:0,0:0:0:0:
264,88,18333,1,0,0:0:0:0:
212,24,18594,2,0,L|124:24,1,70,2|0,0:0|0:0,0:0:0:0:
112,104,19115,2,0,L|28:104,1,70,10|0,0:0|0:0,0:0:0:0:
24,188,19637,6,0,P|84:196|164:244,1,140,2|10,0:0|0:0,0:0:0:0:
216,288,20420,1,0,0:0:0:0:
292,328,20681,2,0,P|348:348|392:352,1,70,2|0,0:0|0:0,0:0:0:0:
440,328,21202,2,0,P|480:316|520:316,1,70,10|0,0:0|0:0,0:0:0:0:
492,232,21724,6,0,P|464:200|428:176,1,70,2|0,0:0|0:0,0:0:0:0:
368,140,22246,1,10,0:0:0:0:
296,96,22507,2,0,L|236:84,2,35,0|0|2,0:0|0:0|0:0,0:0:0:0:
292,180,23028,2,0,L|232:192,2,35,0|0|10,0:0|0:0|0:0,0:0:0:0:
364,224,23550,1,0,0:0:0:0:
440,192,23811,6,0,P|456:136|404:52,1,140,2|10,0:0|0:0,0:0:0:0:
340,60,24594,1,0,0:0:0:0:
260,32,24855,2,0,L|176:32,1,70,2|0,0:0|0:0,0:0:0:0:
156,108,25376,2,0,L|68:108,1,70,10|0,0:0|0:0,0:0:0:0:
40,180,25898,6,0,P|88:224|120:320,1,140,2|10,0:0|0:0,0:0:0:0:
168,360,26681,1,0,0:0:0:0:
248,340,26941,2,0,P|296:324|336:320,1,70,2|0,0:0|0:0,0:0:0:0:
348,244,27463,2,0,P|300:232|260:232,1,70,10|0,0:0|0:0,0:0:0:0:
216,176,27985,6,0,P|168:216|80:236,1,140,2|10,0:0|0:0,0:0:0:0:
24,192,28768,2,0,P|28:152|48:112,1,70,0|2,0:0|0:0,0:0:0:0:
60,44,29289,2,0,L|28:24,2,35,0|0|10,0:0|0:0|0:0,0:0:0:0:
144,36,29811,1,0,0:0:0:0:
228,40,30072,6,0,P|252:88|328:152,1,140,2|10,0:0|0:0,0:0:0:0:
388,184,30855,1,0,0:0:0:0:
468,212,31115,2,0,P|472:172|448:124,2,70,2|0|10,0:0|0:0|0:0,0:0:0:0:
404,268,31898,6,0,P|400:308|424:356,1,70,0|2,0:0|0:0,0:0:0:0:
328,364,32420,2,0,P|307:335|300:301,1,70,0|10,0:0|0:0,0:0:0:0:
240,244,32941,1,0,0:0:0:0:
164,208,33202,2,0,P|108:208|36:220,2,105,2|10|0,0:0|0:0|0:0,0:0:0:0:
232,160,34246,6,0,P|224:116|232:68,1,70,6|0,0:0|0:0,0:0:0:0:
276,24,34768,2,0,P|304:52|328:96,1,70,10|0,0:0|0:0,0:0:0:0:
392,124,35289,2,0,P|448:112|504:72,2,105,2|10|8,0:0|0:0|0:0,0:0:0:0:
368,204,36333,6,0,L|400:276,1,70,2|0,0:0|0:0,0:0:0:0:
324,308,36855,2,0,L|295:244,1,70,10|0,0:0|0:0,0:0:0:0:
220,276,37376,2,0,P|176:268|96:276,2,105,2|10|8,0:0|0:0|0:0,0:0:0:0:
224,192,38420,6,0,P|156:184|72:196,1,140,6|10,0:0|0:0,0:0:0:0:
32,260,39202,1,0,0:0:0:0:
68,336,39463,2,0,P|124:356|184:364,2,105,2|10|8,0:0|0:0|0:0,0:0:0:0:
32,260,40507,6,0,P|16:220|12:176,1,70,2|0,0:0|0:0,0:0:0:0:
96,184,41028,2,0,P|96:144|84:100,1,70,10|0,0:0|0:0,0:0:0:0:
160,68,41550,2,0,P|216:56|288:56,2,105,2|10|2,0:0|0:0|0:0,0:0:0:0:
180,152,42594,6,0,P|218:167|262:171,1,70,6|0,0:0|0:0,0:0:0:0:
331,165,43115,2,0,P|369:148|403:120,1,70,10|0,0:0|0:0,0:0:0:0:
452,72,43637,2,0,P|484:128|500:200,2,105,0|10|8,0:0|0:0|0:0,0:0:0:0:
376,40,44681,6,0,L|296:28,1,70,2|0,0:0|0:0,0:0:0:0:
236,72,45202,2,0,L|156:60,1,70,10|0,0:0|0:0,0:0:0:0:
96,108,45724,2,0,P|48:80|0:72,2,105,2|10|8,0:0|0:0|0:0,0:0:0:0:
76,188,46768,6,0,P|80:252|124:328,1,140,6|10,0:0|0:0,0:0:0:0:
196,344,47550,1,0,0:0:0:0:
276,320,47811,2,0,P|328:304|408:316,2,105,2|10|8,0:0|0:0|0:0,0:0:0:0:
256,240,48855,6,0,P|200:216|152:136,1,140,2|10,0:0|0:0,0:0:0:0:
140,68,49637,1,0,0:0:0:0:
216,36,49898,2,0,L|368:36,1,140,2|10,0:0|0:0,0:0:0:0:
440,32,50681,1,0,0:0:0:0:
472,108,50941,6,0,P|480:152|480:204,1,70,6|0,0:0|0:0,0:0:0:0:
408,216,51463,2,0,P|400:260|400:312,1,70,10|0,0:0|0:0,0:0:0:0:
392,368,51985,1,2,0:0:0:0:
308,368,52246,2,0,L|228:368,1,70,0|10,0:0|0:0,0:0:0:0:
152,372,52768,1,0,0:0:0:0:
88,316,53028,6,0,P|64:284|48:248,1,70,2|0,0:0|0:0,0:0:0:0:
104,192,53550,2,0,P|80:160|64:124,1,70,10|0,0:0|0:0,0:0:0:0:
148,104,54072,2,0,P|208:144|260:152,2,105,2|10|0,0:0|0:0|0:0,0:0:0:0:
208,44,55115,5,2,0:0:0:0:
292,32,55376,2,0,P|336:28|392:40,1,70,0|10,0:0|0:0,0:0:0:0:
444,48,55898,1,0,0:0:0:0:
392,112,56159,2,0,P|352:136|264:156,2,105,2|10|0,0:0|0:0|0:0,0:0:0:0:
464,156,57202,6,0,P|500:192|516:236,1,70,2|0,0:0|0:0,0:0:0:0:
428,236,57724,2,0,P|392:272|376:316,1,70,10|0,0:0|0:0,0:0:0:0:
300,292,58246,2,0,P|256:260|188:244,2,105,2|10|0,0:0|0:0|0:0,0:0:0:0:
236,348,59289,6,0,L|72:368,1,140,10|4,0:0|0:0,0:0:0:0:
28,316,60072,1,0,0:0:0:0:
28,232,60333,2,0,P|20:176|40:80,1,140,10|4,0:0|0:0,0:0:0:0:
92,32,61115,1,0,0:0:0:0:
160,84,61376,6,0,P|212:108|312:112,1,140,10|4,0:0|0:0,0:0:0:0:
380,116,62159,1,0,0:0:0:0:
464,100,62420,2,0,P|484:144|488:184,1,70,10|0,0:0|0:0,0:0:0:0:
424,220,62941,2,0,P|419:268|402:304,1,70,4|0,0:0|0:0,0:0:0:0:
332,256,63463,6,0,P|268:220|248:216,1,70,10|0,0:0|0:0,0:0:0:0:
188,204,63985,1,4,0:0:0:0:
104,200,64246,2,0,P|108:264|140:344,1,140,10|0,0:0|0:0,0:0:0:0:
52,348,65028,2,0,P|36:308|28:264,1,70,4|0,0:0|0:0,0:0:0:0:
20,196,65550,5,10,0:0:0:0:
12,112,65811,2,0,P|10:77|14:42,1,70,0|4,0:0|0:0,0:0:0:0:
96,24,66333,2,0,P|114:91|113:160,1,140,10|0,0:0|0:0,0:0:0:0:
108,244,67115,2,0,P|124:292|144:328,1,70,4|0,0:0|0:0,0:0:0:0:
216,332,67637,6,0,P|288:320|372:336,1,140,10|4,0:0|0:0,0:0:0:0:
432,360,68420,1,0,0:0:0:0:
468,284,68681,2,0,P|476:240|476:204,1,70,10|0,0:0|0:0,0:0:0:0:
400,184,69202,2,0,P|392:228|392:264,1,70,4|0,0:0|0:0,0:0:0:0:
308,244,69724,6,0,P|256:264|156:272,1,140,10|4,0:0|0:0,0:0:0:0:
88,264,70507,1,0,0:0:0:0:
24,212,70768,2,0,P|56:188|104:180,1,70,10|0,0:0|0:0,0:0:0:0:
56,100,71289,2,0,P|95:95|141:112,1,70,4|0,0:0|0:0,0:0:0:0:
204,76,71811,6,0,P|240:136|320:192,1,140,10|4,0:0|0:0,0:0:0:0:
372,208,72594,1,0,0:0:0:0:
384,124,72855,2,0,P|388:88|400:52,1,70,10|0,0:0|0:0,0:0:0:0:
480,76,73376,2,0,P|476:112|464:148,1,70,4|0,0:0|0:0,0:0:0:0:
460,228,73898,6,0,P|452:280|408:368,1,140,10|4,0:0|0:0,0:0:0:0:
336,332,74681,1,0,0:0:0:0:
272,280,74941,2,0,P|248:236|240:204,1,70,10|0,0:0|0:0,0:0:0:0:
284,144,75463,2,0,P|260:96|236:68,1,70,4|0,0:0|0:0,0:0:0:0:
184,32,75985,6,0,L|20:32,1,140,10|4,0:0|0:0,0:0:0:0:
24,116,76768,1,0,0:0:0:0:
108,116,77028,2,0,L|200:116,1,70,10|0,0:0|0:0,0:0:0:0:
220,192,77550,2,0,L|312:192,1,70,4|0,0:0|0:0,0:0:0:0:
348,128,78072,6,0,P|388:100|480:84,1,140,10|4,0:0|0:0,0:0:0:0:
480,168,78855,1,0,0:0:0:0:
484,252,79115,2,0,L|484:328,1,70,10|0,0:0|0:0,0:0:0:0:
400,324,79637,2,0,L|400:254,1,70,4|0,0:0|0:0,0:0:0:0:
324,212,80159,6,0,P|288:204|248:180,1,70,10|0,0:0|0:0,0:0:0:0:
188,148,80681,1,4,0:0:0:0:
132,84,80941,2,0,P|84:52|-8:28,1,140,10|0,0:0|0:0,0:0:0:0:
0,112,81724,2,0,P|40:140|72:152,1,70,4|0,0:0|0:0,0:0:0:0:
112,216,82246,6,0,P|152:212|196:224,2,70,10|0|4,0:0|0:0|0:0,0:0:0:0:
52,276,83028,1,0,0:0:0:0:
132,300,83289,2,0,P|172:304|216:292,1,70,10|0,0:0|0:0,0:0:0:0:
264,356,83811,2,0,P|300:339|332:307,1,70,4|0,0:0|0:0,0:0:0:0:
408,324,84333,6,0,P|436:256|516:208,1,140,10|4,0:0|0:0,0:0:0:0:
512,136,85115,1,0,0:0:0:0:
464,68,85376,2,0,L|380:68,1,70,10|0,0:0|0:0,0:0:0:0:
320,24,85898,2,0,L|240:24,1,70,4|0,0:0|0:0,0:0:0:0:
184,76,86420,6,0,P|224:116|256:216,1,140,10|4,0:0|0:0,0:0:0:0:
252,276,87202,1,0,0:0:0:0:
240,360,87463,2,0,P|200:344|176:316,1,70,10|0,0:0|0:0,0:0:0:0:
104,360,87985,2,0,P|77:326|70:289,1,70,4|0,0:0|0:0,0:0:0:0:
60,216,88507,6,0,P|124:192|184:120,1,140,10|4,0:0|0:0,0:0:0:0:
200,60,89289,1,0,0:0:0:0:
280,36,89550,2,0,L|352:36,2,70,10|0|4,0:0|0:0|0:0,0:0:0:0:
260,120,90333,1,0,0:0:0:0:
244,204,90594,6,0,P|288:224|364:300,1,140,10|4,0:0|0:0,0:0:0:0:
404,356,91376,1,0,0:0:0:0:
488,360,91637,2,0,P|476:316|452:284,1,70,10|0,0:0|0:0,0:0:0:0:
416,228,92159,2,0,P|416:184|432:136,1,70,4|0,0:0|0:0,0:0:0:0:
456,80,92681,5,10,0:0:0:0:
384,40,92941,1,0,0:0:0:0:
300,40,93202,2,0,P|232:44|176:32,2,105,4|10|10,0:0|0:0|0:0,0:0:0:0:
300,124,94246,2,0,P|252:128|216:124,1,70,4|0,0:0|0:0,0:0:0:0:
152,156,94768,6,0,P|112:148|60:148,1,70,10|0,0:0|0:0,0:0:0:0:
48,224,95289,2,0,P|110:251|167:258,2,105,4|10|10,0:0|0:0|0:0,0:0:0:0:
19,302,96333,2,0,P|62:322|97:330,1,70,4|0,0:0|0:0,0:0:0:0:
168,340,96855,6,0,P|232:332|316:348,1,140,10|6,0:0|0:0,0:0:0:0:
388,368,97637,1,0,0:0:0:0:
448,308,97898,2,0,P|496:308|528:300,2,70,10|0|4,0:0|0:0|0:0,0:0:0:0:
396,240,98681,1,0,0:0:0:0:
340,176,98941,6,0,P|292:176|260:184,2,70,10|0|4,0:0|0:0|0:0,0:0:0:0:
380,100,99724,1,0,0:0:0:0:
424,28,99985,2,0,P|472:28|504:36,2,70,10|0|4,0:0|0:0|0:0,0:0:0:0:
340,24,100768,1,0,0:0:0:0:
276,80,101028,6,0,P|232:80|184:72,1,70,10|0,0:0|0:0,0:0:0:0:
160,148,101550,2,0,P|220:160|280:160,2,105,4|10|10,0:0|0:0|0:0,0:0:0:0:
80,124,102594,1,4,0:0:0:0:
92,208,102855,6,0,P|100:248|100:284,2,70,0|10|0,0:0|0:0|0:0,0:0:0:0:
12,236,103637,2,0,P|8:292|28:368,2,105,4|10|10,0:0|0:0|0:0,0:0:0:0:
12,152,104681,2,0,P|4:112|4:76,1,70,4|0,0:0|0:0,0:0:0:0:
72,36,105202,6,0,L|144:36,1,70,10|0,0:0|0:0,0:0:0:0:
200,100,105724,2,0,L|272:100,1,70,4|0,0:0|0:0,0:0:0:0:
320,32,106246,1,10,0:0:0:0:
404,28,106507,2,0,L|476:28,2,70,0|4|0,0:0|0:0|0:0,0:0:0:0:
364,104,107289,6,0,P|368:144|388:180,1,70,10|0,0:0|0:0,0:0:0:0:
420,244,107811,1,4,0:0:0:0:
484,296,108072,1,0,0:0:0:0:
408,328,108333,2,0,P|368:344|328:344,1,70,10|0,0:0|0:0,0:0:0:0:
280,284,108855,2,0,P|308:251|322:214,1,70,4|4,0:0|0:0,0:0:0:0:
284,152,109376,6,0,P|232:196|200:288,1,140,6|10,0:0|0:0,0:0:0:0:
184,344,110159,1,0,0:0:0:0:
100,348,110420,2,0,P|60:344|24:328,1,70
16,252,110941,2,0,P|48:239|83:237,1,70,10|0,0:0|0:0,0:0:0:0:
140,176,111463,6,0,P|80:144|0:136,1,140,2|10,0:0|0:0,0:0:0:0:
20,52,112246,1,0,0:0:0:0:
100,32,112507,2,0,L|196:32,1,70,2|0,0:0|0:0,0:0:0:0:
232,92,113028,2,0,P|260:140|288:160,1,70,10|0,0:0|0:0,0:0:0:0:
228,224,113550,6,0,P|255:245|287:259,1,70,2|0,0:0|0:0,0:0:0:0:
368,284,114072,1,10,0:0:0:0:
424,351,114333,2,0,L|476:382,2,35,0|0|2,0:0|0:0|0:0,0:0:0:0:
457,273,114855,2,0,L|517:282,2,35,0|0|10,0:0|0:0|0:0,0:0:0:0:
403,206,115376,1,0,0:0:0:0:
321,211,115637,6,0,P|286:258|306:354,1,140,2|10,0:0|0:0,0:0:0:0:
216,368,116420,1,0,0:0:0:0:
132,368,116681,2,0,L|48:368,1,70,2|0,0:0|0:0,0:0:0:0:
52,284,117202,2,0,L|122:284,1,70,10|0,0:0|0:0,0:0:0:0:
140,200,117724,6,0,P|96:160|72:76,1,140,6|10,0:0|0:0,0:0:0:0:
132,24,118507,1,0,0:0:0:0:
192,84,118768,2,0,P|212:116|224:156,1,70,2|0,0:0|0:0,0:0:0:0:
232,232,119289,2,0,P|224:280|208:312,1,70,10|0,0:0|0:0,0:0:0:0:
284,352,119811,6,0,P|344:340|412:296,1,140,2|10,0:0|0:0,0:0:0:0:
448,224,120594,1,0,0:0:0:0:
496,156,120855,1,2,0:0:0:0:
488,72,121115,2,0,L|508:20,2,35,0|0|10,0:0|0:0|0:0,0:0:0:0:
412,108,121637,1,0,0:0:0:0:
328,116,121898,6,0,P|292:120|244:116,1,70,2|0,0:0|0:0,0:0:0:0:
176,104,122420,2,0,P|136:92|88:64,1,70,10|0,0:0|0:0,0:0:0:0:
28,96,122941,2,0,L|8:172,1,70,2|0,0:0|0:0,0:0:0:0:
68,224,123463,2,0,L|48:300,1,70,10|0,0:0|0:0,0:0:0:0:
116,344,123985,6,0,P|168:332|208:336,1,70,2|0,0:0|0:0,0:0:0:0:
256,288,124507,2,0,P|307:303|339:327,1,70,10|0,0:0|0:0,0:0:0:0:
396,352,125028,1,2,0:0:0:0:
480,340,125289,2,0,L|520:340,2,35,0|0|10,0:0|0:0|0:0,0:0:0:0:
428,272,125811,1,0,0:0:0:0:
352,236,126072,6,0,P|320:208|300:176,1,70,6|0,0:0|0:0,0:0:0:0:
260,112,126594,2,0,P|246:71|244:34,1,70,10|0,0:0|0:0,0:0:0:0:
328,36,127115,2,0,P|400:28|456:40,2,105,2|8|8,0:0|0:0|0:0,0:0:0:0:
344,120,128159,6,0,P|388:128|440:128,1,70,2|0,0:0|0:0,0:0:0:0:
436,212,128681,2,0,P|392:220|340:220,1,70,10|0,0:0|0:0,0:0:0:0:
352,304,129202,2,0,P|416:320|472:316,2,105,2|10|8,0:0|0:0|0:0,0:0:0:0:
276,268,130246,6,0,P|224:264|128:292,1,140,6|10,0:0|0:0,0:0:0:0:
72,340,131028,1,0,0:0:0:0:
60,256,131289,2,0,P|40:204|28:128,2,105,2|10|8,0:0|0:0|0:0,0:0:0:0:
132,212,132333,6,0,P|128:164|136:116,1,70,2|0,0:0|0:0,0:0:0:0:
208,108,132855,2,0,P|220:154|244:196,1,70,10|0,0:0|0:0,0:0:0:0:
312,164,133376,2,0,P|316:120|344:48,2,105,2|10|0,0:0|0:0|0:0,0:0:0:0:
372,224,134420,6,0,P|388:272|420:300,1,70,6|0,0:0|0:0,0:0:0:0:
460,224,134941,2,0,P|493:186|501:144,1,70,10|0,0:0|0:0,0:0:0:0:
416,148,135463,2,0,P|372:128|288:140,2,105,2|8|8,0:0|0:0|0:0,0:0:0:0:
444,68,136507,6,0,P|484:48|516:48,2,70,2|0|10,0:0|0:0|0:0,0:0:0:0:
364,40,137289,1,0,0:0:0:0:
280,32,137550,2,0,P|232:48|164:40,2,105,2|10|8,0:0|0:0|0:0,0:0:0:0:
300,116,138594,6,0,P|236:136|140:120,1,140,6|10,0:0|0:0,0:0:0:0:
88,92,139376,1,0,0:0:0:0:
48,168,139637,2,0,P|32:220|40:276,2,105,2|10|8,0:0|0:0|0:0,0:0:0:0:
124,208,140681,6,0,P|144:244|152:288,1,70,2|0,0:0|0:0,0:0:0:0:
208,332,141202,1,10,0:0:0:0:
292,344,141463,2,0,L|384:348,2,70,0|2|0,0:0|0:0|0:0,0:0:0:0:
260,264,142246,2,0,P|220:248|168:252,1,70,10|0,0:0|0:0,0:0:0:0:
148,176,142768,6,0,P|208:144|264:76,1,140,6|10,0:0|0:0,0:0:0:0:
324,44,143550,2,0,L|368:20,2,35,0|0|2,0:0|0:0|0:0,0:0:0:0:
332,128,144072,2,0,L|376:152,2,35,0|0|10,0:0|0:0|0:0,0:0:0:0:
284,196,144594,1,0,0:0:0:0:
200,216,144855,6,0,P|160:216|116:204,1,70,2|0,0:0|0:0,0:0:0:0:
56,172,145376,2,0,P|24:144|8:112,1,70,10|0,0:0|0:0,0:0:0:0:
92,92,145898,2,0,L|212:64,2,105,2|10|0,0:0|0:0|0:0,0:0:0:0:
28,36,146941,5,6,0:0:0:0:
256,192,147202,12,0,149028,0:0:0:0:
