osu file format v14

[General]
AudioFilename: 66016b95b9.mp3
AudioLeadIn: 1000
PreviewTime: 17420
Countdown: 0
SampleSet: Soft
StackLeniency: 0.7
Mode: 0
LetterboxInBreaks: 0
WidescreenStoryboard: 0

[Editor]
DistanceSpacing: 1.4
BeatDivisor: 4
GridSize: 4
TimelineZoom: 3.199999

[Metadata]
Title:Beautiful World
TitleUnicode:Beautiful World
Artist:Utada Hikaru
ArtistUnicode:宇多田ヒカル
Creator:tutuhaha
Version:Beautiful
Source:ヱヴァンゲリヲン新劇場版:序
Tags:EVA Neon Genesis Evangelion cut
BeatmapID:556052
BeatmapSetID:240627

[Difficulty]
HPDrainRate:7
CircleSize:4
OverallDifficulty:7.5
ApproachRate:8.5
SliderMultiplier:2.2
SliderTickRate:1

[Events]
//Background and Video events
0,0,"f4793dfbfca03f324e4aea2e.jpg",0,0
Video,0,"Beautiful World.avi"
//Break Periods
//Storyboard Layer 0 (Background)
//Storyboard Layer 1 (Fail)
//Storyboard Layer 2 (Pass)
//Storyboard Layer 3 (Foreground)
//Storyboard Sound Samples

[TimingPoints]
855,521.739130434783,4,2,1,20,1,0
855,-200,4,2,1,20,0,0
9463,-133.333333333333,4,2,1,20,0,0
17550,-83.3333333333333,4,1,1,20,0,1
35550,-83.3333333333333,4,3,1,60,0,1
35681,-83.3333333333333,4,1,1,20,0,1
36072,-83.3333333333333,4,3,1,40,0,1
36202,-83.3333333333333,4,1,1,20,0,1
39724,-83.3333333333333,4,3,1,60,0,1
39855,-83.3333333333333,4,1,1,20,0,1
40246,-83.3333333333333,4,3,1,40,0,1
40376,-83.3333333333333,4,1,1,20,0,1
43898,-83.3333333333333,4,3,1,60,0,1
44028,-83.3333333333333,4,1,1,20,0,1
44420,-83.3333333333333,4,3,1,40,0,1
44550,-83.3333333333333,4,1,1,20,0,1
48202,-83.3333333333333,4,3,1,40,0,1
48463,-83.3333333333333,4,1,1,20,0,1
48594,-83.3333333333333,4,3,1,60,0,1
48855,-83.3333333333333,4,1,1,20,0,1
50941,-83.3333333333333,4,1,1,20,0,0
59289,-100,4,2,2,30,0,0
109376,-83.3333333333333,4,1,1,30,0,1
127376,-83.3333333333333,4,3,1,60,0,1
127507,-83.3333333333333,4,1,1,30,0,1
127898,-83.3333333333333,4,3,1,40,0,1
128028,-83.3333333333333,4,1,1,30,0,1
131550,-83.3333333333333,4,3,1,60,0,1
131681,-83.3333333333333,4,1,1,30,0,1
132072,-83.3333333333333,4,3,1,40,0,1
132202,-83.3333333333333,4,1,1,30,0,1
135724,-83.3333333333333,4,3,1,60,0,1
135855,-83.3333333333333,4,1,1,30,0,1
136246,-83.3333333333333,4,3,1,40,0,1
136376,-83.3333333333333,4,1,1,30,0,1
138202,-83.3333333333333,4,2,2,40,0,1
138333,-83.3333333333333,4,3,1,40,0,1
138594,-83.3333333333333,4,1,1,30,0,1
140028,-83.3333333333333,4,3,1,40,0,1
140289,-83.3333333333333,4,1,1,30,0,1
140420,-83.3333333333333,4,3,1,60,0,1
140681,-83.3333333333333,4,1,1,30,0,1
142768,-100,4,1,1,30,0,0
147072,-100,4,2,1,5,0,0

[Colours]
Combo1 : 159,255,64
Combo2 : 85,170,255
Combo3 : 140,140,140
Combo4 : 170,85,255

[HitObjects]
80,32,855,6,0,P|136:56|144:64,1,55,2|0,0:0|0:0,0:0:0:0:
204,36,1246,2,0,P|140:72|128:192,1,192.5,2|0,0:0|0:0,0:0:0:0:
152,284,2420,1,2,0:0:0:0:
220,204,2681,1,0,0:0:0:0:
220,204,3202,5,0,0:0:0:0:
152,284,3463,1,2,0:0:0:0:
152,284,3985,2,0,P|196:288|240:304,2,82.5,0|2|2,0:0|0:0|0:0,0:0:0:0:
104,212,5028,6,0,P|80:204|52:180,1,55,2|0,0:0|0:0,0:0:0:0:
136,136,5420,2,0,P|160:128|188:104,1,55,2|0,0:0|0:0,0:0:0:0:
88,72,5811,2,0,P|112:104|204:192,1,165,0|2,0:0|0:0,0:0:0:0:
296,248,6855,1,2,0:0:0:0:
296,248,7376,5,0,0:0:0:0:
316,140,7637,2,0,P|336:92|340:76,1,55,2|0,0:0|0:0,0:0:0:0:
344,72,8028,1,0,0:0:0:0:
348,56,8159,1,0,0:0:0:0:
348,40,8289,1,0,0:0:0:0:
428,40,8420,6,0,P|448:40|492:52,1,55,2|0,0:0|0:0,0:0:0:0:
487,142,8811,2,0,P|465:127|438:120,1,55,2|0,0:0|0:0,0:0:0:0:
432,204,9202,5,0,0:0:0:0:
448,212,9333,1,0,0:0:0:0:
460,224,9463,2,0,P|474:238|502:294,1,82.5000031471254,4|2,0:0|0:0,0:0:0:0:
348,376,9985,1,0,0:0:0:0:
336,364,10115,1,0,0:0:0:0:
328,348,10246,2,0,P|316:300|324:244,1,82.5000031471254,2|0,0:0|0:0,0:0:0:0:
348,132,10637,2,0,P|312:166|259:187,1,82.5000031471254,2|0,0:0|0:0,0:0:0:0:
156,224,11028,6,0,P|203:237|248:272,2,82.5000031471254,0|2|0,0:0|0:0|0:0,0:0:0:0:
0,244,11811,1,2,0:0:0:0:
156,224,12072,1,0,0:0:0:0:
56,352,12333,1,2,0:0:0:0:
136,144,12594,1,0,0:0:0:0:
116,152,12724,2,0,P|84:192|72:236,1,82.5000031471254,2|0,0:0|0:0,0:0:0:0:
64,304,13115,1,2,0:0:0:0:
156,224,13376,5,4,0:0:0:0:
60,40,13637,1,0,0:0:0:0:
216,52,13898,1,2,0:0:0:0:
372,24,14159,1,0,0:0:0:0:
388,28,14289,1,0,0:0:0:0:
404,32,14420,1,2,0:0:0:0:
492,164,14681,1,0,0:0:0:0:
476,172,14811,1,2,0:0:0:0:
404,312,15072,1,0,0:0:0:0:
420,320,15202,1,2,0:0:0:0:
360,160,15463,6,0,P|332:120|288:92,1,82.5000031471254,0|2,0:0|0:0,0:0:0:0:
88,140,15985,2,0,P|67:184|65:236,1,82.5000031471254,0|2,0:0|0:0,0:0:0:0:
216,360,16507,2,0,P|264:355|310:331,1,82.5000031471254,0|2,0:0|0:0,0:0:0:0:
416,342,17028,6,0,L|432:356,7,20.6250007867813,0|0|0|0|2|0|0|0,0:0|0:0|0:0|0:0|0:0|0:0|0:0|0:0,0:0:0:0:
432,356,17550,6,0,P|420:300|432:224,1,131.99999597168,6|0,0:0|0:0,0:0:0:0:
468,152,17941,1,0,0:0:0:0:
476,132,18072,2,0,P|492:112|508:68,1,65.9999979858399,10|0,0:0|0:0,0:0:0:0:
428,64,18333,2,0,P|436:39|440:-8,1,65.9999979858399
348,92,18594,6,0,P|316:108|296:140,1,65.9999979858399,2|0,0:0|0:0,0:0:0:0:
188,232,18855,2,0,P|220:216|244:184,1,65.9999979858399
224,116,19115,2,0,L|172:72,1,65.9999979858399,10|0,0:0|0:0,0:0:0:0:
316,208,19376,2,0,L|366:250,1,65.9999979858399
488,300,19637,6,0,P|444:304|368:360,1,131.99999597168,2|0,0:0|0:0,0:0:0:0:
292,352,20028,1,0,0:0:0:0:
268,352,20159,2,0,P|224:348|152:292,1,131.99999597168,10|0,0:0|0:0,0:0:0:0:
140,144,20550,1,0,0:0:0:0:
148,164,20681,6,0,B|168:220|168:220|76:220|72:320,1,197.99999395752,2|0,0:0|0:0,0:0:0:0:
48,176,21202,2,0,P|44:152|48:100,1,65.9999979858399,10|0,0:0|0:0,0:0:0:0:
152,60,21463,2,0,P|156:96|152:144,1,65.9999979858399
256,184,21724,6,0,B|236:128|236:128|280:132|312:88,2,131.99999597168,2|0|10,0:0|0:0|0:0,0:0:0:0:
480,212,22507,1,0,0:0:0:0:
488,232,22637,1,0,0:0:0:0:
496,252,22768,6,0,B|516:308|516:308|472:304|440:348,1,131.99999597168,2|0,0:0|0:0,0:0:0:0:
400,204,23159,2,0,P|423:153|520:144,1,131.99999597168,10|0,0:0|0:0,0:0:0:0:
396,280,23550,2,0,L|316:296,1,65.9999979858399
176,200,23811,6,0,B|248:200|284:232|284:232|248:264|256:316,1,197.99999395752,2|0,0:0|0:0,0:0:0:0:
308,368,24333,1,10,0:0:0:0:
140,300,24594,1,0,0:0:0:0:
400,204,24855,5,2,0:0:0:0:
184,368,25115,2,0,P|212:336|216:292,1,65.9999979858399
140,120,25376,2,0,P|102:159|101:247,1,131.99999597168,10|0,0:0|0:0,0:0:0:0:
140,300,25768,1,0,0:0:0:0:
156,284,25898,6,0,P|176:256|180:216,1,65.9999979858399,2|0,0:0|0:0,0:0:0:0:
260,260,26159,2,0,P|263:225|244:184,1,65.9999979858399
336,184,26420,2,0,P|321:152|288:128,1,65.9999979858399,10|0,0:0|0:0,0:0:0:0:
368,80,26681,2,0,P|339:60|296:56,1,65.9999979858399
108,44,26941,6,0,P|176:24|252:24,1,131.99999597168,2|0,0:0|0:0,0:0:0:0:
168,144,27333,1,0,0:0:0:0:
144,144,27463,2,0,P|73:139|4:112,1,131.99999597168,10|0,0:0|0:0,0:0:0:0:
280,124,27985,5,2,0:0:0:0:
300,288,28246,1,0,0:0:0:0:
428,184,28507,1,10,0:0:0:0:
183,216,28768,2,0,P|215:205|247:200,1,65.9999979858399
148,188,29028,6,0,P|80:184|8:148,1,131.99999597168,2|0,0:0|0:0,0:0:0:0:
72,52,29420,1,0,0:0:0:0:
80,76,29550,2,0,P|104:104|144:120,1,65.9999979858399,10|0,0:0|0:0,0:0:0:0:
304,76,29811,2,0,P|280:104|240:116,1,65.9999979858399
112,224,30072,6,0,P|168:196|276:204,1,131.99999597168,2|0,0:0|0:0,0:0:0:0:
376,280,30594,1,10,0:0:0:0:
260,140,30855,1,0,0:0:0:0:
248,120,30985,1,0,0:0:0:0:
236,100,31115,5,2,0:0:0:0:
280,280,31376,1,0,0:0:0:0:
280,303,31507,1,0,0:0:0:0:
280,326,31637,1,10,0:0:0:0:
124,36,31898,1,0,0:0:0:0:
124,36,32159,6,0,P|108:100|60:156,1,131.99999597168,2|0,0:0|0:0,0:0:0:0:
184,376,32681,2,0,P|172:316|200:228,1,131.99999597168,10|0,0:0|0:0,0:0:0:0:
400,76,33202,1,2,0:0:0:0:
188,248,33463,2,0,P|160:248|108:232,1,65.9999979858399
224,264,33724,2,0,P|284:264|368:288,1,131.99999597168,10|2,0:0|0:0,0:0:0:0:
480,332,34115,1,0,0:0:0:0:
472,304,34246,6,0,P|452:232|468:88,1,197.99999395752,6|0,0:2|0:0,0:0:0:0:
292,40,34768,2,0,P|345:92|384:168,1,131.99999597168,10|0,0:0|0:0,0:0:0:0:
288,164,35159,1,0,0:0:0:0:
264,148,35289,6,0,P|212:132|116:136,1,131.99999597168,2|0,0:0|0:0,0:0:0:0:
216,220,35681,2,0,P|164:236|68:228,1,131.99999597168,10|0,0:0|0:0,0:0:0:0:
248,296,36072,2,0,P|304:272|480:292,1,197.99999395752,8|2,0:0|0:0,0:0:0:0:
464,284,36594,1,0,0:0:0:0:
184,216,36855,2,0,P|116:220|40:196,1,131.99999597168,10|0,0:0|0:0,0:0:0:0:
316,116,37376,5,2,0:0:0:0:
344,128,37507,1,0,0:0:0:0:
468,236,37768,1,10,0:0:0:0:
492,40,38028,1,0,0:0:0:0:
480,68,38159,1,2,0:0:0:0:
252,24,38420,6,0,P|244:92|192:160,1,131.99999597168,6|0,0:0|0:0,0:0:0:0:
28,360,38941,2,0,P|60:312|136:272,1,131.99999597168,10|0,0:0|0:0,0:0:0:0:
376,172,39463,1,2,0:0:0:0:
316,328,39724,1,0,0:0:0:0:
304,348,39855,2,0,P|268:296|196:256,1,131.99999597168,10|0,0:0|0:0,0:0:0:0:
80,208,40246,2,0,L|164:236,1,65.9999979858399,8|0,0:0|0:0,0:0:0:0:
72,128,40507,6,0,P|16:160|8:236,2,131.99999597168,2|0|10,0:0|0:0|0:0,0:0:0:0:
256,52,41289,1,0,0:0:0:0:
416,144,41550,2,0,P|479:133|516:68,1,131.99999597168,2|0,0:0|0:0,0:0:0:0:
368,80,41941,1,0,0:0:0:0:
352,104,42072,2,0,P|340:140|348:176,1,65.9999979858399,10|0,0:0|0:0,0:0:0:0:
416,240,42333,2,0,P|452:252|488:244,1,65.9999979858399
428,156,42594,6,0,B|364:204|348:280|348:280|316:240,1,197.99999395752,6|0,0:0|0:0,0:0:0:0:
233,303,43115,2,0,B|204:340|204:340|188:268|140:244,1,131.99999597168,10|0,0:0|0:0,0:0:0:0:
116,104,43507,1,0,0:0:0:0:
136,124,43637,2,0,P|184:180|248:212,1,131.99999597168,2|0,0:0|0:0,0:0:0:0:
376,160,44028,2,0,P|320:124|244:112,1,131.99999597168,10|0,0:0|0:0,0:0:0:0:
88,276,44420,6,0,P|184:272|280:220,1,197.99999395752,8|2,0:0|0:0,0:0:0:0:
296,212,44941,1,0,0:0:0:0:
392,52,45202,1,10,0:0:0:0:
236,140,45463,1,0,0:0:0:0:
60,116,45724,5,2,0:0:0:0:
32,104,45855,1,0,0:0:0:0:
244,68,46115,2,0,P|296:108|344:172,1,131.99999597168,10|0,0:0|0:0,0:0:0:0:
400,292,46507,2,0,L|372:220,1,65.9999979858399,2|0,0:0|0:0,0:0:0:0:
388,24,46768,6,0,P|396:104|460:212,1,197.99999395752,6|0,0:0|0:0,0:0:0:0:
268,40,47289,2,0,P|306:93|328:155,1,131.99999597168,10|0,0:0|0:0,0:0:0:0:
304,232,47681,1,0,0:0:0:0:
292,260,47811,5,0,0:0:0:0:
192,332,48072,1,0,0:0:0:0:
164,320,48202,1,0,0:0:0:0:
280,344,48463,1,2,0:0:0:0:
308,356,48594,1,0,0:0:0:0:
136,308,48855,6,0,P|80:284|16:228,1,131.99999597168,2|0,0:0|0:0,0:0:0:0:
16,56,49376,1,10,0:0:0:0:
200,72,49637,1,0,0:0:0:0:
448,52,49898,2,0,P|348:68|236:212,1,263.99999194336,2|10,0:0|0:0,0:0:0:0:
8,360,50681,1,0,0:0:0:0:
28,352,50811,1,0,0:0:0:0:
48,344,50941,6,0,P|112:288|152:176,1,197.99999395752,6|0,2:0|0:0,0:0:0:0:
112,36,51463,2,0,P|104:60|104:108,1,65.9999979858399,10|0,0:0|0:0,0:0:0:0:
192,68,51724,2,0,P|200:92|204:144,1,65.9999979858399
296,40,51985,2,0,P|288:64|284:112,1,65.9999979858399,2|0,0:0|0:0,0:0:0:0:
376,72,52246,2,0,P|384:96|388:140,1,65.9999979858399
452,32,52507,1,10,0:0:0:0:
392,292,52768,1,0,0:0:0:0:
150,339,53028,5,2,0:0:0:0:
158,315,53159,1,0,0:0:0:0:
174,295,53289,1,0,0:0:0:0:
196,280,53420,1,0,0:0:0:0:
216,272,53550,6,0,B|152:252|124:160|124:160|124:192|112:216,1,197.99999395752,10|0,0:0|0:0,0:0:0:0:
232,196,54072,2,0,P|300:192|364:160,1,131.99999597168,2|0,0:0|0:0,0:0:0:0:
512,240,54463,1,0,0:0:0:0:
488,248,54594,2,0,P|412:264|344:252,1,131.99999597168,10|0,0:0|0:0,0:0:0:0:
240,56,55115,5,2,0:0:0:0:
380,144,55376,1,0,0:0:0:0:
400,128,55507,1,0,0:0:0:0:
420,112,55637,1,10,0:0:0:0:
292,272,55898,1,0,0:0:0:0:
272,288,56028,1,0,0:0:0:0:
252,304,56159,6,0,P|264:244|236:172,1,131.99999597168,2|0,0:0|0:0,0:0:0:0:
200,108,56550,1,0,0:0:0:0:
180,92,56681,1,10,0:0:0:0:
56,320,56941,1,0,0:0:0:0:
332,348,57202,6,0,P|392:348|472:364,1,131.99999597168,2|0,0:0|0:0,0:0:0:0:
164,164,57724,2,0,P|224:164|304:184,1,131.99999597168,10|0,0:0|0:0,0:0:0:0:
356,120,58115,1,0,0:0:0:0:
380,124,58246,6,0,P|440:124|512:104,1,131.99999597168,2|0,0:0|0:0,0:0:0:0:
276,80,58637,2,0,P|240:132|216:208,1,131.99999597168,10|0,0:0|0:0,0:0:0:0:
284,336,59028,2,0,P|284:284|268:244,1,65.9999979858399
292,360,59289,6,0,P|256:304|192:260,1,110,10|0,0:0|0:0,0:0:0:0:
160,188,59681,1,0,0:0:0:0:
184,196,59811,2,0,P|208:200|248:200,1,55,4|0,0:0|0:0,0:0:0:0:
296,124,60072,2,0,P|272:120|232:120,1,55
160,104,60333,5,10,0:0:0:0:
132,268,60594,1,0,0:0:0:0:
128,288,60724,1,0,0:0:0:0:
124,308,60855,1,4,0:0:0:0:
56,156,61115,1,0,0:0:0:0:
52,136,61246,1,0,0:0:0:0:
48,116,61376,6,0,P|104:88|144:36,1,110,10|0,0:0|0:0,0:0:0:0:
272,88,61768,1,0,0:0:0:0:
252,96,61898,2,0,P|220:96|184:116,1,55,4|0,0:0|0:0,0:0:0:0:
160,176,62159,2,0,P|185:185|213:184,1,55
330,217,62420,6,0,P|309:199|296:176,1,55,10|0,0:0|0:0,0:0:0:0:
444,176,62681,2,0,P|430:199|409:217,1,55
356,88,62941,2,0,P|424:80|468:56,1,110,4|0,0:0|0:0,0:0:0:0:
252,96,63463,6,0,P|208:100|140:140,1,110,10|0,0:0|0:0,0:0:0:0:
76,164,63855,1,0,0:0:0:0:
84,184,63985,2,0,P|96:248|76:312,1,110,4|0,0:0|0:0,0:0:0:0:
28,344,64376,1,0,0:0:0:0:
16,328,64507,5,10,0:0:0:0:
228,308,64768,1,0,0:0:0:0:
216,324,64898,1,0,0:0:0:0:
204,340,65028,1,4,0:0:0:0:
404,296,65289,1,0,0:0:0:0:
416,312,65420,1,0,0:0:0:0:
428,328,65550,6,0,P|464:328|488:320,1,55,10|0,0:0|0:0,0:0:0:0:
464,244,65811,2,0,P|495:226|511:207,1,55
480,136,66072,1,4,0:0:0:0:
256,100,66333,1,0,0:0:0:0:
428,328,66594,6,0,P|400:276|328:236,1,110,10|0,0:0|0:0,0:0:0:0:
288,212,66985,1,0,0:0:0:0:
264,216,67115,2,0,P|240:220|204:232,1,55,4|0,0:0|0:0,0:0:0:0:
328,144,67376,2,0,P|350:152|387:160,1,55
256,100,67637,6,0,B|192:72|132:68|132:68|136:88|152:108,1,165,10|0,0:0|0:0,0:0:0:0:
112,168,68159,2,0,P|90:150|75:127,1,55,4|0,0:0|0:0,0:0:0:0:
120,252,68420,2,0,P|92:247|68:235,1,55,0|0,0:0|0:0,0:0:0:0:
164,320,68681,6,0,P|139:330|112:332,1,55,10|0,0:0|0:0,0:0:0:0:
200,252,68941,1,0,0:0:0:0:
220,256,69072,1,0,0:0:0:0:
240,268,69202,2,0,P|272:284|368:296,1,110,4|0,0:0|0:0,0:0:0:0:
392,136,69724,5,10,0:0:0:0:
120,160,69985,1,0,0:0:0:0:
368,52,70246,1,4,0:0:0:0:
104,80,70507,1,0,0:0:0:0:
96,60,70637,1,0,0:0:0:0:
88,40,70768,5,10,0:0:0:0:
288,152,71028,1,0,0:0:0:0:
280,172,71159,1,0,0:0:0:0:
272,192,71289,1,4,0:0:0:0:
24,108,71550,1,0,0:0:0:0:
308,68,71811,6,0,P|356:108|376:164,1,110,10|0,0:0|0:0,0:0:0:0:
452,364,72333,2,0,P|424:312|420:248,1,110,4|0,0:0|0:0,0:0:0:0:
448,188,72724,1,0,0:0:0:0:
456,168,72855,6,0,P|464:136|464:96,1,55,10|0,0:0|0:0,0:0:0:0:
384,120,73115,2,0,P|376:88|376:48,1,55
240,24,73376,2,0,P|284:80|304:144,1,110,4|0,0:0|0:0,0:0:0:0:
268,188,73768,1,0,0:0:0:0:
260,208,73898,5,10,0:0:0:0:
52,204,74159,1,0,0:0:0:0:
256,340,74420,1,4,0:0:0:0:
112,144,74681,2,0,P|104:124|96:80,1,55
184,184,74941,6,0,P|172:256|136:324,1,110,10|0,0:0|0:0,0:0:0:0:
484,176,75463,2,0,P|492:196|500:240,1,55,4|0,0:0|0:0,0:0:0:0:
408,176,75724,1,0,0:0:0:0:
408,156,75855,1,0,0:0:0:0:
412,136,75985,6,0,P|424:64|460:-4,1,110,10|0,0:0|0:0,0:0:0:0:
320,288,76507,1,4,0:0:0:0:
64,176,76768,1,0,0:0:0:0:
48,160,76898,1,0,0:0:0:0:
32,144,77028,6,0,P|92:144|152:120,1,110,10|0,0:0|0:0,0:0:0:0:
352,32,77550,2,0,P|320:32|276:44,1,55,4|0,0:0|0:0,0:0:0:0:
340,108,77811,2,0,P|312:124|280:156,1,55
184,272,78072,6,0,P|256:240|296:188,1,110,10|0,0:0|0:0,0:0:0:0:
352,32,78594,1,4,0:0:0:0:
392,236,78855,2,0,P|388:272|392:312,1,55
312,228,79115,5,10,0:0:0:0:
308,208,79246,1,0,0:0:0:0:
304,188,79376,2,0,P|300:148|308:108,2,55,0|0|4,0:0|0:0|0:0,0:0:0:0:
396,336,79898,1,0,0:0:0:0:
376,328,80028,1,0,0:0:0:0:
356,324,80159,5,10,0:0:0:0:
172,364,80420,1,0,0:0:0:0:
212,180,80681,2,0,P|240:172|284:172,1,55,4|0,0:0|0:0,0:0:0:0:
444,240,80941,6,0,P|384:228|312:192,1,110,0|10,0:0|0:0,0:0:0:0:
304,96,81333,1,0,0:0:0:0:
324,108,81463,2,0,P|340:120|384:136,1,55
240,144,81724,2,0,P|224:132|180:116,1,55,4|0,0:0|0:0,0:0:0:0:
288,84,81985,6,0,P|307:86|353:78,1,55
404,32,82246,1,10,0:0:0:0:
356,208,82507,1,0,0:0:0:0:
348,228,82637,1,0,0:0:0:0:
340,248,82768,1,4,0:0:0:0:
180,340,83028,5,0,0:0:0:0:
240,48,83289,1,10,0:0:0:0:
64,136,83550,2,0,P|60:168|68:208,1,55
96,264,83811,5,4,0:0:0:0:
116,252,83941,1,0,0:0:0:0:
136,244,84072,1,0,0:0:0:0:
156,240,84202,1,0,0:0:0:0:
176,236,84333,5,10,0:0:0:0:
400,344,84594,1,0,0:0:0:0:
152,356,84855,2,0,P|176:292|172:224,1,110,4|0,0:0|0:0,0:0:0:0:
96,140,85246,1,0,0:0:0:0:
88,160,85376,6,0,P|88:192|96:228,1,55,10|0,0:0|0:0,0:0:0:0:
176,116,85637,2,0,P|176:148|168:184,1,55
112,64,85898,1,4,0:0:0:0:
288,272,86159,1,0,0:0:0:0:
388,28,86420,6,0,P|328:48|280:120,1,110,10|0,0:0|0:0,0:0:0:0:
132,328,86941,2,0,P|79:312|40:274,1,110,4|0,0:0|0:0,0:0:0:0:
40,184,87333,1,0,0:0:0:0:
60,192,87463,6,0,P|88:208|112:240,1,55,10|0,0:0|0:0,0:0:0:0:
164,172,87724,2,0,P|180:199|185:239,1,55,0|0,0:0|0:0,0:0:0:0:
288,296,87985,2,0,P|271:268|266:228,1,55,4|0,0:0|0:0,0:0:0:0:
392,276,88246,2,0,P|364:260|340:228,1,55
472,232,88507,5,10,0:0:0:0:
332,132,88768,1,0,0:0:0:0:
312,120,88898,1,0,0:0:0:0:
292,108,89028,1,4,0:0:0:0:
480,64,89289,2,0,P|492:84|504:120,1,55
404,80,89550,6,0,P|356:40|280:28,1,110,10|0,0:0|0:0,0:0:0:0:
224,24,89941,1,0,0:0:0:0:
232,44,90072,2,0,P|216:80|188:100,1,55,4|0,0:0|0:0,0:0:0:0:
268,148,90333,2,0,P|236:171|201:174,1,55
92,132,90594,6,0,L|164:152,1,55,10|0,0:0|0:0,0:0:0:0:
52,204,90855,2,0,L|0:189,1,55
100,268,91115,2,0,P|128:231|132:201,1,55,4|0,0:0|0:0,0:0:0:0:
42,67,91376,2,0,P|23:87|12:112,1,55
200,88,91637,6,0,P|200:64|216:24,1,55,10|0,0:0|0:0,0:0:0:0:
272,136,91898,2,0,P|284:115|317:88,1,55,0|0,0:0|0:0,0:0:0:0:
340,192,92159,2,0,P|384:164|472:156,1,110,4|0,0:0|0:0,0:0:0:0:
183,234,92681,6,0,P|116:230|46:252,1,110,10|0,0:0|0:0,0:0:0:0:
292,332,93202,1,4,0:0:0:0:
424,212,93463,5,0,0:0:0:0:
408,228,93594,1,10,0:0:0:0:
224,152,93855,1,0,0:0:0:0:
229,174,93985,1,10,0:0:0:0:
64,280,94246,1,4,0:0:0:0:
85,286,94376,1,0,0:0:0:0:
104,292,94507,1,0,0:0:0:0:
328,150,94768,6,0,P|395:153|465:131,1,110,10|0,0:0|0:0,0:0:0:0:
220,52,95289,1,4,0:0:0:0:
88,172,95550,1,0,0:0:0:0:
104,156,95681,6,0,P|168:164|220:200,1,110,10|0,0:0|0:0,0:0:0:0:
284,208,96072,2,0,P|280:160|268:132,1,55,10|0,0:0|0:0,0:0:0:0:
288,288,96333,2,0,P|340:324|416:328,1,110,4|0,0:0|0:0,0:0:0:0:
476,120,96855,5,10,0:0:0:0:
328,196,97115,1,0,0:0:0:0:
236,60,97376,1,4,0:0:0:0:
420,192,97637,1,2,0:0:0:0:
432,208,97768,1,0,0:0:0:0:
444,224,97898,1,10,0:0:0:0:
252,144,98159,5,0,0:0:0:0:
233,151,98289,1,0,0:0:0:0:
215,159,98420,1,4,0:0:0:0:
60,216,98681,1,2,0:0:0:0:
256,336,98941,6,0,P|312:336|400:348,1,110,10|0,0:0|0:0,0:0:0:0:
256,48,99463,2,0,P|200:48|112:36,1,110,4|0,0:0|0:0,0:0:0:0:
68,24,99855,1,0,0:0:0:0:
48,16,99985,6,0,P|36:64|36:96,1,55,10|0,0:0|0:0,0:0:0:0:
40,152,100246,2,0,P|52:200|52:232,1,55,0|0,0:0|0:0,0:0:0:0:
80,324,100507,1,4,0:0:0:0:
76,304,100637,1,0,0:0:0:0:
76,284,100768,2,0,P|104:280|152:292,1,55
288,256,101028,6,0,P|224:248|168:220,1,110,10|0,0:0|0:0,0:0:0:0:
392,192,101550,1,4,0:0:0:0:
355,366,101811,5,0,0:0:0:0:
360,344,101941,1,10,0:0:0:0:
203,223,102202,1,0,0:0:0:0:
224,216,102333,1,10,0:0:0:0:
233,20,102594,1,4,0:0:0:0:
249,35,102724,1,0,0:0:0:0:
268,48,102855,2,0,P|300:64|340:76,1,55
396,88,103115,5,10,0:0:0:0:
332,240,103376,1,0,0:0:0:0:
496,224,103637,1,4,0:0:0:0:
268,188,103898,1,0,0:0:0:0:
244,196,104028,5,10,0:0:0:0:
92,104,104289,1,0,0:0:0:0:
68,96,104420,2,0,P|40:84|16:56,1,55,10|0,0:0|0:0,0:0:0:0:
160,68,104681,2,0,P|168:96|164:136,1,55,4|0,0:0|0:0,0:0:0:0:
240,48,104941,2,0,P|264:20|296:8,1,55
360,28,105202,5,10,0:0:0:0:
468,152,105463,1,0,0:0:0:0:
476,172,105594,1,0,0:0:0:0:
484,192,105724,1,4,0:0:0:0:
348,284,105985,1,2,0:0:0:0:
344,305,106115,1,0,0:0:0:0:
341,326,106246,1,10,0:0:0:0:
176,344,106507,1,0,0:0:0:0:
162,360,106637,1,0,0:0:0:0:
148,376,106768,6,0,P|132:336|116:312,1,55,4|0,0:0|0:0,0:0:0:0:
76,264,107028,2,0,P|60:248|40:204,1,55
52,140,107289,1,10,0:0:0:0:
240,304,107550,5,0,0:0:0:0:
261,292,107681,1,0,0:0:0:0:
276,275,107811,2,0,P|312:258|341:237,1,55,4|0,0:0|0:0,0:0:0:0:
384,192,108072,2,0,P|407:159|422:126,1,55
396,20,108333,6,0,P|376:56|372:96,1,55
303,177,108594,2,0,P|288:154|280:128,1,55
424,256,108855,6,0,L|464:264,3,27.5,4|0|0|0,0:0|0:0|0:0|0:0,0:0:0:0:
404,252,109115,2,0,P|372:248|336:252,1,55,4|0,0:0|0:0,0:0:0:0:
216,364,109376,6,0,P|252:316|272:232,1,131.99999597168,6|0,0:0|0:0,0:0:0:0:
200,208,109768,1,0,0:0:0:0:
180,216,109898,2,0,P|152:160|152:84,1,131.99999597168,10|0,0:0|0:0,0:0:0:0:
212,40,110289,1,0,0:0:0:0:
232,52,110420,6,0,L|308:56,1,65.9999979858399,2|0,0:0|0:0,0:0:0:0:
132,16,110681,2,0,L|60:16,1,65.9999979858399
248,64,110941,2,0,P|320:64|404:32,1,131.99999597168,10|0,0:0|0:0,0:0:0:0:
488,148,111333,1,0,0:0:0:0:
464,140,111463,6,0,P|412:132|320:148,1,131.99999597168,2|0,0:0|0:0,0:0:0:0:
166,194,111855,1,0,0:0:0:0:
185,178,111985,2,0,P|217:136|250:49,1,131.99999597168,10|0,0:0|0:0,0:0:0:0:
284,208,112376,1,0,0:0:0:0:
264,224,112507,6,0,B|204:268|176:336|176:336|208:324|252:348,1,197.99999395752,2|0,0:0|0:0,0:0:0:0:
332,272,113028,2,0,P|360:236|364:200,1,65.9999979858399,10|0,0:0|0:0,0:0:0:0:
252,104,113289,2,0,P|224:140|220:176,1,65.9999979858399
328,128,113550,5,2,0:0:0:0:
136,52,113811,1,0,0:0:0:0:
380,52,114072,1,10,0:0:0:0:
400,44,114202,1,0,0:0:0:0:
420,48,114333,1,0,0:0:0:0:
440,40,114463,1,0,0:0:0:0:
460,44,114594,5,2,0:0:0:0:
488,240,114855,1,0,0:0:0:0:
472,260,114985,1,10,0:0:0:0:
288,192,115246,1,0,0:0:0:0:
284,164,115376,1,0,0:0:0:0:
460,44,115637,6,0,B|464:128|432:176|432:176|404:144|360:140,1,197.99999395752,2|0,0:0|0:0,0:0:0:0:
372,224,116159,1,10,0:0:0:0:
216,276,116420,1,0,0:0:0:0:
504,368,116681,6,0,P|468:332|380:300,1,131.99999597168,2|0,0:0|0:0,0:0:0:0:
316,316,117072,1,0,0:0:0:0:
304,292,117202,2,0,P|292:260|268:220,1,65.9999979858399,10|0,0:0|0:0,0:0:0:0:
236,164,117463,1,0,0:0:0:0:
8,44,117724,6,0,P|112:64|172:56,1,131.99999597168,2|0,0:0|0:0,0:0:0:0:
216,36,118115,1,0,0:0:0:0:
240,24,118246,2,0,P|312:16|392:32,1,131.99999597168,10|0,0:0|0:0,0:0:0:0:
444,56,118637,1,0,0:0:0:0:
428,80,118768,6,0,P|404:104|352:124,1,65.9999979858399,2|0,0:0|0:0,0:0:0:0:
320,256,119028,2,0,P|344:232|364:180,1,65.9999979858399
280,176,119289,2,0,P|206:233|154:245,1,131.99999597168,10|0,0:0|0:0,0:0:0:0:
94,253,119681,1,0,0:0:0:0:
70,245,119811,5,2,0:0:0:0:
136,64,120072,1,0,0:0:0:0:
216,308,120333,1,10,0:0:0:0:
256,128,120594,1,0,0:0:0:0:
280,124,120724,1,0,0:0:0:0:
304,120,120855,6,0,B|356:96|448:128|448:128|444:104|412:68,1,197.99999395752,2|0,0:0|0:0,0:0:0:0:
412,200,121376,2,0,P|448:208|488:208,1,65.9999979858399,10|0,0:0|0:0,0:0:0:0:
320,216,121637,2,0,P|284:208|244:208,1,65.9999979858399
216,312,121898,5,2,0:0:0:0:
240,304,122028,1,0,0:0:0:0:
264,296,122159,1,0,0:0:0:0:
64,172,122420,1,10,0:0:0:0:
40,164,122550,1,0,0:0:0:0:
16,156,122681,2,0,P|48:148|100:124,1,65.9999979858399
208,72,122941,6,0,P|168:60|112:64,1,65.9999979858399,2|0,0:0|0:0,0:0:0:0:
188,180,123202,2,0,P|228:192|284:188,1,65.9999979858399
408,96,123463,2,0,P|336:92|276:120,1,131.99999597168,10|0,0:0|0:0,0:0:0:0:
48,332,123985,6,0,P|120:340|192:328,1,131.99999597168,2|0,0:0|0:0,0:0:0:0:
504,192,124507,2,0,P|432:200|360:188,1,131.99999597168,10|0,0:0|0:0,0:0:0:0:
48,52,125028,6,0,P|120:60|192:48,1,131.99999597168,2|0,0:0|0:0,0:0:0:0:
204,44,125420,1,0,0:0:0:0:
228,36,125550,1,10,0:0:0:0:
232,360,125811,2,0,P|232:316|220:280,1,65.9999979858399,2|0,0:0|0:0,0:0:0:0:
88,148,126072,6,0,P|104:252|156:340,1,197.99999395752,6|0,0:0|0:0,0:0:0:0:
184,160,126594,2,0,P|196:88|176:24,1,131.99999597168,10|0,0:0|0:0,0:0:0:0:
84,120,126985,1,0,0:0:0:0:
88,148,127115,6,0,P|76:216|32:292,1,131.99999597168,2|0,0:0|0:0,0:0:0:0:
164,228,127507,2,0,P|152:304|172:368,1,131.99999597168,10|0,0:0|0:0,0:0:0:0:
268,144,127898,6,0,P|284:224|264:344,1,197.99999395752,8|2,0:0|0:0,0:0:0:0:
256,360,128420,1,0,0:0:0:0:
120,148,128681,1,8,0:0:0:0:
392,148,128941,1,0,0:0:0:0:
108,64,129202,5,2,0:0:0:0:
80,56,129333,1,0,0:0:0:0:
256,188,129594,1,10,0:0:0:0:
404,64,129855,1,0,0:0:0:0:
432,56,129985,1,2,0:0:0:0:
144,152,130246,6,0,P|84:216|4:232,1,131.99999597168,6|0,0:0|0:0,0:0:0:0:
368,152,130768,2,0,P|428:216|508:232,1,131.99999597168,10|0,0:0|0:0,0:0:0:0:
256,48,131289,5,2,0:0:0:0:
256,308,131550,1,0,0:0:0:0:
268,284,131681,2,0,P|284:212|272:152,1,131.99999597168,10|0,0:0|0:0,0:0:0:0:
156,64,132072,2,0,L|216:116,1,65.9999979858399,8|0,0:0|0:0,0:0:0:0:
88,100,132333,6,0,B|72:64|88:24|88:24|40:24|16:48,1,131.99999597168,2|0,0:0|0:0,0:0:0:0:
88,284,132855,2,0,B|72:320|88:360|88:360|40:360|16:336,1,131.99999597168,10|0,0:0|0:0,0:0:0:0:
176,144,133376,6,0,P|236:184|260:268,1,131.99999597168,2|0,0:0|0:0,0:0:0:0:
256,320,133768,1,0,0:0:0:0:
280,312,133898,2,0,L|343:294,1,65.9999979858399,10|0,0:0|0:0,0:0:0:0:
436,204,134159,2,0,L|364:224,1,65.9999979858399,2|0,0:0|0:0,0:0:0:0:
240,76,134420,6,0,B|304:76|344:148|344:148|424:128,1,197.99999395752,6|0,0:0|0:0,0:0:0:0:
200,152,134941,2,0,B|152:160|128:192|128:192|64:168,1,131.99999597168,10|0,0:0|0:0,0:0:0:0:
32,312,135333,1,0,0:0:0:0:
56,296,135463,6,0,P|124:276|204:288,1,131.99999597168,2|0,0:0|0:0,0:0:0:0:
327,281,135855,2,0,P|393:276|456:296,1,131.99999597168,10|0,0:0|0:0,0:0:0:0:
256,196,136246,6,0,P|164:172|88:76,1,197.99999395752,8|2,0:0|0:0,0:0:0:0:
84,76,136768,1,0,0:0:0:0:
276,40,137028,1,10,0:0:0:0:
300,296,137289,2,0,P|340:276|380:268,1,65.9999979858399
440,252,137550,5,4,0:0:0:0:
468,248,137681,1,0,0:0:0:0:
384,44,137941,1,2,0:0:0:0:
160,60,138202,1,8,0:0:0:0:
149,33,138333,2,0,P|136:76|116:108,1,65.9999979858399,8|0,0:0|0:0,0:0:0:0:
56,296,138594,6,0,P|32:204|48:104,1,197.99999395752,6|0,0:0|0:0,0:0:0:0:
108,202,139115,2,0,P|126:265|168:316,1,131.99999597168,10|0,0:0|0:0,0:0:0:0:
244,292,139507,5,0,0:0:0:0:
256,268,139637,1,2,0:0:0:0:
204,160,139898,1,0,0:0:0:0:
216,184,140028,1,0,0:0:0:0:
288,80,140289,1,0,0:0:0:0:
300,56,140420,1,0,0:0:0:0:
360,172,140681,5,2,0:0:0:0:
384,16,140941,1,0,0:0:0:0:
452,296,141202,1,10,0:0:0:0:
416,96,141463,1,0,0:0:0:0:
324,272,141724,2,0,P|228:248|64:316,1,263.99999194336,2|10,0:0|0:0,0:0:0:0:
308,164,142507,1,0,0:0:0:0:
336,160,142637,1,0,0:0:0:0:
360,156,142768,6,0,P|440:112|492:24,1,165,6|0,0:0|0:0,0:0:0:0:
484,204,143289,2,0,P|452:220|408:228,1,55,10|0,0:0|0:0,0:0:0:0:
376,284,143550,2,0,P|340:281|298:266,1,55
248,316,143811,2,0,P|218:296|189:262,1,55,2|0,0:0|0:0,0:0:0:0:
124,292,144072,2,0,P|107:260|99:216,1,55
36,196,144333,1,10,0:0:0:0:
228,116,144594,5,0,0:0:0:0:
208,112,144724,1,0,0:0:0:0:
188,108,144855,1,2,0:0:0:0:
168,104,144985,1,0,0:0:0:0:
148,100,145115,1,0,0:0:0:0:
128,96,145246,1,0,0:0:0:0:
108,92,145376,1,10,0:0:0:0:
332,284,145637,5,0,0:0:0:0:
352,280,145768,1,0,0:0:0:0:
372,276,145898,1,2,0:0:0:0:
392,272,146028,1,0,0:0:0:0:
412,268,146159,1,0,0:0:0:0:
432,264,146289,1,0,0:0:0:0:
452,260,146420,1,10,0:0:0:0:
280,40,146681,5,2,0:0:0:0:
260,40,146811,1,0,0:0:0:0:
240,40,146941,1,4,0:0:0:0:
256,192,147072,12,0,149028,0:0:0:0:
