osu file format v5

[General]
AudioFilename: Beautiful World.mp3
AudioLeadIn: 0
PreviewTime: -1
Countdown: 0
SampleSet: Soft
StackLeniency: 0.7
Mode: 0
LetterboxInBreaks: 1

[Editor]
Bookmarks: 6789,149223
DistanceSpacing: 2
BeatDivisor: 4
GridSize: 8

[Metadata]
Title:Beautiful World
Artist:Utada Hikaru
Creator:avira0922
Version:avira mode
Source:
Tags:

[Difficulty]
HPDrainRate:7
CircleSize:5
OverallDifficulty:7
SliderMultiplier:1.6
SliderTickRate:1

[Events]
//Background and Video events
0,0,"bg.png"
//Break Periods
2,56554,58584
//Storyboard Layer 0 (Background)
//Storyboard Layer 1 (Fail)
//Storyboard Layer 2 (Pass)
//Storyboard Layer 3 (Foreground)
//Storyboard Sound Samples
//Background Colour Transformations
3,100,163,162,255

[TimingPoints]
1060,521.739130434783,4,2,1,40,1,0
11103,-100,4,2,1,17,0,0
11429,-100,4,2,1,20,0,0
11886,-100,4,2,1,32,0,0
15603,-100,4,2,1,7,0,0
17625,-100,4,1,1,40,0,0
17886,-100,4,2,1,70,0,0
25973,-100,4,1,1,40,0,0
26233,-100,4,2,1,70,0,0
38233,-100,4,2,1,20,0,0
38494,-100,4,2,1,70,0,0
51016,-100,4,2,1,60,0,0
52060,-100,4,2,1,45,0,0
52581,-100,4,2,1,62,0,0
53103,-100,4,2,1,31,0,0
53625,-100,4,2,1,0,0,0
56494,-100,4,2,1,70,0,0
97973,-100,4,2,1,0,0,0
99146,-100,4,2,2,30,0,0
99668,-100,4,2,2,45,0,0
100190,-100,4,2,2,40,0,0
100712,-100,4,2,1,70,0,0
109451,-100,4,1,1,50,0,0
109712,-100,4,2,1,80,0,0
117799,-100,4,1,1,50,0,0
118060,-100,4,2,1,80,0,0
118060,-100,4,2,1,80,0,0
144929,-100,4,2,2,40,0,0
145451,-200,4,2,2,50,0,0
148190,-200,4,2,1,40,0,0
148712,-200,4,2,2,0,0,0
149364,-100,4,2,1,0,0,0

[Colours]
Combo1 : 255,255,128
Combo2 : 128,255,128
Combo3 : 0,128,255
Combo4 : 255,128,255

[HitObjects]
120,104,7842,1,2
312,104,8364,2,0,B|408:112|464:216,1,160,0|2
280,280,9407,2,0,B|208:352|104:304,2,160,0|2|0
256,88,11233,1,2
256,88,11364,1,0
256,88,11494,1,4
392,280,12016,5,2
200,280,12538,2,0,B|104:272|48:168,1,160,0|2
232,104,13581,2,0,B|304:32|408:80,2,160,0|2|0
256,296,15407,1,2
256,296,15538,1,0
256,296,15668,1,4
256,256,17755,5,4
184,192,18016,1,0
256,128,18277,1,0
328,192,18538,1,0
400,256,18799,1,0
328,320,19060,1,0
232,320,19320,5,0
200,320,19451,1,0
168,320,19581,2,0,B|80:320,1,80,0|2
56,232,20103,1,0
88,232,20233,1,0
120,232,20364,2,0,B|208:232,1,80,0|0
296,232,20886,1,2
328,232,21016,1,0
360,232,21146,2,0,B|456:232,1,80
256,192,21668,5,0
256,96,21929,5,0
229,78,22060,1,0
241,48,22190,1,0
272,48,22320,1,0
283,77,22451,1,2
256,320,22973,5,0
392,112,23233,1,0
120,112,23494,1,2
256,144,23755,5,0
256,112,23886,1,0
256,80,24016,2,0,B|256:-16,2,80,0|0|2
256,240,24799,1,0
256,272,24929,1,0
256,304,25060,2,0,B|256:400,2,80,0|0|2
127,96,26103,6,0,B|18:96,1,80,4|0
104,176,26625,2,0,B|208:176,1,80,2|0
128,256,27146,2,0,B|32:256,1,80,0|0
104,336,27668,1,2
136,336,27799,1,0
168,336,27929,2,0,B|272:336,1,80
304,256,28451,5,0
336,256,28581,1,0
368,256,28712,2,0,B|464:256,1,80,2|0
392,176,29233,1,0
360,176,29364,1,0
328,176,29494,2,0,B|216:176,2,80,0|2|0
192,96,30277,5,0
224,96,30407,1,0
256,96,30538,1,0
288,96,30668,1,0
320,96,30799,1,2
312,192,31060,5,0
296,216,31190,1,0
280,240,31320,1,0
192,192,31581,1,0
208,216,31712,1,0
224,240,31842,1,2
256,152,32103,5,0
256,120,32233,1,0
256,88,32364,2,0,B|256:-24,2,80,0|0|2
256,240,33146,1,0
256,272,33277,1,0
256,304,33407,2,0,B|256:392,2,80,0|0|2
200,160,34451,5,4
176,136,34581,1,0
152,112,34712,1,0
128,88,34842,2,0,B|80:40,3,40
312,160,35494,1,2
336,136,35625,1,0
360,112,35755,1,0
384,88,35886,2,0,B|440:32,3,40
256,272,36538,6,0,B|256:376,1,80,2|0
256,120,37060,2,0,B|256:32,1,80,0|0
184,192,37581,2,0,B|88:192,1,80,2|0
328,192,38103,2,0,B|432:192,1,80,0|4
200,224,38625,5,2
176,248,38755,1,0
152,272,38886,1,0
128,296,39016,2,0,B|80:344,3,40,0|0|0|0
312,224,39668,1,2
336,248,39799,1,0
360,272,39929,1,0
384,296,40060,2,0,B|440:352,3,40
256,120,40712,6,0,B|256:24,1,80,2|0
256,272,41233,2,0,B|256:376,1,80
328,192,41755,2,0,B|416:192,1,80,2|0
184,192,42277,2,0,B|80:192,1,80,0|0
256,56,42799,5,2
256,56,42929,1,0
256,56,43060,1,0
256,152,43320,1,2
256,152,43451,1,0
256,152,43581,1,0
256,248,43842,1,2
256,248,43973,1,0
256,248,44103,1,0
256,248,44364,6,0,B|256:336,2,80,0|0|2
256,152,45146,1,0
256,56,45407,1,0
256,152,45668,1,0
16,192,45929,5,2
48,192,46060,1,0
80,192,46190,2,0,B|184:192,1,80,0|0
256,192,46712,1,0
496,192,46973,5,2
496,192,47103,1,0
496,192,47233,1,0
400,192,47494,1,2
400,192,47625,1,0
400,192,47755,1,0
304,192,48016,1,2
304,192,48146,1,0
304,192,48277,2,0,B|208:192,1,80
128,192,48799,2,0,B|16:192,1,80,2|0
128,344,49581,5,0
192,272,49842,1,0
256,200,50103,1,0
320,272,50364,1,0
384,344,50625,1,0
256,272,50886,5,0
256,120,51146,2,0,B|256:8,2,80,4|0|0
256,272,51929,1,0
344,144,52190,6,0,B|440:72,1,80,4|0
168,144,52712,2,0,B|96:80,1,80
256,272,53233,2,0,B|256:376,1,80,4|0
256,192,53755,12,0,56364
328,104,59494,6,0,B|304:56|376:8,1,80,2|0
384,144,60016,2,0,B|440:136|464:208,1,80,8|0
312,176,60538,2,0,B|272:200|200:176,1,80,2|0
136,176,61060,5,8
64,240,61320,5,0
80,264,61451,1,0
104,288,61581,2,0,B|128:320|200:320,1,80,2|0
248,256,62103,1,8
336,216,62364,1,0
368,200,62494,1,0
400,184,62625,2,0,B|448:168|456:96,2,80,2|0|8
208,168,63668,5,2
176,168,63799,1,0
144,168,63929,2,0,B|48:168,1,80,0|8
64,264,64451,1,0
96,264,64581,1,0
128,264,64712,2,0,B|232:264,1,80,2|0
400,264,65494,5,2
360,176,65755,2,0,B|304:88,1,80,0|0
256,32,66277,1,2
200,112,66538,2,0,B|144:200,1,80
112,264,67060,1,2
256,328,67581,5,0
256,296,67712,1,0
256,264,67842,1,4
256,72,68364,6,0,B|272:32|344:32,1,80,8|0
416,48,68886,1,2
480,120,69146,1,0
472,216,69407,2,0,B|456:264|384:288,1,80,8|0
320,280,69929,1,2
240,224,70190,2,0,B|200:200|200:136,1,80,0|8
256,72,70712,1,0
160,72,70973,2,0,B|64:72|40:176,1,160,0|8
72,256,71755,1,0
136,328,72016,2,0,B|224:360|304:280,1,160,2|8
368,248,72799,2,0,B|424:240|440:312,1,80,0|0
368,352,73320,1,0
288,296,73581,2,0,B|224:224|296:144,1,160,8|0
360,88,74364,5,2
384,72,74494,1,0
416,72,74625,1,8
440,88,74755,1,0
456,112,74886,1,0
456,144,75016,1,0
432,168,75146,1,0
352,224,75407,5,2
344,256,75538,1,0
312,272,75668,1,8
208,88,76190,6,0,B|152:64|112:128,1,80,4|0
56,144,76712,1,8
40,240,76973,1,0
72,248,77103,1,0
104,256,77233,2,0,B|152:280|168:320,1,80,2|0
256,280,77755,2,0,B|256:336,2,40,8|0|0
336,232,78277,5,0
360,256,78407,1,0
384,280,78538,2,0,B|448:336,1,80,0|10
336,152,79059,1,0
360,128,79190,1,0
384,104,79320,2,0,B|448:48,1,80,0|2
256,160,80364,5,0
256,128,80494,1,0
256,96,80625,2,0,B|256:0,1,80,0|2
416,64,81146,1,0
416,192,81407,1,0
416,320,81668,1,2
256,224,82190,5,0
256,256,82320,1,0
256,288,82451,2,0,B|256:384,1,80,0|2
96,320,82973,1,0
96,192,83233,1,0
96,64,83494,2,0,C|192:64,1,80,0|2
416,160,84277,5,2
416,192,84407,1,0
416,224,84538,1,4
280,344,85060,6,0,B|144:224|368:184|264:56,1,320,8|8
80,112,86625,1,2
96,304,87146,1,8
96,304,87407,1,0
280,344,87929,1,0
280,344,88190,6,0,B|224:288|344:312|280:200,1,160,8|2
272,104,88973,1,0
176,72,89233,1,8
176,72,89364,1,0
176,72,89494,1,0
96,128,89755,2,0,B|64:168|96:224,1,80,2|0
86,203,90277,2,0,B|84:281|208:330,1,160,8|0
182,318,91060,2,0,B|254:356|356:333,1,160,2|2
424,304,91842,5,2
448,288,91973,1,0
464,264,92103,1,2
472,240,92233,1,0
472,208,92364,1,2
256,112,92886,5,2
256,80,93016,1,0
256,48,93146,1,0
176,248,93407,1,8
152,272,93538,1,0
128,296,93668,1,0
336,248,93929,1,2
360,272,94059,1,0
384,296,94190,1,0
256,192,94451,5,8
176,112,94973,6,0,B|112:56,1,80,2|0
336,112,95494,2,0,B|408:40,1,80,8|0
256,272,96016,2,0,B|256:368,1,80,2|0
256,192,96538,5,8
256,192,96799,1,0
272,40,97059,2,0,B|160:160|352:200|232:360,1,320,0|0
64,88,99407,5,6
256,344,99929,1,6
448,88,100451,1,6
64,192,101233,5,0
96,192,101364,1,0
128,192,101494,1,2
224,192,101755,1,8
256,192,101886,1,0
288,192,102016,1,2
384,192,102277,1,0
416,192,102407,1,0
448,192,102538,1,2
256,40,102799,5,8
256,344,103320,5,2
168,304,103581,1,0
104,224,103842,1,8
88,128,104103,1,0
88,128,104364,2,0,B|184:80,1,80,2|0
256,72,104886,2,0,B|256:176,1,80,8|0
256,248,105407,1,2
256,344,105668,1,0
256,248,105929,2,0,B|336:208|360:288|440:248,1,160,8|0
304,72,106973,5,2
280,56,107103,1,0
256,40,107233,1,0
232,56,107364,1,0
208,72,107494,1,2
208,160,107755,6,0,B|136:248|232:336,1,160,4|4
304,160,108538,2,0,B|376:248|280:336,1,160,4|4
112,296,109581,5,4
64,216,109842,1,0
112,136,110103,1,8
208,136,110364,1,0
264,216,110625,1,2
208,296,110886,1,0
304,296,111146,5,8
336,296,111277,1,0
368,296,111407,2,0,B|456:296,1,80,0|2
400,216,111929,1,0
368,216,112059,1,0
336,216,112190,2,0,B|232:216,1,80,8|0
256,120,112712,1,2
224,120,112842,1,0
192,120,112973,1,0
160,120,113103,1,0
128,120,113233,2,0,B|40:120,2,80,8|0|2
224,184,114016,5,0
256,192,114146,1,0
288,184,114277,1,8
256,64,114799,5,2
256,192,115059,1,0
256,320,115320,1,8
256,320,115581,5,2
256,320,115712,1,0
256,320,115842,2,0,B|352:320,1,80
336,224,116364,1,8
432,224,116625,1,2
432,224,116755,1,0
432,224,116886,2,0,B|432:136,1,80
432,48,117407,1,8
240,48,117929,5,4
240,144,118190,1,0
144,144,118451,2,0,B|32:144,1,80,8|0
80,240,118973,1,2
144,312,119233,1,0
240,336,119494,5,8
272,336,119625,1,0
304,328,119755,2,0,B|352:320|392:288,1,80,0|2
432,216,120277,1,0
440,184,120407,1,0
440,152,120538,2,0,B|440:112|392:64,1,80,8|0
320,40,121059,5,2
312,72,121190,1,0
304,104,121320,1,0
296,136,121451,1,0
288,168,121581,2,0,B|256:272,1,80,8|0
264,244,122103,5,2
240,336,122364,5,0
240,336,122494,1,0
240,336,122625,1,8
240,336,122886,6,0,B|120:336,1,80,0|2
120,248,123407,2,0,B|24:248,1,80,0|8
88,160,123929,1,0
88,160,124059,1,0
88,160,124190,2,0,B|264:160,1,160,2|8
216,248,124973,1,0
216,248,125103,1,0
216,248,125233,2,0,B|392:248,1,160,2|8
208,144,126277,6,0,B|160:56,1,80,4|0
264,80,126799,2,0,B|336:32,1,80,8|0
344,128,127320,2,0,B|392:200,1,80,4|0
344,280,127842,1,8
264,328,128103,1,0
168,312,128364,2,0,B|104:224,1,80,4|0
72,160,128886,2,0,B|152:104,1,80,8|0
240,96,129407,2,0,B|240:48,2,40
336,112,129929,2,0,B|408:176,1,80,8|0
360,256,130451,6,0,B|288:184,1,80,4|0
264,288,130973,2,0,B|336:360,1,80,8|0
408,312,131494,1,4
408,312,131625,1,0
408,312,131755,1,0
464,232,132016,1,8
464,232,132146,1,0
464,232,132277,1,0
451,154,132538,6,0,B|467:258,1,80,4|0
376,184,133059,2,0,B|360:80,1,80,8|0
272,72,133581,1,4
296,168,133842,1,0
200,144,134103,1,8
168,48,134364,1,0
80,88,134625,5,4
80,88,134755,1,0
80,88,134886,1,0
112,176,135146,1,8
112,176,135277,1,0
112,176,135407,1,0
152,264,135668,2,0,B|200:360,3,80,4|0|8|0
280,296,136712,1,4
376,320,136973,1,0
352,224,137233,1,8
256,200,137494,1,0
232,104,137755,5,2
200,104,137886,1,0
168,104,138016,2,0,B|80:104,1,80,0|8
24,176,138538,1,0
80,256,138799,5,2
80,256,138929,1,0
80,256,139059,1,0
144,328,139320,1,8
144,328,139451,1,0
144,328,139581,1,0
240,328,139842,2,0,B|312:240,3,80,2|0|8|0
344,184,140886,1,2
216,40,141407,5,8
312,64,141668,1,0
400,104,141929,2,0,B|434:122|462:191,1,80,2|0
432,256,142451,1,10
360,320,142712,1,2
264,328,142973,2,0,B|192:296|176:384|88:304,1,160,4|8
40,256,143755,1,0
48,160,144016,6,0,B|56:128|104:96,1,80,2|0
192,128,144538,1,8
256,200,144799,1,0
256,200,145060,1,6
224,152,145581,6,0,B|200:98|133:138|136:186|168:248|208:256|272:296,1,240,0|0
288,152,147668,2,0,B|312:98|379:138|376:186|344:248|304:256|240:296,1,240,0|0
256,192,149429,12,0,150799
