osu file format v9

[General]
AudioFilename: Ushirokara Haiyoritai G - Taiyou Iwaku Moeyo Chaos.mp3
AudioLeadIn: 2000
PreviewTime: 57546
Countdown: 0
SampleSet: Soft
StackLeniency: 0.5
Mode: 0
LetterboxInBreaks: 0

[Editor]
Bookmarks: 10268,16982,23695,30408,43835,57261,70688,84115,94185,107611,114324,127751,141178,154604,168031,184814,198240,211667,225094
DistanceSpacing: 1.2
BeatDivisor: 4
GridSize: 4

[Metadata]
Title:Taiyou Iwaku Moeyo Chaos
Artist:Ushirokara Haiyoritai G
Creator:popner
Version:Scorpiour
Source:Haiyore! Nyaruko-san
Tags:opening Scorpiour DJPop Hinacle inaba-tan Asumi Kana Matsuki Miyu Ootsubo Yuka

[Difficulty]
HPDrainRate:5
CircleSize:4
OverallDifficulty:6
ApproachRate:8
SliderMultiplier:1.44
SliderTickRate:1

[Events]
//Background and Video events
0,0,"BG3.jpg"
//Break Periods
2,87965,93929
2,171881,184558
//Storyboard Layer 0 (Background)
//Storyboard Layer 1 (Fail)
//Storyboard Layer 2 (Pass)
//Storyboard Layer 3 (Foreground)
Sprite,Foreground,Centre,"SB\Beatmap_by.png",320,240 M,0,483,,580,426 S,0,483,,0.625 F,0,483,902,0,1 F,0,902,87546,1 F,0,87546,87965,1,0 F,0,87965,92790,0 F,0,92790,93210,0,1 F,0,93210,171881,1 F,0,171881,172301,1,0 F,0,172301,184259,0 F,0,184259,184679,0,1 F,0,184679,228525,1 F,0,228525,228944,1,0
Sprite,Foreground,Centre,"SB\Scorpiour.png",320,240 F,0,483,902,0,1 F,0,902,87546,1 M,0,1322,,583,457 S,0,1322,,0.625 F,0,87546,87965,1,0 F,0,87965,92790,0 F,0,92790,93210,0,1 F,0,93210,171881,1 F,0,171881,172301,1,0 F,0,172301,184259,0 F,0,184259,184679,0,1 F,0,184679,228525,1 F,0,228525,228944,1,0
//Storyboard Sound Samples
//Background Colour Transformations
3,100,163,162,255

[TimingPoints]
693,419.58041958042,4,2,1,70,1,0
44329,-100,4,2,1,50,0,0
44748,-100,4,2,1,70,0,0
51042,-100,4,2,1,50,0,0
51252,-100,4,2,1,70,0,0
57755,-100,4,2,1,90,0,1
57860,-100,4,2,1,80,0,1
87546,-100,4,2,1,70,0,0
128245,-100,4,2,1,50,0,0
128455,-100,4,2,1,70,0,0
141672,-100,4,2,1,80,0,1
171462,-100,4,2,1,70,0,0
198734,-100,4,2,1,90,0,1
198839,-100,4,2,1,80,0,1
228525,-100,4,2,1,70,0,0

[Colours]
Combo1 : 202,192,0
Combo2 : 122,122,122
Combo3 : 233,0,244
Combo4 : 232,0,0

[HitObjects]
52,56,693,6,0,B|128:64|170:129,1,144,4|0
152,300,1532,2,0,B|196:240|271:225,1,144,4|0
440,260,2371,2,0,B|448:184|412:120,2,144,4|8|0
384,324,3420,1,0
384,324,3630,2,0,B|376:288|344:266,1,72,8|0
244,288,4049,6,0,B|196:268|156:332|106:310,1,144,4|8
268,244,4888,2,0,B|316:224|356:288|405:266,1,144,2|8
248,196,5727,2,0,B|200:176|160:240|110:218,1,144,4|8
272,152,6567,2,0,B|320:132|360:196|409:174,1,144,2|8
248,108,7406,2,0,B|200:88|160:152|110:130,1,144,4|8
272,64,8245,2,0,B|320:44|360:108|409:86,1,144,2|8
288,164,9084,5,2
252,228,9294,1,2
184,256,9504,1,8
112,248,9713,1,0
52,208,9923,1,2
52,208,10133,6,0,B|56:172|52:132,1,72,0|8
176,72,10762,5,4
176,72,10972,2,0,B|204:44|241:47,2,72,0|8|0
96,108,11602,2,0,B|111:142|149:152,1,72
232,132,12021,2,0,B|242:170|220:200,1,72,8|0
160,264,12441,5,0
204,340,12651,1,0
288,320,12860,1,8
296,232,13070,1,0
220,200,13280,6,0,B|220:172|220:172|216:156|216:156|216:128,1,72
292,40,13699,2,0,B|292:72|292:72|296:84|296:84|296:112,1,72,8|0
220,200,14119,5,0
296,188,14329,1,0
296,188,14434,1,0
296,188,14539,2,0,B|320:156|364:148,1,72,8|0
432,108,14958,2,0,B|452:164|417:210,1,108
380,236,15378,2,0,B|360:268|320:274,1,72,8|0
240,248,15797,5,0
168,296,16007,1,0
168,296,16112,1,0
168,296,16217,2,0,B|128:300|96:297,1,72,8|0
44,228,16637,1,0
88,156,16846,1,0
176,156,17056,1,8
220,228,17266,1,0
132,228,17476,5,4
132,228,17686,2,0,B|120:188|132:144,2,72,0|8|0
208,188,18315,2,0,B|217:147|250:115,1,72
296,192,18734,2,0,B|324:161|368:150,1,72,8|0
376,236,19154,6,0,B|412:252|460:236,1,72
412,160,19574,2,0,B|451:155|484:118,1,72,8|0
408,76,19993,2,0,B|368:80|335:118,1,72
296,36,20413,2,0,B|260:56|253:92,1,72,8|0
80,112,21042,5,0
80,112,21147,1,0
80,112,21252,2,0,B|92:152|123:167,1,72,8|0
136,252,21672,2,0,B|148:192|209:182,1,108
252,192,22091,2,0,B|288:204|322:186,1,72,8|0
384,128,22511,5,0
416,48,22720,1,0
416,48,22825,1,0
416,48,22930,2,0,B|452:60|463:98,1,72,8|0
448,184,23350,2,0,B|412:204|409:242,1,72
452,316,23769,2,0,B|416:340|383:322,1,72,8|0
324,260,24189,6,0,B|292:228|232:216|189:233,2,144,4|8|0
316,88,25448,1,8
280,168,25658,1,0
280,168,26077,6,0,B|264:208|230:218,2,72,0|8|0
228,96,26706,1,0
140,104,26916,1,0
100,180,27126,1,8
152,248,27336,1,0
256,192,27546,12,4,29224
244,184,30902,5,4
244,184,31112,2,0,B|264:152|244:116,2,72,0|8|0
164,152,31741,2,0,B|126:150|105:186,1,72
176,236,32161,2,0,B|193:269|234:269,1,72,8|0
320,292,32581,6,0,B|356:288|391:291,1,72
428,212,33000,2,0,B|392:216|356:212,1,72,8|0
272,192,33420,1,0
268,104,33630,1,0
348,68,33839,1,8
404,136,34049,1,0
472,244,34469,5,0
472,244,34574,1,0
472,244,34679,2,0,B|436:232|400:244,1,72,8|0
316,272,35098,2,0,B|268:244|250:188,1,108
252,144,35518,2,0,B|240:104|216:84,1,72,8|0
140,40,35937,5,0
68,84,36147,1,0
140,144,36357,1,8
68,188,36567,1,0
140,232,36776,2,0,B|120:264|82:271,1,72
140,232,37196,2,0,B|120:264|128:301,1,72,8|0
212,280,37616,5,4
280,228,37825,2,0,B|312:208|349:215,2,72,0|8|0
208,176,38455,2,0,B|196:140|171:115,1,72
256,104,38874,2,0,B|268:68|306:55,1,72,8|0
392,44,39294,5,0
472,80,39504,1,0
436,160,39713,1,8
356,124,39923,1,0
276,160,40133,2,0,B|280:200|309:221,1,72
440,228,40553,2,0,B|403:211|370:225,1,72,8|0
300,332,40972,6,0,B|333:308|337:272,2,72,0|0|8
212,332,41602,1,0
252,256,41811,2,0,B|240:200|178:184,1,108
140,204,42231,2,0,B|104:220|70:202,1,72,8|0
24,132,42651,5,0
108,116,42860,1,0
108,116,42965,1,0
108,116,43070,2,0,B|144:100|177:117,1,72,8|0
248,168,43490,2,0,B|284:180|319:174,1,72
324,88,43909,2,0,B|288:76|252:81,1,72,8|0
168,88,44329,5,4
68,228,44748,1,8
208,328,45168,1,0
308,188,45588,2,0,B|304:228|287:256,1,72,8|0
128,192,46217,5,2
384,192,46637,1,2
256,76,47056,2,0,B|252:112|255:147,2,72,2|0|2
332,36,47686,5,0
460,152,48105,1,8
344,280,48525,1,0
216,164,48944,2,0,B|232:200|266:213,1,72,8|0
380,84,49574,5,0
380,84,49679,1,0
380,84,49783,2,0,B|352:108|314:111,1,72
197,111,50203,1,0
256,48,50413,1,0
314,111,50623,1,0
256,176,50832,1,0
172,192,51042,6,0,B|136:196|100:185,1,72,4|0
52,260,51462,2,0,B|88:256|123:266,1,72,8|0
208,272,51881,2,0,B|264:280|320:248,1,108
352,232,52301,2,0,B|384:212|420:215,1,72,8|0
476,52,52930,6,0,B|476:92|453:119,2,72,0|8|0
392,76,53560,2,0,B|368:108|331:110,1,72
284,40,53979,2,0,B|252:20|214:32,2,72,8|0|4
256,296,55028,1,0
284,216,55238,5,4
52,100,55867,1,0
100,172,56077,6,0,B|140:160|172:176,1,72,4|0
252,144,56497,2,0,B|228:112|195:101,1,72,8|0
124,52,56916,2,0,B|184:16|263:27,1,144,4|8
404,128,57755,6,0,B|360:108|308:108|265:131,1,144,4|8
192,180,58385,1,2
156,260,58595,2,0,B|120:244|105:211,1,72,0|2
52,144,59014,2,0,B|84:120|120:127,1,72,8|2
192,180,59434,5,0
248,244,59644,2,0,B|264:276|253:314,2,72,2|8|2
276,164,60273,2,0,B|292:128|281:93,1,72,0|2
300,8,60693,2,0,B|340:16|356:49,1,72,8|2
364,136,61112,5,0
344,220,61322,2,0,B|380:236|416:228,2,72,2|8|2
284,160,61951,2,0,B|248:136|184:128|144:144,1,144,0|8
72,192,62581,1,2
84,276,62790,2,0,B|132:280|188:252|202:210,1,144,0|8
140,148,63420,1,2
200,84,63630,6,0,B|172:56|134:59,1,72,0|2
200,84,64049,2,0,B|228:60|266:60,1,72,8|2
264,148,64469,6,0,B|308:172|364:168|402:145,1,144,4|8
464,84,65098,1,2
401,145,65308,2,0,B|376:172|375:209,1,72,0|2
396,292,65727,2,0,B|356:300|327:278,1,72,8|2
292,200,66147,5,0
212,232,66357,2,0,B|176:248|141:240,2,72,2|8|2
172,156,66986,2,0,B|176:116|200:90,1,72,0|2
260,156,67406,2,0,B|291:179|302:213,1,72,8|2
272,292,67825,5,0
352,320,68035,2,0,B|388:324|423:320,2,72,2|8|2
272,292,68665,2,0,B|244:264|176:248|136:258,1,144,0|8
56,288,69294,1,2
124,340,69504,5,4
348,292,69923,1,10
420,72,70343,1,4
340,100,70553,1,2
340,100,70658,1,0
340,100,70762,2,0,B|332:136|342:171,1,72,8|2
400,236,71182,6,0,B|340:184|266:199,1,144,4|8
188,236,71811,1,2
104,260,72021,2,0,B|64:260|33:246,1,72,0|2
16,160,72441,2,0,B|56:160|86:173,1,72,8|2
168,200,72860,5,0
248,168,73070,2,0,B|284:160|310:134,2,72,2|8|2
236,252,73699,2,0,B|260:279|296:289,1,72,0|2
368,236,74119,2,0,B|392:208|428:198,1,72,8|2
400,116,74539,5,0
400,116,74748,2,0,B|375:143|339:153,2,72,2|8|2
326,66,75378,2,0,B|296:40|220:40|191:66,1,144,0|8
136,136,76007,1,2
220,152,76217,5,0
288,208,76427,1,2
288,208,76532,1,0
288,208,76637,2,0,B|320:224|358:216,1,72,8|2
456,156,77056,5,0
372,132,77266,1,2
358,216,77476,1,8
440,240,77686,1,2
456,156,77895,6,0,B|404:108|326:97,1,144,4|8
240,100,78525,1,2
172,152,78734,2,0,B|196:184|232:187,1,72,0|2
316,204,79154,2,0,B|308:240|272:259,1,72,8|2
192,292,79574,5,0
108,304,79783,1,2
108,304,79888,1,0
108,304,79993,2,0,B|68:284|56:255,1,72,8|2
132,216,80413,2,0,B|144:180|178:162,1,72,0|2
220,236,80832,2,0,B|256:252|289:236,1,72,8|2
364,192,81252,5,0
292,148,81462,2,0,B|256:132|222:147,2,72,2|8|2
328,68,82091,2,0,B|296:40|224:40|190:62,1,144,0|8
136,128,82720,1,2
112,212,82930,5,4
320,308,83350,1,10
300,80,83769,1,4
248,148,83979,1,2
248,148,84189,2,0,B|232:184|242:218,1,72,8|2
356,208,84609,6,0,B|400:192,4,36,4|0|0|0|0
156,300,85448,2,0,B|112:316,4,36,4|0|0|0|0
228,80,86287,5,8
338,45,86497,1,4
405,139,86706,1,4
336,232,86916,1,8
227,195,87126,1,8
227,195,87546,5,12
352,112,94679,5,4
352,112,94888,2,0,B|356:76|385:49,2,72,0|8|0
316,184,95518,2,0,B|353:196|386:182,1,72
432,120,95937,2,0,B|461:141|469:180,1,72,8|0
428,248,96357,5,0
320,292,96567,1,0
380,192,96776,1,8
392,308,96986,1,0
316,220,97196,2,0,B|280:212|244:220,1,72
160,236,97616,2,0,B|124:244|88:235,1,72,8|0
148,332,98035,5,0
248,304,98245,1,0
248,304,98350,1,0
248,304,98455,2,0,B|256:268|241:233,1,72,8|0
168,188,98874,2,0,B|188:128|239:112,1,108
284,116,99294,2,0,B|316:132|354:122,1,72,8|0
432,84,99713,5,0
360,36,99923,1,0
360,36,100028,1,0
360,36,100133,2,0,B|328:20|289:29,1,72,8|0
184,72,100553,1,0
276,144,100762,1,0
289,28,100972,1,8
216,120,101182,1,0
160,240,101392,5,4
160,240,101602,2,0,B|124:232|89:246,2,72,0|8|0
228,292,102231,1,0
304,252,102441,1,0
292,168,102651,1,8
208,156,102860,1,0
160,84,103070,6,0,B|180:52|202:26,1,72
240,104,103490,2,0,B|212:132|197:161,1,72,8|0
320,124,103909,2,0,B|340:92|362:66,1,72
400,144,104329,2,0,B|372:172|357:201,1,72,8|0
204,280,104958,5,0
204,280,105063,1,0
204,280,105168,2,0,B|164:292|136:266,1,72,8|0
68,212,105588,2,0,B|108:172|167:184,1,108
208,204,106007,2,0,B|240:232|274:225,1,72,8|0
356,200,106427,5,0
420,140,106637,1,0
420,140,106741,1,0
420,140,106846,2,0,B|420:68,1,72,8|0
344,24,107266,1,0
268,68,107476,1,0
344,108,107686,1,8
268,144,107895,1,0
268,288,108105,5,4
104,236,108525,1,8
160,72,108944,1,0
324,128,109364,2,0,B|300:156|300:156|252:168,1,72,8|0
96,140,109993,5,0
180,120,110203,1,8
224,192,110413,1,0
168,257,110623,2,0,B|180:296|217:304,1,72
284,360,111042,2,0,B|311:331|299:294,1,72,8|0
256,192,111462,12,4,113140
356,232,114818,5,4
356,232,115028,2,0,B|396:228|419:201,2,72,0|8|0
272,168,115658,2,0,B|248:136|212:132,1,72
268,288,116077,2,0,B|244:320|208:324,1,72,8|0
124,300,116497,5,0
56,248,116706,1,0
92,168,116916,1,8
180,176,117126,1,0
204,260,117336,2,0,B|244:256|261:220,1,72
311,91,117755,2,0,B|272:96|260:136,1,72,8|0
428,64,118385,5,0
440,92,118490,1,0
436,120,118595,2,0,B|408:148|417:186,1,72,8|0
448,268,119014,2,0,B|384:284|351:237,1,108
336,196,119434,1,8
344,112,119644,1,0
264,148,119853,5,0
256,232,120063,1,0
256,232,120168,1,0
256,232,120273,2,0,B|236:264|201:277,1,72,8|0
120,312,120693,2,0,B|84:316|48:312,1,72
48,224,121112,2,0,B|84:220|120:224,1,72,8|0
192,68,121741,5,0
192,68,121951,2,0,B|192:96|192:96|196:108|196:108|196:144,1,72,8|0
152,208,122371,2,0,B|116:212|80:208,1,72
248,208,122790,2,0,B|284:212|319:208,1,72,8|0
392,160,123210,5,0
468,200,123420,1,0
432,276,123630,1,8
356,236,123839,1,0
392,160,124049,2,0,B|380:124|385:88,1,72
312,132,124469,2,0,B|300:96|276:69,1,72,8|0
104,44,125098,5,0
104,44,125203,1,0
104,44,125308,2,0,B|140:32|175:42,1,72,8|0
252,56,125727,2,0,B|236:104|192:116|192:116|216:148,1,108
232,164,126147,2,0,B|264:188|256:227,1,72,8|0
236,308,126567,5,0
152,324,126776,1,0
152,324,126881,1,0
152,324,126986,2,0,B|116:312|97:279,1,72,8|0
44,212,127406,5,0
96,92,127616,1,0
124,220,127825,1,8
28,132,128035,1,0
156,148,128245,6,0,B|192:152|227:145,1,72,4|0
248,232,128665,2,0,B|281:217|309:194,1,72,8|0
364,264,129084,2,0,B|385:234|398:200,1,72
392,64,129504,2,0,B|370:93|357:127,1,72,8|0
340,300,130133,5,2
172,300,130553,1,2
256,148,130972,1,2
212,224,131182,1,0
300,224,131392,1,2
376,180,131602,6,0,B|404:156|411:118,1,72
324,108,132021,2,0,B|336:73|324:37,1,72,8|0
248,76,132441,2,0,B|241:39|212:14,1,72
156,96,132860,2,0,B|162:132|191:157,1,72,8|0
348,232,133490,5,0
348,232,133595,1,0
348,232,133699,2,0,B|328:272|296:280,1,72
240,184,134119,1,0
188,280,134329,1,0
136,184,134539,1,0
84,280,134748,1,0
40,180,134958,6,0,B|44:140|71:116,1,72,4|0
128,52,135378,2,0,B|144:88|181:95,1,72,8|0
240,160,135797,2,0,B|260:128|297:119,1,72
428,104,136217,2,0,B|408:136|370:144,1,72,8|0
212,72,136846,5,0
288,116,137056,1,8
364,156,137266,1,0
436,200,137476,2,0,B|464:200|464:200|480:196|480:196|508:196,2,72,0|0|8
348,196,138105,1,0
260,196,138315,5,4
32,320,138944,1,0
120,320,139154,5,4
392,320,139783,1,0
324,268,139993,6,0,B|328:228|320:228|324:196,1,72,4|0
324,56,140413,1,8
284,132,140623,1,0
232,200,140832,2,0,B|176:200|140:244|140:244|112:200,1,144,0|8
229,60,141672,6,0,B|268:68|284:104,1,72,4|2
372,104,142091,2,0,B|364:142|328:158,1,72,8|2
324,244,142511,2,0,B|285:236|269:200,1,72,0|2
184,200,142930,2,0,B|191:161|227:145,1,72,8|2
372,104,143350,5,0
312,168,143560,2,0,B|328:204|366:211,2,72,2|8|2
236,128,144189,2,0,B|200:124|164:127,1,72,0|2
124,204,144609,2,0,B|160:208|195:204,1,72,8|2
256,268,145028,5,0
332,228,145238,1,2
388,296,145448,1,8
344,376,145658,2,0,B|308:372|280:344,1,72,2|0
200,328,146077,2,0,B|208:288|239:270,1,72,2|8
320,240,146497,1,2
352,160,146706,2,0,B|392:148|440:172,2,72,0|2|8
228,92,147336,1,2
228,92,147546,6,0,B|236:132|268:156,1,72,0|2
228,92,147965,2,0,B|220:132|188:156,1,72,8|2
104,144,148385,5,4
172,300,148804,1,10
408,144,149224,1,0
340,300,149643,1,10
256,148,150063,5,0
256,148,150273,2,0,B|224:168|188:176|188:176|224:184|256:200,1,144,2|2
340,220,150902,2,0,B|376:200|382:163,1,72,0|2
368,48,151322,2,0,B|332:68|325:104,1,72,8|2
396,276,151741,5,0
324,324,151951,2,0,B|296:352|257:345,2,72,2|8|2
264,260,152581,2,0,B|224:260|201:228,1,72,0|2
128,184,153000,2,0,B|147:149|186:145,1,72,8|2
268,174,153420,5,4
440,160,153839,1,10
340,20,154259,2,0,B|304:56|244:48|244:48|220:44|216:64|240:68,1,144,4|8
360,188,155098,6,0,B|352:234|304:272|254:266,1,144,4|8
200,200,155727,1,2
192,112,155937,2,0,B|136:116|104:172|111:212,1,144,0|8
132,296,156567,1,2
216,284,156776,5,0
296,320,156986,2,0,B|320:352|356:356,2,72,0|8|2
284,236,157616,2,0,B|312:208|311:171,1,72,0|2
204,100,158035,2,0,B|214:138|245:156,1,72,8|2
360,96,158455,5,0
360,96,158665,2,0,B|396:92|396:100|432:96,2,72,2|8|2
284,56,159294,2,0,B|240:60|216:80|216:80|192:60|149:56,1,144,0|8
64,56,159923,1,2
104,132,160133,2,0,B|120:180|104:240|104:240|135:224,1,144,0|8
212,180,160762,1,2
280,128,160972,6,0,B|307:104|316:65,1,72,0|2
280,128,161392,2,0,B|307:104|347:102,1,72,8|2
412,48,161811,6,0,B|356:104|379:180,1,144,4|8
420,256,162441,1,2
460,180,162651,2,0,B|422:153|352:176|339:220,1,144,0|8
348,304,163280,1,2
176,280,163699,6,0,B|136:272|108:296,2,72,2|8|2
256,320,164329,2,0,B|304:300|328:248|316:202,1,144,0|8
284,124,164958,1,2
204,160,165168,5,0
204,160,165378,2,0,B|200:200|229:225,2,72,2|8|2
140,104,166007,2,0,B|176:64|228:76|228:76|252:64|256:32,1,144,0|8
254,39,166637,1,2
304,108,166846,6,0,B|320:144|356:164,1,72,4|2
268,192,167266,2,0,B|268:268,1,72,8|2
188,232,167686,2,0,B|176:268|146:289,2,72,4|2|8
168,60,168525,6,0,B|120:36,4,36,4|0|0|0|0
332,236,169364,2,0,B|356:272,4,36,4|0|0|0|0
404,56,170203,5,8
324,24,170413,1,4
276,96,170623,1,4
324,168,170832,1,8
408,144,171042,2,0,B|424:176|404:212|404:212|384:248|401:282,1,144,8|12
292,336,185308,54,0,B|352:352|412:312|412:312|408:330,1,144,4|8
220,336,186147,38,0,B|160:352|100:312|100:312|103:330,1,144,6|8
292,264,186986,6,0,B|352:280|412:240|412:240|408:258,1,144,4|8
220,264,187825,38,0,B|160:280|100:240|100:240|103:258,1,144,6|8
292,192,188665,6,0,B|352:208|412:168|412:168|408:186,1,144,4|8
220,192,189504,38,0,B|160:208|100:168|100:168|103:186,1,144,6|8
292,120,190343,6,0,B|352:136|412:96|412:96|408:114,1,144,4|8
220,120,191182,38,0,B|160:136|100:96|100:96|103:114,1,144,6|8
64,340,192021,22,0,B|88:288|72:228|72:228|100:237,1,144,4|8
64,44,192860,6,0,B|88:96|72:156|72:156|100:146,1,144,6|8
156,340,193699,38,0,B|180:288|164:228|164:228|192:237,1,144,4|8
156,44,194539,6,0,B|180:96|164:156|164:156|192:146,1,144,6|8
312,64,195378,5,4
440,128,195797,5,8
440,128,196007,1,0
440,128,196217,1,4
368,252,196637,5,8
368,252,196846,1,0
368,252,197056,2,0,B|332:244|296:247,1,72,4|0
196,304,197476,2,0,B|232:312|267:308,2,72,8|0|4
96,248,198105,2,0,B|56:248,5,36,2|2|8|2|2|0
96,248,198734,6,0,B|148:248|192:216|208:171,1,144,4|8
208,84,199364,1,2
284,128,199574,2,0,B|320:132|356:128,1,72,0|2
352,40,199993,2,0,B|316:36|280:40,1,72,8|2
140,136,200413,5,0
104,216,200623,2,0,B|64:204|55:166,2,72,2|8|2
192,208,201252,2,0,B|228:196|249:166,1,72,0|2
304,236,201672,2,0,B|268:248|246:277,1,72,8|2
320,320,202091,5,0
320,320,202301,2,0,B|296:352|260:358,2,72,2|8|2
388,264,202930,2,0,B|416:240|420:200,1,72,0|2
332,192,203350,2,0,B|304:164|301:128,1,72,8|2
332,24,203769,5,0
332,24,203979,2,0,B|360:52|362:87,2,72,2|8|2
244,24,204609,1,0
136,60,204818,1,2
172,168,205028,1,8
280,132,205238,1,2
200,96,205448,6,0,B|177:136|201:200|250:212,1,144,4|8
336,196,206077,1,2
388,128,206287,2,0,B|428:160|428:224|396:256,1,144,0|8
324,304,206916,1,2
208,176,207336,6,0,B|208:144|208:144|204:136|204:136|204:96,2,72,2|8|2
220,260,207965,2,0,B|220:296|245:325,1,72,0|2
220,260,208385,2,0,B|220:296|194:325,1,72,8|2
136,260,208804,5,0
136,260,209014,2,0,B|104:284|67:274,2,72,2|8|2
180,184,209644,2,0,B|200:144|264:124|306:146,1,144,0|8
368,204,210273,1,2
448,172,210483,5,4
256,44,210902,1,10
64,172,211322,1,4
64,172,211532,2,0,B|60:208|61:243,2,72,2|8|2
120,60,212161,6,0,B|156:72|177:100,1,72,4|2
284,72,212581,2,0,B|272:108|243:129,1,72,8|2
268,236,213000,2,0,B|232:224|210:195,1,72,0|2
104,224,213420,2,0,B|116:188|144:166,1,72,8|2
276,160,213839,5,0
360,136,214049,2,0,B|396:124|412:88,2,72,2|8|2
336,220,214679,2,0,B|376:228|408:208|408:208|388:240|391:274,1,144,0|8
404,360,215308,1,2
320,336,215518,5,0
240,304,215727,2,0,B|208:324|168:324,2,72,2|8|2
311,254,216357,2,0,B|288:224|248:224,1,72,0|2
176,176,216776,2,0,B|196:144|236:140,1,72,8|2
324,136,217196,1,0
400,176,217406,2,0,B|380:222|312:236|276:208,1,144,2|2
224,116,218035,5,0
168,208,218245,1,2
108,116,218455,1,8
52,208,218665,1,2
108,116,218874,6,0,B|112:80|108:28,1,72,4|2
180,136,219294,2,0,B|184:172|180:224,1,72,8|2
252,116,219713,2,0,B|256:80|252:28,1,72,0|2
324,136,220133,2,0,B|328:172|324:224,1,72,8|2
324,324,220553,5,0
324,324,220762,2,0,B|336:288|373:274,2,72,2|8|2
268,256,221392,2,0,B|248:224|211:214,1,72,0|2
188,296,221811,2,0,B|148:296|124:325,1,72,8|2
120,180,222231,5,0
120,180,222441,2,0,B|96:209|56:209,2,72,2|8|2
152,100,223070,2,0,B|188:112|202:149,1,72,0|2
288,132,223490,2,0,B|295:169|270:200,1,72,8|2
208,260,223909,5,4
420,300,224329,1,10
420,84,224748,1,4
420,84,224958,2,0,B|448:60|488:60,2,72,0|0|2
316,136,225588,6,0,B|288:96,4,36,4|0|0|0|0
196,248,226427,2,0,B|224:288,4,36,4|0|0|0|0
184,64,227266,5,8
264,96,227476,1,4
256,184,227686,1,4
172,200,227895,1,8
124,128,228105,1,8
124,128,228525,5,12
