osu file format v9

[General]
AudioFilename: Ushirokara Haiyoritai G - Taiyou Iwaku Moeyo Chaos.mp3
AudioLeadIn: 2000
PreviewTime: 57546
Countdown: 0
SampleSet: Soft
StackLeniency: 0.5
Mode: 0
LetterboxInBreaks: 0

[Editor]
Bookmarks: 10268,16982,23695,30408,43835,49574,57261,70688,84115,94185,107611,114324,127751,141178,154604,168031,184814,198240,211667,225094
DistanceSpacing: 1
BeatDivisor: 4
GridSize: 4

[Metadata]
Title:Taiyou Iwaku Moeyo Chaos
Artist:Ushirokara Haiyoritai G
Creator:popner
Version:Normal
Source:Haiyore! Nyaruko-san
Tags:opening Scorpiour DJPop Hinacle inaba-tan Asumi Kana Matsuki Miyu Ootsubo Yuka

[Difficulty]
HPDrainRate:3
CircleSize:3
OverallDifficulty:3
ApproachRate:5
SliderMultiplier:0.9
SliderTickRate:1

[Events]
//Background and Video events
0,0,"BG2.jpg"
//Break Periods
2,88165,93479
2,172082,184108
//Storyboard Layer 0 (Background)
//Storyboard Layer 1 (Fail)
//Storyboard Layer 2 (Pass)
//Storyboard Layer 3 (Foreground)
Sprite,Foreground,Centre,"SB\Beatmap_by.png",320,240 M,0,483,,580,426 S,0,483,,0.625 F,0,483,902,0,1 F,0,902,87546,1 F,0,87546,87965,1,0 F,0,87965,92790,0 F,0,92790,93210,0,1 F,0,93210,171881,1 F,0,171881,172301,1,0 F,0,172301,184259,0 F,0,184259,184679,0,1 F,0,184679,228525,1 F,0,228525,228944,1,0
Sprite,Foreground,Centre,"SB\popner.png",320,240 F,0,483,902,0,1 F,0,902,87546,1 M,0,1322,,583,457 S,0,1322,,0.625 F,0,87546,87965,1,0 F,0,87965,92790,0 F,0,92790,93210,0,1 F,0,93210,171881,1 F,0,171881,172301,1,0 F,0,172301,184259,0 F,0,184259,184679,0,1 F,0,184679,228525,1 F,0,228525,228944,1,0
//Storyboard Sound Samples
//Background Colour Transformations
3,100,163,162,255

[TimingPoints]
693,419.58041958042,4,2,1,70,1,0
9504,-100,4,2,2,60,0,0
9923,-100,4,2,1,70,0,0
21252,-100,4,2,2,70,0,0
21672,-100,4,2,1,70,0,0
22930,-100,4,2,2,70,0,0
23350,-100,4,2,1,70,0,0
27965,-100,4,2,2,70,0,0
28385,-100,4,2,1,70,0,0
34679,-100,4,2,2,70,0,0
35098,-100,4,2,1,70,0,0
36357,-100,4,2,2,70,0,0
36776,-100,4,2,1,70,0,0
41392,-100,4,2,2,70,0,0
41811,-100,4,2,1,70,0,0
43070,-100,4,2,2,70,0,0
43490,-100,4,2,1,70,0,0
57755,-100,4,2,1,70,0,1
59853,-100,4,2,2,70,0,1
84609,-100,4,2,2,70,0,0
112301,-100,4,2,1,70,0,0
125308,-100,4,2,2,70,0,0
140413,-100,4,2,1,70,0,0
141672,-100,4,2,1,70,0,1
143769,-100,4,2,2,70,0,1
168525,-100,4,2,2,70,0,0
198734,-100,4,2,2,70,0,1
225588,-100,4,2,1,70,0,0

[Colours]
Combo1 : 202,192,0
Combo2 : 122,122,122
Combo3 : 233,0,244
Combo4 : 232,0,0

[HitObjects]
348,192,693,6,0,B|340:240|304:276,1,90,8|0
248,208,1532,2,0,B|224:248|184:272,1,90,8|0
144,192,2371,2,0,B|108:220|60:228,2,90,8|8|8
208,128,3630,1,8
284,80,4049,6,0,B|332:68|368:44,1,90,4|8
440,96,4888,2,0,B|444:144|472:180,1,90,2|8
456,268,5727,2,0,B|448:316|408:344,1,90,0|8
320,332,6567,2,0,B|280:312|232:316,1,90,2|8
176,244,7406,6,0,B|172:196|200:160,2,90,0|8|2
128,320,8665,1,8
84,244,9084,2,0,B|72:200|96:156|96:156|56:128|52:80,1,180,8|8
144,76,10343,1,8
224,36,10762,6,0,B|316:48,1,90,4|8
400,76,11602,2,0,B|412:124|380:164,1,90,2|8
296,180,12441,2,0,B|206:168,1,90,0|8
120,192,13280,2,0,B|90:228|102:276,1,90,2|8
188,300,14119,6,0,B|272:264,2,90,0|8|2
120,356,15378,1,8
72,280,15797,2,0,B|0:220,2,90,0|8|2
140,224,17056,1,8
208,168,17476,6,0,B|276:224,1,90,4|8
364,256,18315,2,0,B|411:265|452:239,1,90,2|8
392,172,19154,2,0,B|324:116,1,90,0|8
260,48,19993,2,0,B|300:21|348:31,1,90,2|8
408,100,20832,6,0,B|328:140|232:140,1,180,0|2
144,128,22091,1,8
188,208,22511,2,0,B|232:284|228:384,1,180,0|2
140,360,23769,1,8
64,312,24189,6,0,B|44:272|44:224,1,90,4|8
56,136,25028,1,2
100,60,25448,2,0,B|144:68,1,45,8|2
232,92,26077,2,0,B|276:84,1,45,2|8
300,172,26706,2,0,B|388:184,1,90,2|8
428,264,27546,6,0,B|380:256|348:296|348:296|300:280|264:316|264:316|228:288|176:296,1,270,0|8
92,268,29224,6,0,B|116:180|84:88,1,180,2|2
172,80,30483,1,8
256,44,30902,6,0,B|256:136,2,90,4|8|2
340,80,32161,1,8
424,116,32581,2,0,B|424:208,2,90,0|8|2
508,152,33840,1,8
492,64,34259,6,0,B|404:76|328:132,1,180,0|2
256,192,35518,1,8
184,251,35937,2,0,B|108:308|20:320,1,180,0|2
4,232,37196,1,8
28,144,37616,6,0,B|76:144|116:168,1,90,4|8
204,176,38455,2,0,B|200:128|164:96,1,90,2|8
248,56,39294,2,0,B|252:104|288:136,1,90,0|8
352,196,40133,2,0,B|314:218|266:218,1,90,2|8
244,308,40972,6,0,B|336:312|416:264,1,180,0|2
440,176,42231,1,8
376,112,42651,2,0,B|284:108|204:156,1,180,0|2
184,244,43909,1,8
256,296,44329,6,0,B|300:316|344:296,1,90,4|8
300,216,45168,2,0,B|300:124,2,90,2|8|0
332,248,46217,6,0,B|332:336,2,90,2|2|2
364,216,47266,1,8
315,139,47686,6,0,B|310:90|271:62,1,90,0|8
223,140,48525,2,0,B|144:186,2,90,2|8|0
268,140,49574,6,0,B|347:186,2,90,2|2|2
244,100,50623,1,8
165,140,51042,6,0,B|126:168|121:216,1,90,4|8
213,218,51881,2,0,B|292:264,2,90,2|8|0
288,172,53140,2,0,B|364:215,2,90,8|2|8
256,88,54399,5,4
180,140,54818,1,8
210,224,55238,1,4
302,224,55658,1,8
332,140,56077,2,0,B|300:84|212:84|181:138,1,180,4|2
256,192,57336,1,8
332,240,57755,6,0,B|320:328,1,90,4|8
236,292,58595,2,0,B|164:348,1,90,0|8
120,268,59434,2,0,B|60:268|4:212|4:152,1,180,0|0
32,68,60693,1,8
116,36,61112,6,0,B|160:32|204:52|204:52|248:32|292:36,1,180,0|0
376,68,62371,1,8
464,72,62790,2,0,B|460:124|416:148,1,90,0|8
419,238,63630,2,0,B|460:260|464:312,1,90,2|10
376,316,64469,6,0,B|285:316,1,90,4|8
296,228,65309,2,0,B|208:248,1,90,0|8
212,156,66148,2,0,B|148:152|96:216|124:280,1,180,0|0
192,336,67406,1,8
208,247,67825,6,0,B|68:136,1,180,0|0
56,48,69084,1,8
140,80,69504,5,12
100,160,69923,1,12
60,240,70343,1,12
212,332,71182,6,0,B|256:344|300:332,1,90,4|8
344,252,72021,2,0,B|300:240|256:252,1,90,0|8
164,260,72860,2,0,B|128:212|128:140|164:92,1,180,0|0
256,88,74119,1,8
347,91,74539,6,0,B|384:140|384:212|348:260,1,180,0|0
296,332,75797,1,8
228,272,76217,2,0,B|184:296|140:296,1,90,0|8
164,208,77056,2,0,B|120:192|104:140,1,90,2|10
192,120,77895,6,0,B|236:96|280:96,1,90,4|8
256,184,78734,2,0,B|300:200|316:252,1,90,0|8
332,336,79574,2,0,B|380:320|400:280|400:280|448:276|476:236,1,180,0|0
400,192,80832,1,8
476,148,81252,6,0,B|448:108|400:104|400:104|380:64|332:48,1,180,0|0
314,136,82511,1,8
248,76,82930,5,12
228,164,83350,1,12
296,224,83769,1,12
144,120,84609,6,0,B|124:32,1,90,4|0
48,84,85448,2,0,B|68:172,1,90,4|0
148,208,86287,2,0,B|180:264|268:264|300:208,1,180,8|8
224,160,87546,2,0,B|224:68,1,90,8|4
308,348,94679,6,0,B|216:336,1,90,4|8
204,248,95518,2,0,B|294:260,1,90,2|8
276,172,96357,2,0,B|184:160,1,90,0|8
172,72,97196,2,0,B|262:84,1,90,2|8
340,128,98035,5,0
428,104,98455,1,8
496,164,98874,2,0,B|484:208|440:232,1,90,2|8
356,268,99713,2,0,B|312:292|300:336,2,90,0|8|2
428,320,100973,1,8
440,232,101393,6,0,B|416:192|372:176,1,90,4|8
288,208,102231,2,0,B|244:192|220:152,1,90,2|8
180,72,103070,2,0,B|152:108|104:120,1,90,0|8
76,204,103909,2,0,B|28:216|0:252,1,90,2|8
80,292,104749,6,0,B|164:272|260:292,1,180,0|2
344,316,106008,1,8
324,228,106428,2,0,B|280:152|284:52,1,180,0|2
196,44,107686,1,8
112,76,108106,6,0,B|112:96|112:96|128:136|112:164,1,90,4|8
28,132,108944,2,0,B|12:160|28:200|28:200|28:220,1,90,2|8
104,272,109783,2,0,B|148:264,2,45,0|0|8
92,360,110623,2,0,B|181:372,1,90,2|8
252,320,111462,6,0,B|300:248|300:248|264:164|264:164|316:88,1,270,0|8
400,124,113141,6,0,B|368:176|368:176|400:252|400:252|380:288,1,180,2|2
376,372,114399,1,8
288,348,114818,6,0,B|196:336,1,90,4|8
112,308,115658,2,0,B|100:260|132:220,1,90,2|8
216,204,116497,2,0,B|306:216,1,90,0|8
392,192,117336,2,0,B|422:156|410:108,1,90,2|8
324,84,118175,6,0,B|240:120,2,90,0|8|2
392,28,119434,1,8
440,104,119853,2,0,B|512:164,2,90,0|8|2
372,160,121112,1,8
304,216,121532,6,0,B|236:160,1,90,4|8
148,128,122371,2,0,B|100:118|59:144,1,90,2|8
120,212,123210,2,0,B|188:268,1,90,0|8
252,336,124049,2,0,B|211:362|163:352,1,90,2|8
104,284,124888,6,0,B|184:244|280:244,1,180,0|2
344,184,126147,1,8
256,160,126567,2,0,B|164:160|80:200,1,180,0|2
80,108,127825,1,8
168,88,128245,6,0,B|212:68|256:88,1,90,4|8
212,168,129084,2,0,B|212:260,2,90,2|8|0
172,144,130133,6,0,B|172:56,2,90,2|2|2
132,168,131182,1,8
204,221,131602,6,0,B|209:270|248:298,1,90,0|8
296,220,132441,2,0,B|375:174,2,90,2|8|0
295,264,133490,6,0,B|374:310,2,90,2|2|2
257,242,134539,1,8
165,244,134959,6,0,B|170:292|209:320,1,90,4|8
257,242,135798,2,0,B|336:196,2,90,2|8|0
172,268,137056,2,0,B|93:314,2,90,8|2|8
256,296,138315,5,4
256,116,139155,1,4
180,280,139994,2,0,B|212:336|300:336|332:280,1,180,4|2
256,228,141253,1,8
212,148,141672,6,0,B|256:128|300:148,1,90,4|8
308,60,142511,2,0,B|356:64|384:103,1,90,0|8
432,28,143350,2,0,B|477:66|484:145|446:191,1,180,0|0
384,256,144610,1,8
404,344,145029,6,0,B|360:348|316:328|316:328|272:348|228:344,1,180,0|0
248,256,146288,1,8
184,192,146706,2,0,B|145:146|152:67|198:28,1,180,0|0
288,28,147965,1,8
268,116,148386,6,0,B|360:128,1,90,4|8
372,216,149224,2,0,B|282:204,1,90,0|8
196,176,150063,2,0,B|169:237|221:301|288:300,1,180,0|0
372,308,151323,1,8
336,224,151741,6,0,B|332:160|396:108|460:128,1,180,0|0
432,220,153001,1,8
460,304,153421,5,12
388,356,153840,1,12
312,308,154260,1,12
268,132,155099,6,0,B|224:120|180:132,1,90,4|8
224,212,155937,2,0,B|180:224|136:212,1,90,0|8
96,292,156777,2,0,B|144:328|216:328|264:292,1,180,0|0
312,216,158036,1,8
352,296,158456,6,0,B|412:260|416:184|364:144,1,180,0|0
276,136,159714,1,8
196,180,160134,2,0,B|156:204|108:204,1,90,0|8
24,176,160972,1,0
0,88,161392,1,10
88,112,161811,6,0,B|133:112|173:88,1,90,4|8
264,88,162651,2,0,B|304:112|349:111,1,90,0|8
436,92,163490,2,0,B|448:132|424:180|384:196|384:196|368:252,1,180,0|0
300,192,164749,1,8
232,136,165168,6,0,B|217:187|217:187|177:203|153:251|165:291,1,180,0|0
252,272,166428,1,8
304,344,166847,5,12
376,292,167267,1,12
448,240,167686,1,12
440,68,168526,6,0,B|412:152,1,90,8|0
336,108,169364,2,0,B|308:192,1,90,8|0
232,244,170204,2,0,B|262:298|350:298|382:242,1,180,8|8
460,196,171463,2,0,B|480:240|460:284,1,90,8|4
352,80,185308,5,4
276,128,185727,1,8
236,48,186147,1,2
160,96,186567,1,8
112,172,186986,2,0,B|104:216|108:264,1,90,0|8
192,292,187825,2,0,B|200:248|196:200,1,90,2|8
280,164,188665,6,0,B|292:256|272:344,1,180,0|2
360,364,189923,1,8
448,344,190343,2,0,B|428:256|440:164,1,180,0|8
376,100,191602,1,8
352,188,192021,6,0,B|284:248,1,90,4|8
200,212,192860,2,0,B|172:296,1,90,2|8
100,244,193699,2,0,B|32:184,1,90,4|8
108,136,194538,2,0,B|79:50,1,90,2|8
168,56,195378,5,4
256,80,195797,2,0,B|304:88|348:80,1,90,8|4
346,170,196637,2,0,B|298:178|254:170,1,90,8|4
256,260,197476,1,0
345,260,197895,1,2
420,96,198734,6,0,B|464:104|511:96,1,90,4|8
468,16,199574,2,0,B|420:8|376:16,1,90,0|8
332,92,200413,2,0,B|312:148|241:183|184:163,1,180,0|0
136,88,201672,1,8
224,72,202091,6,0,B|272:100|256:196|304:228,1,180,0|0
360,156,203350,1,8
448,164,203769,2,0,B|451:221|365:266|371:322,1,180,0|2
280,336,205028,1,10
208,280,205448,6,0,B|240:248|296:244,1,90,4|8
276,152,206288,2,0,B|244:184|188:188,1,90,0|8
196,96,207127,2,0,B|132:92|80:156|108:220,1,180,0|0
176,276,208385,1,8
248,332,208804,6,0,B|312:336|364:272|336:208,1,180,0|0
364,124,210063,1,8
392,36,210483,6,0,B|484:36,2,90,12|12|12
344,208,212161,6,0,B|356:252|344:296,1,90,4|8
264,340,213000,2,0,B|252:296|264:252,1,90,0|8
264,160,213839,2,0,B|215:123|143:123|95:159,1,180,0|0
36,228,215098,1,8
124,252,215518,6,0,B|120:304|180:332|240:304|236:252,1,180,0|0
324,228,216776,1,8
308,316,217196,2,0,B|288:356|244:376,1,90,0|8
152,384,218035,2,0,B|104:380|72:344,1,90,2|10
20,272,218874,5,4
60,192,219294,1,8
132,140,219713,1,0
220,128,220133,1,8
304,160,220553,2,0,B|280:204|236:216|236:216|248:264|292:280,1,180,0|0
364,228,221811,1,8
436,280,222231,6,0,B|480:263|492:215|492:215|448:203|424:159,1,180,0|0
364,92,223490,1,8
280,60,223909,5,12
248,144,224329,1,12
332,176,224748,1,12
196,292,225588,6,0,B|104:292,1,90,8|0
128,204,226427,2,0,B|173:203,2,45,8|0|0
88,124,227266,2,0,B|132:120|152:68|152:68|172:120|216:124,1,180,8|8
308,124,228525,1,4
