osu file format v9

[General]
AudioFilename: Ushirokara Haiyoritai G - Taiyou Iwaku Moeyo Chaos.mp3
AudioLeadIn: 2000
PreviewTime: 57546
Countdown: 0
SampleSet: Soft
StackLeniency: 0.5
Mode: 0
LetterboxInBreaks: 0

[Editor]
Bookmarks: 10268,16982,23695,30408,43835,57261,70688,84115,94185,107611,114324,127751,141178,154604,168031,184814,198240,211667,225094
DistanceSpacing: 1.2
BeatDivisor: 4
GridSize: 4

[Metadata]
Title:Taiyou Iwaku Moeyo Chaos
Artist:Ushirokara Haiyoritai G
Creator:popner
Version:Collab
Source:Haiyore! Nyaruko-san
Tags:opening Scorpiour DJPop Hinacle inaba-tan Asumi Kana Matsuki Miyu Ootsubo Yuka

[Difficulty]
HPDrainRate:7
CircleSize:4
OverallDifficulty:7
ApproachRate:8
SliderMultiplier:1.6
SliderTickRate:1

[Events]
//Background and Video events
0,0,"BG1.jpg"
//Break Periods
2,87965,93299
2,172081,184138
//Storyboard Layer 0 (Background)
//Storyboard Layer 1 (Fail)
//Storyboard Layer 2 (Pass)
//Storyboard Layer 3 (Foreground)
Sprite,Foreground,Centre,"SB\Beatmap_by.png",320,240 M,0,483,,580,426 S,0,483,,0.625 F,0,483,902,0,1 F,0,902,87546,1 F,0,87546,87965,1,0 F,0,87965,92790,0 F,0,92790,93210,0,1 F,0,93210,171881,1 F,0,171881,172301,1,0 F,0,172301,184259,0 F,0,184259,184679,0,1 F,0,184679,228525,1 F,0,228525,228944,1,0
Sprite,Foreground,Centre,"SB\popner.png",320,240 M,0,1322,,583,457 S,0,1322,,0.625 F,0,1322,1741,0,1 F,0,1741,87546,1 F,0,87546,87965,1,0
Sprite,Foreground,Centre,"SB\DJPop.png",320,240 M,0,93630,,583,457 S,0,93630,,0.625 F,0,93630,94049,0,1 F,0,94049,171881,1 F,0,171881,172301,1,0
Sprite,Foreground,Centre,"SB\Hinacle.png",320,240 M,0,185098,,583,457 S,0,185098,,0.625 F,0,185098,185518,0,1 F,0,185518,228525,1 F,0,228525,228944,1,0
//Storyboard Sound Samples
//Background Colour Transformations
3,100,163,162,255

[TimingPoints]
693,419.58041958042,4,2,1,70,1,0
57755,-83.3333333333333,4,2,1,70,0,1
84609,-100,4,2,1,70,0,0
93944,-83.3333333333333,4,2,1,70,0,0
94783,-100,4,2,1,70,0,0
113874,-83.3333333333333,4,2,1,70,0,0
114923,-100,4,2,1,70,0,0
141672,-83.3333333333333,4,2,2,70,0,1
142091,-83.3333333333333,4,1,1,70,0,1
142301,-83.3333333333333,4,2,2,70,0,1
142930,-83.3333333333333,4,1,1,70,0,1
143140,-83.3333333333333,4,2,2,70,0,1
148804,-83.3333333333333,4,1,1,70,0,1
149014,-83.3333333333333,4,2,2,70,0,1
149644,-83.3333333333333,4,1,1,70,0,1
149853,-83.3333333333333,4,2,2,70,0,1
155518,-83.3333333333333,4,1,1,70,0,1
155727,-83.3333333333333,4,2,2,70,0,1
156357,-83.3333333333333,4,1,1,70,0,1
156567,-83.3333333333333,4,2,2,70,0,1
162231,-83.3333333333333,4,1,1,70,0,1
162441,-83.3333333333333,4,2,2,70,0,1
163070,-83.3333333333333,4,1,1,70,0,1
163280,-83.3333333333333,4,2,2,70,0,1
168525,-100,4,2,2,70,0,0
198734,-83.3333333333333,4,2,1,70,0,1
225588,-83.3333333333333,4,2,1,70,0,0

[Colours]
Combo1 : 202,192,0
Combo2 : 122,122,122
Combo3 : 233,0,244
Combo4 : 232,0,0

[HitObjects]
256,56,693,5,8
256,328,1532,1,8
224,160,2371,6,0,B|136:160,1,80,8|8
288,224,2790,2,0,B|368:224,2,80,8|8|8
200,248,3420,1,0
192,264,3525,1,0
184,280,3630,1,8
480,28,4049,6,0,B|443:75|373:68,1,120,4|0
332,45,4469,2,0,B|368:61|397:91,1,80,8|0
441,177,4888,2,0,B|385:199|328:158,1,120,2|0
304,117,5308,2,0,B|327:148|337:189,1,80,8|0
241,197,5727,6,0,B|247:256|312:284,1,120,0|0
361,284,6147,2,0,B|320:279|279:291,1,80,8|0
196,248,6567,2,0,B|172:308|220:364,1,120,2|0
257,384,6986,2,0,B|224:360|183:350,1,80,8|0
92,380,7406,6,0,B|68:316|110:267,1,120,0|0
152,244,7825,2,0,B|155:287|131:319,1,80,8|0
124,140,8245,2,0,B|184:116|236:158,1,120,2|0
264,200,8665,2,0,B|220:203|188:179,1,80,8|0
440,200,9084,5,8
483,287,9294,1,8
387,277,9504,1,8
444,176,9713,1,8
508,304,9923,1,8
362,290,10133,2,0,B|320:312,2,40,0|0|8
212,48,10972,5,0
116,48,11182,2,0,B|36:48,1,80,8|0
164,132,11602,1,2
212,216,11811,1,0
116,216,12021,2,0,B|36:216,1,80,8|0
264,132,12441,6,0,B|304:148|344:132,1,80,0|0
388,48,12860,2,0,B|348:32|308:48,1,80,8|0
212,216,13280,1,2
304,244,13490,1,0
400,244,13699,1,8
492,220,13909,1,0
492,220,14329,5,0
492,204,14434,1,0
492,188,14539,2,0,B|452:172|412:188,1,80,8|0
328,228,14958,2,0,B|312:292|244:332,1,120,2|0
212,336,15378,2,0,B|132:336,1,80,8|0
256,196,15797,6,0,B|244:240|204:260,1,80,0|0
192,260,16112,1,0
176,260,16217,2,0,B|92:260,1,80,8|0
20,164,16637,1,2
112,140,16846,1,0
208,140,17056,1,8
300,168,17266,1,0
284,360,17686,5,0
188,360,17895,1,8
236,276,18105,1,0
364,192,18315,2,0,B|284:192,1,80,2|0
236,276,18734,1,8
188,192,18944,1,0
44,64,19154,6,0,B|28:104|44:144,1,80,0|0
128,184,19574,2,0,B|144:144|128:104,1,80,8|0
44,232,19993,1,2
64,324,20203,1,0
160,336,20413,1,8
208,252,20623,1,0
208,252,21042,5,0
208,236,21147,1,0
208,220,21252,2,0,B|248:204|288:220,1,80,8|0
384,220,21672,2,0,B|380:288|300:324,1,120,2|0
272,324,22091,2,0,B|232:340|192:324,1,80,8|0
16,224,22511,6,0,B|56:208|96:224,1,80,0|0
108,232,22825,1,0
120,240,22930,2,0,B|200:240,1,80,8|0
368,176,23350,1,2
420,96,23560,1,0
352,28,23769,1,8
264,64,23979,1,0
272,160,24189,6,0,B|248:208|184:232|128:200,1,160,4|8
184,120,24818,1,0
88,120,25028,2,0,B|136:152|148:216|116:260,1,160,2|8
36,204,25658,1,0
476,204,26077,5,0
476,108,26287,2,0,B|432:108|404:140,1,80,8|0
348,216,26706,1,2
196,180,26916,1,0
340,120,27126,1,8
260,252,27336,1,0
248,100,27546,1,0
256,192,27651,12,8,28804
256,192,29224,5,2
192,264,29434,1,0
180,276,29539,1,0
168,288,29644,2,0,B|204:308|245:303,1,80,0|0
320,244,30063,2,0,B|356:280|348:352|300:384,1,160,2|8
116,48,31112,6,0,B|76:56|36:48,2,80,0|8|0
212,60,31741,1,2
140,124,31951,1,0
236,136,32161,2,0,B|276:128|316:136,1,80,8|0
480,140,32581,6,0,B|496:180|480:220,1,80,0|0
396,260,33000,2,0,B|380:220|396:180,1,80,8|0
480,304,33420,1,2
344,328,33630,1,0
480,328,33839,1,8
344,304,34049,1,0
344,304,34469,5,0
332,292,34574,1,0
320,280,34679,2,0,B|280:264|240:280,1,80,8|0
160,324,35098,2,0,B|213:293|229:229,1,120,2|0
232,180,35518,2,0,B|232:92,1,80,8|0
112,264,35937,6,0,B|147:246|159:202,1,80,0|0
160,186,36252,1,0
160,169,36357,2,0,B|160:85,1,80,8|0
24,21,36776,1,2
92,89,36986,1,0
160,21,37196,1,8
228,89,37406,1,0
372,272,37825,6,0,B|372:356,2,80,0|8|0
452,220,38455,1,2
372,168,38665,1,0
452,116,38874,2,0,B|452:32,1,80,8|0
260,44,39294,6,0,B|220:28|180:44,1,80,0|0
132,124,39713,2,0,B|172:140|212:124,1,80,8|0
84,44,40133,1,2
4,96,40343,1,0
52,176,40553,1,8
132,124,40762,1,0
132,124,41182,5,0
144,112,41287,1,0
156,100,41392,2,0,B|196:84|236:100,1,80,8|0
332,100,41811,2,0,B|328:168|248:204,1,120,2|0
224,216,42231,2,0,B|262:200|302:216,1,80,8|0
400,224,42651,6,0,B|400:264|364:296,1,80,0|0
352,304,42965,1,0
337,311,43070,2,0,B|375:295|415:311,1,80,8|0
260,360,43490,1,2
168,340,43699,1,0
232,268,43909,1,8
140,248,44119,1,0
220,140,44329,6,0,B|244:188|308:212|364:180,1,160,4|8
440,136,44958,1,0
348,104,45168,2,0,B|331:159|363:216|416:229,1,160,2|8
512,228,45797,1,0
280,32,46217,5,2
192,76,46637,1,2
204,168,47056,5,2
300,184,47266,1,2
348,100,47476,1,2
192,76,47686,6,0,B|180:136|130:172|74:159,1,160,0|8
4,100,48315,1,0
92,64,48525,2,0,B|89:125|130:171|187:172,1,160,2|8
269,129,49154,1,0
496,88,49574,5,0
492,100,49679,1,0
488,112,49783,2,0,B|467:147|429:164,1,80,8|0
332,176,50203,2,0,B|304:204|304:248,1,80,2|0
212,284,50623,2,0,B|232:320|220:360,1,80,10|0
36,288,51042,6,0,B|92:276|128:220|112:164,1,160,4|8
44,96,51672,1,0
20,192,51881,2,0,B|76:203|131:167|139:109,1,160,2|8
104,24,52511,1,0
368,52,52930,6,0,B|444:80,2,80,0|8|0
280,96,53560,2,0,B|204:68,1,80,2|0
128,124,53979,1,8
96,216,54189,1,0
156,288,54399,6,0,B|160:236|216:192|272:204,1,160,4|8
364,236,55028,1,8
460,220,55238,2,0,B|456:168|400:124|344:136,1,160,4|8
252,164,55867,1,8
160,192,56077,6,0,B|120:200|84:180,2,80,8|0|0
212,112,56706,1,0
160,32,56916,2,0,B|120:24|84:44,1,80,8|0
28,124,57336,1,8
28,140,57441,1,0
28,156,57546,1,0
28,172,57651,1,0
28,188,57755,6,0,B|24:268|108:296,1,144,4|0
108,236,58175,2,0,B|164:248|164:304,1,96,8|0
216,188,58595,2,0,B|212:268|296:296,1,144,0|0
296,236,59014,2,0,B|352:248|352:304,2,96,12|0|0
464,220,59644,6,0,B|488:176|464:128,1,96.0000022888184,0|8
368,64,60063,1,0
276,132,60273,2,0,B|212:124|148:176|88:168,1,192.000004577637,0|8
4,92,60902,1,0
4,92,61007,1,0
4,92,61112,1,0
184,52,61322,6,0,B|200:100|184:148,2,96.0000022888184,0|8|0
292,8,61951,2,0,B|312:68|312:132|288:200,1,192.000004577637,0|8
192,260,62581,1,0
376,264,62790,6,0,B|348:304|296:312,1,96.0000022888184
192,260,63210,2,0,B|156:228|104:224,1,96.0000022888184,8|0
0,268,63630,1,2
112,152,63839,1,2
120,312,64049,1,10
232,196,64259,1,2
360,128,64469,6,0,B|428:88|500:128,1,144.000003433228,4|0
476,180,64888,2,0,B|428:196|380:180,1,96.0000022888184,8|0
308,72,65308,2,0,B|240:32|168:72,1,144.000003433228,0|0
192,124,65727,2,0,B|240:140|288:124,1,96.0000022888184,12|0
304,124,66042,1,0
320,124,66147,1,0
476,180,66357,6,0,B|500:224|476:272,1,96.0000022888184,0|8
392,348,66776,1,0
288,296,66986,2,0,B|240:348|164:352|116:308,1,192.000004577637,0|8
32,232,67616,1,0
40,216,67720,1,0
48,200,67825,1,0
168,120,68035,6,0,B|128:208,2,96.0000022888184,0|8|0
216,16,68665,2,0,B|276:48|300:116|264:180,1,192.000004577637,0|8
188,268,69294,1,0
320,352,69504,6,0,B|416:352,1,96.0000022888184,12|0
488,260,69923,2,0,B|392:260,1,96.0000022888184,12|0
320,172,70343,1,8
320,172,70553,2,0,B|416:172,1,96.0000022888184,2|2
440,80,70972,1,0
416,80,71077,1,0
392,80,71182,6,0,B|320:80|320:80|280:80|252:108,1,144.000003433228,4|0
236,120,71602,2,0,B|216:140|192:140|192:140|144:140,1,96.0000022888184,8|0
92,40,72021,2,0,B|24:76|32:164,1,144.000003433228
36,184,72441,2,0,B|52:230|24:285,1,96.0000022888184,12|0
20,292,72755,1,0
8,304,72860,1,0
176,292,73070,6,0,B|224:276|272:292,1,96.0000022888184,0|8
384,320,73490,1,0
420,212,73699,2,0,B|384:164|392:80|460:44,1,192.000004577637,0|8
512,144,74329,1,0
512,144,74434,1,0
512,144,74539,1,0
304,228,74748,6,0,B|256:244|208:228,2,96.0000022888184,0|8|0
352,336,75378,2,0,B|292:364|220:364|164:336,1,192.000004577637,0|8
88,252,76007,1,0
40,148,76217,6,0,B|68:56,1,96.0000022888184
180,84,76637,2,0,B|204:180,1,96.0000022888184,8|0
316,204,77056,1,2
368,48,77266,1,2
500,144,77476,1,10
500,308,77686,1,2
340,344,77895,6,0,B|262:358|208:296,1,144.000003433228,4|0
248,256,78315,2,0,B|220:296|176:316,1,96.0000022888184,8|0
72,368,78734,2,0,B|44:294|96:230,1,144.000003433228,0|0
142,260,79154,2,0,B|97:239|70:199,1,96.0000022888184,8|0
64,184,79469,1,0
60,168,79574,1,0
168,24,79783,6,0,B|212:44|239:84,1,96.0000022888184,0|8
252,200,80203,1,0
204,304,80413,2,0,B|271:326|339:292|360:231,1,192.000004577637,0|8
384,116,81042,1,0
368,110,81147,1,0
352,104,81252,1,0
192,120,81462,6,0,B|288:152,2,96.0000022888184,0|8|0
148,12,82091,2,0,B|85:39|57:105|88:172,1,192.000004577637,0|8
168,256,82720,1,0
328,308,82930,6,0,B|424:308,1,96.0000022888184,12|0
440,192,83350,2,0,B|392:108,1,96.0000022888184,8|0
288,156,83769,2,0,B|240:239,1,96.0000022888184,12|0
168,332,84189,1,0
144,332,84294,1,0
120,332,84399,1,0
96,332,84504,1,0
72,332,84609,6,0,B|8:332,4,40,4|0|0|0|8
208,192,85448,2,0,B|272:192,4,40,4|0|0|0|8
76,52,86287,6,0,B|-4:52,1,80,8|8
140,120,86706,2,0,B|224:120,2,80,8|8|8
76,192,87336,2,0,B|28:192,2,40,0|0|8
256,36,94049,5,10
256,36,94259,2,2,B|256:40|256:40|264:44|264:44|248:48|248:48|264:52|264:52|248:56|248:56|264:60|264:60|248:64|248:64|264:68|264:68|248:72|248:72|264:76|264:76|248:80|248:80|264:84|264:84|256:88|256:88|256:93,1,192.000004577637,10|4
256,192,94888,5,0
184,256,95098,2,0,B|174:270|157:285|136:292|118:294,1,80,8|0
256,272,95518,2,0,B|256:352,1,80
328,256,95937,2,0,B|337:270|354:285|375:292|393:294,1,80,8|0
384,128,96357,6,0,B|374:113|357:98|336:91|318:90,1,80
128,128,96776,2,0,B|137:113|154:98|175:91|193:90,1,80,8|0
308,168,97196,1,2
196,168,97406,1,2
312,172,97616,1,10
200,172,97825,1,2
40,96,98245,5,0
40,96,98350,1,0
40,96,98455,1,8
16,188,98665,1,0
56,274,98874,2,0,B|65:288|82:303|103:310|123:312,1,80
156,313,99189,1,0
188,313,99294,2,0,B|208:315|229:322|246:337|256:352,1,80,8|0
456,274,99713,6,0,B|446:288|429:303|408:310|388:312,1,80
356,313,100028,1,0
323,313,100133,2,0,B|303:315|282:322|265:337|256:352,1,80,8|0
208,209,100553,1,2
256,64,100762,1,2
303,209,100972,1,10
179,120,101182,1,2
332,120,101392,1,4
428,100,101602,5,0
456,192,101811,2,0,B|454:211|447:232|432:249|417:259,1,80,8|0
294,336,102231,2,0,B|276:344|254:348|232:344|216:336,1,80
94,259,102651,2,0,B|79:249|64:232|57:211|56:192,1,80,8|0
128,32,103070,6,0,B|145:33|166:40|183:55|194:71,1,80
384,32,103490,2,0,B|366:33|345:40|328:55|317:71,1,80,8|0
252,188,103909,1,2
252,300,104119,1,2
256,192,104329,1,10
256,304,104539,1,2
464,296,104958,5,0
464,264,105063,1,0
464,232,105168,2,0,B|464:189|434:159,1,80,8|0
336,56,105588,1,0
336,152,105797,5,0
336,184,105902,1,0
336,216,106007,2,0,B|336:258|306:288,1,80,8|0
176,352,106427,1,0
176,256,106636,5,0
176,224,106741,1,0
176,192,106846,2,0,B|176:149|146:119,1,80,8|0
32,32,107266,5,2
146,119,107476,1,2
32,208,107686,1,10
147,296,107895,1,2
272,352,108105,6,0,B|311:341|334:306,1,80,4|0
345,159,108525,2,0,B|303:168|281:204,1,80,8|0
424,239,108944,2,0,B|463:228|486:193,1,80
486,57,109364,2,0,B|444:66|422:102,1,80,8|0
208,128,109993,5,0
136,62,110203,2,0,B|105:32|63:32,1,80,8|0
48,128,110623,1,0
63,224,110832,2,0,B|105:224|135:194,1,80,0|8
208,128,111252,1,0
304,128,111462,2,0,B|464:128,1,160,0|8
480,344,112301,5,0
472,240,112511,1,0
416,328,112720,1,8
408,224,112930,1,0
354,312,113140,6,0,B|343:329|326:344|305:351|288:352,1,80,2|2
256,356,113455,1,2
224,352,113560,2,0,B|207:351|186:344|169:329|157:312,1,80,2|2
256,176,113979,2,2,B|256:180|256:180|248:184|248:184|264:188|264:188|248:192|248:192|264:196|264:196|248:200|248:200|264:204|264:204|248:208|248:208|264:212|264:212|248:216|248:216|264:220|264:220|248:224|248:224|256:228|256:228|256:232,2,192.000004577637,2|4|4
256,32,115028,5,0
256,32,115238,2,0,B|226:62|184:62,1,80,8|0
32,112,115658,2,0,B|62:142|104:142,1,80
256,192,116077,2,0,B|226:222|184:222,1,80,8|0
32,288,116497,6,0,B|80:352,1,80
256,288,116916,2,0,B|208:352,1,80,8|0
140,180,117336,1,2
140,68,117546,1,2
144,184,117755,1,10
144,72,117965,1,2
384,144,118385,5,0
384,144,118490,1,0
384,144,118595,1,8
384,240,118804,1,0
292,288,119014,2,0,B|300:306|315:323|335:333|351:336,1,80
384,340,119329,1,0
416,336,119434,2,0,B|432:333|452:323|467:306|476:288,1,80,8|0
476,96,119853,6,0,B|467:77|452:60|432:50|416:47,1,80
384,44,120168,1,0
351,47,120273,2,0,B|334:50|314:60|299:77|291:95,1,80,8|0
176,239,120693,1,2
32,192,120902,1,2
176,144,121112,1,10
87,268,121322,1,2
87,115,121532,1,4
256,192,121741,5,0
320,264,121951,2,0,B|334:274|349:291|356:312|358:330,1,80,8|0
336,192,122371,2,0,B|416:192,1,80
320,120,122790,2,0,B|334:111|349:94|356:73|358:55,1,80,8|0
480,152,123210,6,0,B|466:143|451:126|444:105|442:87,1,80
480,232,123630,2,0,B|466:241|451:258|444:279|442:297,1,80,8|0
324,244,124049,1,2
324,132,124259,1,2
328,248,124469,1,10
328,136,124679,1,2
40,232,125098,5,0
40,232,125203,1,0
40,232,125308,2,0,B|32:214|28:192|32:170|40:154,1,80,8|0
152,192,125727,1,0
242,268,125937,5,0
242,268,126042,1,0
242,268,126147,2,0,B|230:283|213:298|192:305|174:307,1,80,8|0
152,192,126567,1,0
173,75,126776,5,0
173,75,126881,1,0
173,75,126986,2,0,B|192:77|213:84|230:99|240:114,1,80,8|0
335,239,127406,1,2
424,115,127616,1,2
424,268,127825,1,10
335,144,128035,1,2
480,192,128245,5,4
256,352,128665,1,8
32,192,129084,1,0
256,32,129504,1,8
256,32,129713,1,0
163,61,129923,6,0,B|169:79|180:98|198:112|215:118,1,80,2|2
349,61,130343,1,2
349,61,130448,2,0,B|342:79|331:98|313:112|296:118,1,80,2|2
168,192,130867,2,0,B|204:212|244:212,1,80,2|2
277,213,131182,2,0,B|317:212|353:192,1,80,2|2
480,192,131602,5,0
256,32,132021,1,8
32,192,132441,1,0
256,352,132860,1,8
256,352,133070,1,0
352,328,133280,6,0,B|424:296,1,80,2|2
424,296,133595,2,0,B|472:232,1,80,2|2
472,232,133909,2,0,B|472:152,1,80,2|2
472,152,134224,2,0,B|424:88,1,80,2|2
424,88,134539,2,0,B|352:56,1,80,2|2
256,32,134958,5,4
256,352,135378,1,8
32,192,135797,1,0
256,32,136217,1,8
256,32,136427,1,0
432,176,136846,5,0
406,270,137056,2,8,B|398:288|386:306|367:319|350:325,1,80,8|0
256,352,137476,1,0
161,325,137686,2,8,B|144:319|125:306|113:288|106:270,1,80,0|8
80,176,138105,1,0
136,88,138315,6,0,B|139:85|139:85|138:77|138:77|150:88|150:88|145:73|145:73|157:84|157:84|152:69|152:69|164:80|164:80|159:65|159:65|171:76|171:76|166:61|166:61|174:66|174:66|181:61,1,160,12|2
376,88,138944,1,12
376,88,139154,6,0,B|372:85|372:85|373:77|373:77|361:88|361:88|366:73|366:73|354:84|354:84|359:69|359:69|347:80|347:80|352:65|352:65|340:76|340:76|345:61|345:61|337:66|337:66|330:61,1,160,12|2
136,88,139783,1,12
200,160,139993,6,8,B|192:175|187:197|192:219|200:237,1,80,12|0
312,237,140413,2,0,B|320:219|324:197|320:175|312:160,2,80
256,352,141042,1,10
256,352,141252,1,10
169,37,141672,6,0,B|145:26|121:29|99:39|83:59,1,96.0000022888184,4|0
124,213,142091,2,0,B|148:223|172:221|194:211|209:190,1,96.0000022888184,4|0
343,37,142511,6,0,B|366:26|390:29|412:39|428:59,1,96.0000022888184
388,213,142930,2,0,B|363:223|339:221|317:211|302:190,2,96.0000022888184,4|0|0
472,154,143560,5,0
364,125,143769,1,8
256,96,143979,1,0
148,125,144189,2,0,B|97:127|55:157|30:201|32:252,1,192.000004577637,0|8
157,249,144818,1,0
157,249,144923,1,0
157,249,145028,1,0
199,356,145238,5,0
313,356,145448,1,8
355,249,145658,1,0
479,253,145867,2,0,B|481:201|456:157|414:127|364:125,1,192.000004577637,0|8
128,64,146706,5,0
48,148,146916,2,0,B|32:168|28:192|32:216|48:236,1,96.0000022888184,0|8
128,320,147336,1,0
240,304,147546,6,0,B|249:328|268:344|291:352|316:348,1,96.0000022888184,2|2
480,304,147965,2,0,B|470:327|451:343|429:351|402:347,1,96.0000022888184,10|2
368,200,148385,6,0,B|456:160,1,96.0000022888184,4|0
312,120,148804,2,0,B|352:32,1,96.0000022888184,4|0
200,120,149224,2,0,B|167:30,1,96.0000022888184
144,200,149644,2,0,B|56:160,2,96.0000022888184,4|0|0
256,248,150273,5,0
317,352,150482,1,8
195,352,150693,1,0
256,248,150902,2,0,B|258:203|274:152|310:113|348:88,1,192.000004577637,0|8
480,32,151531,1,0
480,32,151636,1,0
480,32,151741,1,0
480,148,151951,5,0
464,264,152161,1,8
356,308,152371,1,0
256,248,152581,2,0,B|253:203|237:152|201:113|164:88,1,192.000004577637,0|8
32,32,153420,5,12
480,32,153839,1,12
256,352,154259,1,12
256,352,154469,2,0,B|256:348|256:348|248:344|248:344|264:340|264:340|248:336|248:336|264:332|264:332|248:328|248:328|256:324|256:324|256:316,1,96.0000022888184,2|2
320,64,155098,6,0,B|370:64|409:94,1,96.0000022888184,4|0
192,144,155518,2,0,B|143:144|104:174,1,96.0000022888184,4|0
320,224,155937,2,0,B|370:224|409:254,1,96.0000022888184,0|0
192,304,156357,2,0,B|143:304|104:334,2,96.0000022888184,4|0|0
288,304,156986,5,0
224,224,157196,1,8
288,144,157406,1,0
224,64,157616,1,0
32,336,158035,1,8
32,336,158245,1,0
32,336,158455,1,0
104,245,158665,6,0,B|144:275|193:275,1,96.0000022888184,0|8
320,276,159084,2,0,B|370:275|409:245,2,96.0000022888184
252,164,159713,1,8
256,168,160133,6,0,B|256:164|256:164|252:156|252:156|252:160|252:160|260:152|260:152|260:156|260:156|252:148|252:148|252:152|252:152|260:144|260:144|260:148|260:148|252:140|252:140|252:144|252:144|260:136|260:136|260:140|260:140|252:132|252:132|252:136|252:136|260:128|260:128|260:132|260:132|252:124|252:124|252:128|252:128|260:120|260:120|260:124|260:124|252:116|252:116|252:120|252:120|260:112|260:112|260:116|260:116|252:108|252:108|252:112|252:112|260:104|260:104|260:108|260:108|252:100|252:100|252:104|252:104|260:96|260:96|260:100|260:100|252:92|252:92|252:96|252:96|260:88|260:88|260:92|260:92|256:84|256:84|256:80,1,288.000006866455
312,32,160972,2,0,B|380:100,1,96.0000022888184,2|2
200,32,161392,2,0,B|132:100,1,96.0000022888184,10|2
56,192,161811,6,0,B|26:231|26:281,1,96.0000022888184,4|0
160,352,162231,2,0,B|190:313|190:263,1,96.0000022888184,4|0
352,352,162651,6,0,B|322:313|322:263,1,96.0000022888184
456,192,163070,2,0,B|486:231|486:281,2,96.0000022888184,4|0|0
384,96,163699,5,0
288,32,163909,1,8
224,128,164119,1,0
128,64,164329,1,0
112,320,164748,2,0,B|73:350|23:350,2,96.0000022888184,8|0|0
200,248,165378,5,0
272,336,165588,1,8
360,264,165797,1,0
432,352,166007,2,0,B|470:319|480:271,1,96.0000022888184
388,99,166427,2,0,B|350:131|340:180,1,96.0000022888184,8|0
480,32,166846,5,4
32,32,167266,1,4
256,352,167686,1,4
256,352,167895,2,0,B|256:348|256:348|264:344|264:344|248:340|248:340|264:336|264:336|248:332|248:332|264:328|264:328|256:324|256:324|256:316,1,96.0000022888184,2|2
192,32,168525,5,4
224,32,168630,1,0
256,32,168734,1,0
288,32,168839,1,0
320,32,168944,1,10
324,36,169364,5,4
256,192,169573,1,0
188,36,169783,1,10
31,213,170203,5,8
74,303,170413,1,8
174,295,170623,1,8
256,352,170832,1,8
338,295,171042,1,8
438,303,171252,1,2
481,213,171462,1,2
256,192,171881,5,4
104,192,184888,6,0,B|168:160|256:120,1,160,8|4
344,152,185518,1,0
384,240,185727,1,8
320,312,185937,1,0
320,312,186042,1,0
320,312,186147,2,0,B|232:304,1,80,2|0
120,240,186567,1,8
32,344,186776,5,0
32,344,186881,1,0
32,344,186986,2,0,B|76:352|112:336,1,80,2|0
152,152,187406,2,0,B|108:144|72:160,1,80,8|0
8,264,187825,2,0,B|96:280|176:232,1,160,2|8
256,272,188455,5,0
256,272,188560,1,0
256,272,188665,2,0,B|328:232|416:256,1,160,2|8
472,176,189294,1,0
424,96,189504,2,0,B|392:124|380:168,1,80,2|0
460,324,189923,2,0,B|492:296|504:252,1,80,8|0
376,24,190343,6,0,B|320:80|296:168,1,160,2|8
248,248,190972,1,0
248,248,191077,1,0
248,248,191182,1,8
112,216,191392,1,8
224,136,191602,1,8
96,88,191811,1,8
176,32,192021,6,0,B|256:48|328:96,1,160,4|8
416,40,192651,1,0
416,40,192755,1,0
416,40,192860,2,0,B|432:80|440:120,1,80,2|0
384,200,193280,1,8
288,176,193490,5,0
288,176,193595,1,0
288,176,193699,2,0,B|240:240|256:328,1,160,4|8
392,356,194329,1,0
392,356,194434,1,0
392,356,194538,2,0,B|440:292|424:204,1,160,4|8
64,48,195378,5,4
312,96,195797,2,0,B|352:88|400:56,1,80,8|8
480,88,196217,1,4
480,296,196637,2,0,B|440:288|392:256,1,80,8|8
320,312,197056,5,4
304,176,197266,1,8
192,256,197476,1,8
112,144,197686,1,8
52,264,197895,1,8
192,256,198105,5,2
192,256,198210,1,0
192,256,198315,2,0,B|208:216|200:184|216:128,1,120,4|0
220,92,198734,6,0,B|296:32|408:64,1,192.000004577637,4|8
472,144,199364,1,0
400,224,199574,2,0,B|293:254|217:194,1,192.000004577637,0|8
128,128,200203,1,0
40,200,200413,6,0,B|24:304,1,96.0000022888184,0|0
136,264,200832,2,0,B|176:360,1,96.0000022888184,8|0
280,336,201252,2,0,B|384:360|456:280,1,192.000004577637,0|8
368,144,201881,2,0,B|344:192|344:256,1,96.0000022888184
480,192,202301,2,0,B|504:144|504:80,1,96.0000022888184,0|8
424,32,202720,1,0
304,80,202930,2,0,B|256:160|256:272,1,192.000004577637,0|8
152,312,203560,1,0
40,160,203769,6,0,B|104:128|160:120,1,96.0000022888184
328,208,204189,2,0,B|264:240|208:248,1,96.0000022888184,8|0
64,64,204609,6,0,B|128:32|184:24,1,96.0000022888184,2|0
352,112,205029,2,0,B|288:144|232:152,1,96.0000022888184,10|0
240,32,205448,6,0,B|304:8|376:48|432:24,1,192.000004577637,4|8
496,120,206077,1,0
448,224,206287,2,0,B|408:256|352:256,1,96.0000022888184
384,360,206706,2,0,B|333:367|284:339,1,96.0000022888184,8|0
192,272,207126,2,0,B|232:240|288:240,1,96.0000022888184
256,136,207545,2,0,B|307:129|356:157,1,96.0000022888184,8|0
480,312,207965,2,0,B|400:368|296:328,1,192.000004577637,0|8
184,360,208595,1,0
88,304,208804,6,0,B|72:208,1,96.0000022888184
176,72,209224,2,0,B|192:168,1,96.0000022888184,8|0
288,224,209644,2,0,B|320:288|424:280|440:208,1,192.000004577637,0|8
456,96,210273,6,0,B|464:40,2,48.0000011444092,0|0|4
360,352,210902,1,4
112,240,211322,1,4
120,124,211532,1,0
144,128,211637,1,0
168,136,211741,2,0,B|216:160|232:216,1,96.0000022888184,8|0
192,320,212161,6,0,B|96:376|8:304,1,192.000004577637,4|8
72,200,212790,1,0
24,96,213000,2,0,B|208:48,1,192.000004577637,0|8
312,104,213630,1,0
416,64,213839,6,0,B|448:96|456:152,1,96.0000022888184
328,296,214259,2,0,B|296:264|288:208,1,96.0000022888184,8|0
448,248,214679,2,0,B|480:280|488:336,1,96.0000022888184,0|0
256,360,215098,2,0,B|192:296|192:176,1,192.000004577637,8|0
256,88,215727,5,0
152,40,215937,2,0,B|96:56|64:96,1,96.0000022888184,8|0
136,248,216357,2,0,B|162:196|155:145,1,96.0000022888184,0|0
43,185,216776,2,0,B|16:236|23:287,1,96.0000022888184,8|0
112,352,217196,5,0
216,304,217406,1,0
216,304,217511,1,0
216,304,217616,1,8
272,208,217825,1,0
328,112,218035,6,0,B|368:144|384:192,1,96.0000022888184,2|0
216,304,218455,2,0,B|176:272|160:224,1,96.0000022888184,10|0
244,72,218874,6,0,B|268:8|372:4|404:64,1,192.000004577637,4|8
452,164,219504,1,0
344,207,219713,2,0,B|328:111,1,96.0000022888184
144,32,220133,2,0,B|160:128,1,96.0000022888184,8|0
240,216,220553,5,0
48,128,220762,1,0
48,128,220867,1,0
48,128,220972,2,0,B|64:224,1,96.0000022888184,8|0
96,336,221392,2,0,B|192:296|280:352,1,192.000004577637,0|8
352,256,222021,5,0
352,256,222126,1,0
352,256,222231,2,0,B|392:288|416:328,1,96.0000022888184
504,248,222651,1,8
448,144,222860,1,0
332,152,223070,2,0,B|280:168|244:216,1,96.0000022888184
120,112,223490,1,8
184,264,223699,1,0
48,168,223909,5,4
264,40,224329,1,4
272,288,224748,1,4
160,248,224958,1,0
164,224,225063,1,0
175,202,225168,2,0,B|208:168|264:160,1,96.0000022888184,8|0
368,200,225588,5,4
384,224,225693,1,0
400,248,225797,1,0
416,272,225902,1,0
432,296,226007,1,8
504,224,226217,1,0
328,328,226427,6,0,B|296:408,4,48.0000011444092,0|0|0|0|8
328,124,227056,1,0
444,128,227266,5,4
276,220,227476,1,8
444,316,227686,1,4
388,216,227895,2,0,B|332:132,1,96.0000022888184,8|4
280,32,228315,1,8
280,32,228420,1,0
280,32,228525,1,4
