osu file format v9

[General]
AudioFilename: Taiyou Iwaku Moeyo Chaos (TV Size).mp3
AudioLeadIn: 1750
PreviewTime: 57566
Countdown: 0
SampleSet: Normal
StackLeniency: 0.7
Mode: 1
LetterboxInBreaks: 0

[Editor]
DistanceSpacing: 0
BeatDivisor: 4
GridSize: 32

[Metadata]
Title:Taiyou Iwaku Moeyo Chaos (TV Size)
Artist:Ushirokara Haiyoritai G
Creator:wcx19911123
Version:Taiko Oni
Source:Haiyore! Nyaruko-san
Tags:opening Nyarlathotep Nyaruratohotepu Nyaruko Yasaka Mahiro Cthugha Kutugaa Kuko Hastur Hasuta Asumi Kana Kitamura Eri Matsuki Miyu Kugimiya Rie Otsubo Yuka STUDIO MAUSU MONACA DIVEII entertainment XEBEC

[Difficulty]
HPDrainRate:6
CircleSize:5
OverallDifficulty:6
ApproachRate:5
SliderMultiplier:1.4
SliderTickRate:1

[Events]
//Background and Video events
0,0,"Taiko BG.jpg"
//Break Periods
//Storyboard Layer 0 (Background)
//Storyboard Layer 1 (Fail)
//Storyboard Layer 2 (Pass)
//Storyboard Layer 3 (Foreground)
//Storyboard Sound Samples
//Background Colour Transformations
3,100,163,162,255

[TimingPoints]
713,419.58041958042,4,1,0,80,1,0
57775,-86.9565217391304,4,1,0,80,0,1
71202,-76.9230769230769,4,1,0,80,0,1
84629,-62.5,4,1,0,80,0,1
87566,-62.5,4,1,0,80,0,0

[Colours]
Combo1 : 5,5,240
Combo2 : 240,5,5

[HitObjects]
256,192,713,21,8
256,192,817,1,8
256,192,922,1,8
256,192,1027,1,8
256,192,1132,5,0
256,192,1552,1,0
256,192,1657,1,0
256,192,1761,1,0
256,192,1866,1,0
256,192,1971,5,8
256,192,2391,5,4
256,192,2601,1,4
256,192,2810,5,12
256,192,3020,5,4
256,192,3230,1,4
256,192,3650,5,12
256,192,4069,5,4
256,192,4279,5,8
256,192,4384,1,8
256,192,4489,5,0
256,192,4699,5,8
256,192,4908,5,4
256,192,5118,5,8
256,192,5223,1,8
256,192,5328,5,0
256,192,5538,5,8
256,192,5747,5,4
256,192,5957,5,8
256,192,6062,1,8
256,192,6167,5,0
256,192,6377,5,8
256,192,6587,5,4
256,192,6796,5,8
256,192,6901,1,8
256,192,7006,5,0
256,192,7216,5,8
256,192,7426,5,4
256,192,7636,5,8
256,192,7740,1,8
256,192,7845,5,0
256,192,8055,5,8
256,192,8265,5,4
256,192,8475,5,8
256,192,8580,1,8
256,192,8685,1,8
256,192,8894,1,8
256,192,9104,5,0
256,192,9314,1,0
256,192,9524,5,8
256,192,9733,5,0
256,192,9943,1,0
256,192,10363,5,12
256,192,10782,5,0
256,192,10992,1,0
256,192,11097,1,0
256,192,11202,5,8
256,192,11412,1,8
256,192,11622,5,0
256,192,11831,5,8
256,192,11936,1,8
256,192,12041,5,0
256,192,12251,5,8
256,192,12461,5,0
256,192,12671,5,8
256,192,12775,1,8
256,192,12880,5,0
256,192,13090,5,8
256,192,13300,5,0
256,192,13510,5,8
256,192,13719,5,0
256,192,13929,5,8
256,192,14139,5,0
256,192,14349,1,0
256,192,14454,1,0
256,192,14559,5,8
256,192,14768,1,8
256,192,14978,5,0
256,192,15188,5,8
256,192,15293,1,8
256,192,15398,5,0
256,192,15608,5,8
256,192,15817,5,0
256,192,15922,1,0
256,192,16027,5,8
256,192,16132,1,8
256,192,16237,5,0
256,192,16447,5,8
256,192,16657,5,0
256,192,16866,5,8
256,192,17076,5,0
256,192,17286,5,8
256,192,17496,5,0
256,192,17706,1,0
256,192,17810,1,0
256,192,17915,5,8
256,192,18125,1,8
256,192,18335,5,0
256,192,18545,5,8
256,192,18650,1,8
256,192,18754,5,0
256,192,18964,5,8
256,192,19174,5,0
256,192,19384,5,8
256,192,19489,1,8
256,192,19594,5,0
256,192,19803,5,8
256,192,20013,5,0
256,192,20223,5,8
256,192,20433,5,0
256,192,20643,5,8
256,192,20852,5,0
256,192,21062,5,8
256,192,21167,5,0
256,192,21272,5,8
256,192,21482,1,8
256,192,21692,5,0
256,192,21901,5,8
256,192,22006,1,8
256,192,22111,5,0
256,192,22321,5,8
256,192,22531,5,0
256,192,22636,5,8
256,192,22740,1,8
256,192,22845,5,0
256,192,22950,5,8
256,192,23160,1,8
256,192,23370,5,0
256,192,23580,5,8
256,192,23789,5,0
256,192,23999,5,8
256,192,24209,5,0
256,192,24419,5,8
256,192,24524,1,8
256,192,24629,5,0
256,192,24838,5,8
256,192,25048,5,0
256,192,25258,5,8
256,192,25363,1,8
256,192,25468,5,0
256,192,25678,5,8
256,192,25887,5,0
256,192,26097,1,0
256,192,26202,1,0
256,192,26307,5,8
256,192,26517,1,8
256,192,26726,5,0
256,192,26936,5,8
256,192,27041,1,8
256,192,27146,5,0
256,192,27356,5,8
256,192,27566,6,0,B|312:192|320:248|256:296|192:248|200:192|256:192,2,210
256,192,29244,1,0
256,192,29454,1,0
256,192,29559,1,0
256,192,29664,5,8
256,192,29873,1,12
256,192,30083,12,0,30503
256,192,30922,5,0
256,192,31132,1,0
256,192,31237,1,0
256,192,31342,5,8
256,192,31552,1,8
256,192,31761,5,0
256,192,31971,5,8
256,192,32076,1,8
256,192,32181,5,0
256,192,32391,5,8
256,192,32601,5,0
256,192,32810,5,8
256,192,32915,1,8
256,192,33020,5,0
256,192,33230,5,8
256,192,33440,5,0
256,192,33650,5,8
256,192,33859,5,0
256,192,34069,5,8
256,192,34279,5,0
256,192,34489,1,0
256,192,34594,1,0
256,192,34699,5,8
256,192,34908,1,8
256,192,35118,5,0
256,192,35328,5,8
256,192,35433,1,8
256,192,35538,5,0
256,192,35747,5,8
256,192,35957,5,0
256,192,36062,1,0
256,192,36167,5,8
256,192,36272,1,8
256,192,36377,5,0
256,192,36587,5,8
256,192,36796,5,0
256,192,37006,5,8
256,192,37216,5,0
256,192,37426,5,8
256,192,37636,5,0
256,192,37845,1,0
256,192,37950,1,0
256,192,38055,5,8
256,192,38265,1,8
256,192,38475,5,0
256,192,38685,5,8
256,192,38789,1,8
256,192,38894,5,0
256,192,39104,5,8
256,192,39314,5,0
256,192,39524,5,8
256,192,39629,1,8
256,192,39733,5,0
256,192,39943,5,8
256,192,40153,5,0
256,192,40363,5,8
256,192,40573,5,0
256,192,40782,5,8
256,192,40992,5,0
256,192,41202,5,8
256,192,41307,5,0
256,192,41412,5,8
256,192,41622,1,8
256,192,41831,5,0
256,192,42041,5,8
256,192,42146,1,8
256,192,42251,5,0
256,192,42461,5,8
256,192,42671,5,0
256,192,42775,5,8
256,192,42880,1,8
256,192,42985,5,0
256,192,43090,5,8
256,192,43300,1,8
256,192,43510,5,0
256,192,43719,5,8
256,192,43929,5,0
256,192,44139,5,8
256,192,44349,5,0
256,192,44559,5,8
256,192,44664,1,8
256,192,44768,5,0
256,192,44978,5,8
256,192,45188,5,0
256,192,45398,5,8
256,192,45503,1,8
256,192,45608,5,0
256,192,45817,5,8
256,192,46237,1,8
256,192,46657,1,8
256,192,47076,1,8
256,192,47181,5,0
256,192,47286,5,8
256,192,47496,1,8
256,192,47706,5,0
256,192,47915,5,8
256,192,48020,1,8
256,192,48125,5,0
256,192,48335,5,8
256,192,48545,5,0
256,192,48754,5,8
256,192,48859,1,8
256,192,48964,5,0
256,192,49174,5,8
256,192,49594,5,0
256,192,49699,1,0
256,192,49803,5,8
256,192,50013,5,0
256,192,50223,1,0
256,192,50538,5,8
256,192,50643,5,0
256,192,50852,5,8
256,192,51062,5,0
256,192,51272,5,8
256,192,51377,1,8
256,192,51482,5,0
256,192,51692,5,8
256,192,51901,5,0
256,192,52111,5,8
256,192,52216,1,8
256,192,52321,5,0
256,192,52531,5,8
256,192,52950,5,0
256,192,53055,1,0
256,192,53160,5,8
256,192,53370,1,8
256,192,53580,5,0
256,192,53789,5,8
256,192,53894,1,8
256,192,53999,5,0
256,192,54209,5,8
256,192,54419,5,4
256,192,54838,5,12
256,192,55048,5,0
256,192,55258,1,0
256,192,55678,5,12
256,192,55887,5,0
256,192,56097,1,0
256,192,56307,1,0
256,192,56517,5,8
256,192,56726,5,0
256,192,56936,1,0
256,192,57146,1,4
256,192,57356,5,12
256,192,57775,5,0
256,192,57985,5,8
256,192,58195,5,0
256,192,58405,5,8
256,192,58510,1,8
256,192,58615,5,0
256,192,58824,5,8
256,192,59034,5,0
256,192,59244,5,8
256,192,59349,1,8
256,192,59454,5,0
256,192,59664,5,8
256,192,59873,5,0
256,192,60083,1,0
256,192,60188,1,0
256,192,60293,5,8
256,192,60503,5,0
256,192,60713,5,8
256,192,60922,5,0
256,192,61132,1,0
256,192,61342,1,0
256,192,61447,1,0
256,192,61552,5,8
256,192,61761,1,8
256,192,61971,5,0
256,192,62181,5,8
256,192,62286,1,8
256,192,62391,5,0
256,192,62601,5,8
256,192,62810,5,0
256,192,62915,1,0
256,192,63020,5,8
256,192,63230,5,0
256,192,63440,5,8
256,192,63650,5,0
256,192,63859,5,8
256,192,63964,1,8
256,192,64069,5,0
256,192,64279,5,8
256,192,64384,1,8
256,192,64489,5,0
256,192,64699,5,8
256,192,64908,5,0
256,192,65118,5,8
256,192,65223,1,8
256,192,65328,5,0
256,192,65538,5,8
256,192,65747,5,0
256,192,65957,5,8
256,192,66062,1,8
256,192,66167,5,0
256,192,66377,5,8
256,192,66587,5,0
256,192,66796,1,0
256,192,66901,1,0
256,192,67006,5,8
256,192,67216,5,0
256,192,67426,5,8
256,192,67636,5,0
256,192,67845,1,0
256,192,68055,1,0
256,192,68160,1,0
256,192,68265,5,8
256,192,68475,1,8
256,192,68685,5,0
256,192,68894,5,8
256,192,68999,1,8
256,192,69104,5,0
256,192,69314,5,8
256,192,69524,5,4
256,192,69943,1,4
256,192,70363,5,12
256,192,70573,5,0
256,192,70678,1,0
256,192,70782,5,8
256,192,71202,1,8
256,192,71412,5,0
256,192,71517,1,0
256,192,71622,5,8
256,192,71831,5,0
256,192,72041,5,8
256,192,72251,5,0
256,192,72356,1,0
256,192,72461,5,8
256,192,72671,5,0
256,192,72880,1,0
256,192,73090,5,8
256,192,73300,5,0
256,192,73510,1,0
256,192,73615,1,0
256,192,73719,5,8
256,192,73929,5,0
256,192,74139,5,8
256,192,74349,5,0
256,192,74559,1,0
256,192,74768,1,0
256,192,74873,1,0
256,192,74978,5,8
256,192,75188,1,8
256,192,75398,5,0
256,192,75608,5,8
256,192,75712,1,8
256,192,75817,5,0
256,192,76027,5,8
256,192,76237,5,0
256,192,76447,1,0
256,192,76552,1,0
256,192,76657,5,8
256,192,76866,1,8
256,192,77076,5,0
256,192,77286,5,8
256,192,77391,1,8
256,192,77496,5,0
256,192,77706,5,8
256,192,77810,5,0
256,192,77915,5,8
256,192,78125,5,0
256,192,78230,1,0
256,192,78335,5,8
256,192,78545,5,0
256,192,78754,5,8
256,192,78964,5,0
256,192,79069,1,0
256,192,79174,5,8
256,192,79384,5,0
256,192,79594,1,0
256,192,79803,5,8
256,192,80013,5,0
256,192,80223,1,0
256,192,80328,1,0
256,192,80433,5,8
256,192,80643,5,0
256,192,80852,5,8
256,192,81062,5,0
256,192,81272,1,0
256,192,81482,1,0
256,192,81587,1,0
256,192,81692,5,8
256,192,81901,1,8
256,192,82111,5,0
256,192,82321,5,8
256,192,82426,1,8
256,192,82531,5,0
256,192,82740,5,8
256,192,82950,5,4
256,192,83370,1,4
256,192,83789,5,12
256,192,83999,5,0
256,192,84104,1,0
256,192,84209,5,8
256,192,84629,1,8
256,192,84733,1,8
256,192,84838,1,8
256,192,84943,1,8
256,192,85048,5,0
256,192,85468,1,0
256,192,85573,1,0
256,192,85678,1,0
256,192,85782,1,0
256,192,85887,5,8
256,192,86307,5,4
256,192,86517,1,4
256,192,86726,5,12
256,192,86936,5,4
256,192,87146,1,4
256,192,87566,5,12
