osu file format v9

[General]
AudioFilename: Taiyou Iwaku Moeyo Chaos (TV Size).mp3
AudioLeadIn: 1750
PreviewTime: 57566
Countdown: 0
SampleSet: Soft
StackLeniency: 0.7
Mode: 0
LetterboxInBreaks: 0

[Editor]
DistanceSpacing: 1
BeatDivisor: 4
GridSize: 8

[Metadata]
Title:Taiyou Iwaku Moeyo Chaos (TV Size)
Artist:Ushirokara Haiyoritai G
Creator:wcx19911123
Version:Normal
Source:Haiyore! Nyaruko-san
Tags:opening Nyarlathotep Nyaruratohotepu Nyaruko Yasaka Mahiro Cthugha Kutugaa Kuko Hastur Hasuta Asumi Kana Kitamura Eri Matsuki Miyu Kugimiya Rie Otsubo Yuka STUDIO MAUSU MONACA DIVEII entertainment XEBEC

[Difficulty]
HPDrainRate:4
CircleSize:3
OverallDifficulty:4
ApproachRate:5
SliderMultiplier:1.12
SliderTickRate:1

[Events]
//Background and Video events
0,0,"Normal BG.jpg"
Video,400,"Taiyou Iwaku Moeyo Kaosu (TV Size).flv"
//Break Periods
//Storyboard Layer 0 (Background)
//Storyboard Layer 1 (Fail)
//Storyboard Layer 2 (Pass)
//Storyboard Layer 3 (Foreground)
//Storyboard Sound Samples
//Background Colour Transformations
3,100,163,162,255

[TimingPoints]
713,419.58041958042,4,2,1,80,1,0
4069,-100,4,2,1,70,0,0
10782,-100,4,2,1,65,0,0
54419,-100,4,2,1,70,0,0
57775,-100,4,2,1,80,0,1
70782,-100,4,2,1,70,0,1
71097,-100,4,2,1,70,0,0
71202,-100,4,2,1,80,0,1
84209,-100,4,2,1,70,0,1
84629,-100,4,2,1,80,0,1
85048,-100,4,2,1,70,0,1
85468,-100,4,2,1,80,0,1
85887,-100,4,2,1,70,0,1
86307,-100,4,2,1,80,0,1
87566,-100,4,2,1,80,0,0

[Colours]
Combo1 : 235,243,82
Combo2 : 169,182,181
Combo3 : 255,9,70

[HitObjects]
112,96,713,2,0,B|88:152,1,56,4|0
68,200,1132,1,2
176,168,1552,2,0,B|200:224,1,56,4|0
220,272,1971,1,2
304,344,2391,6,0,B|360:344,1,56,8|8
400,304,2810,2,0,B|456:304,1,56,8|8
496,264,3230,1,8
440,168,3650,1,8
392,64,4069,5,4
344,168,4489,1,8
296,64,4908,1,0
248,168,5328,1,8
208,64,5747,1,0
160,168,6167,1,8
112,64,6586,1,0
64,168,7006,1,8
152,256,7426,5,0
200,360,7846,1,8
248,256,8265,1,0
296,360,8685,1,8
408,360,9104,2,0,B|408:304,1,56,8|8
448,264,9524,2,0,B|448:208,1,56,8|8
488,168,9943,1,8
448,64,10363,1,8
336,40,10782,6,0,B|272:40|240:96,1,112,4|8
280,200,11622,1,0
240,304,12041,1,8
136,344,12461,2,0,B|72:352|32:312,1,112,0|8
8,264,13090,1,0
8,208,13300,1,0
56,104,13719,2,0,B|56:48,1,56,8|0
152,104,14349,5,0
152,104,14559,2,0,B|200:144|256:128,1,112,8|0
344,56,15398,1,8
448,96,15817,1,0
480,200,16237,1,8
440,304,16657,2,0,B|384:304,1,56
344,344,17076,2,0,B|288:344,1,56,8|0
248,304,17496,5,4
144,344,17915,1,8
48,288,18335,2,0,B|48:232,1,56
88,192,18754,2,0,B|88:136,1,56,8|0
128,96,19174,1,0
216,24,19594,1,8
312,80,20013,2,0,B|312:136,1,56
272,176,20433,2,0,B|272:240,1,56,8|0
176,288,21062,5,0
176,288,21272,2,0,B|208:344|272:344,1,112,8|0
360,280,22111,1,8
464,320,22531,2,0,B|504:280,2,56,0|0|8
360,368,23370,2,0,B|360:304,1,56
320,272,23789,2,0,B|320:208,1,56,8|0
360,176,24209,5,4
456,120,24629,1,8
384,32,25048,2,0,B|320:8|272:40,1,112,0|8
240,80,25678,1,0
296,176,26097,2,0,B|328:128,2,56,0|8|0
260,220,26726,1,0
168,160,27146,1,8
112,168,27356,1,0
72,208,27566,6,0,B|40:256|56:320,1,112,0|8
160,276,28405,1,0
272,280,28824,1,8
360,352,29244,1,0
416,344,29454,1,0
456,304,29664,2,0,B|472:248,2,56,0|0|2
368,232,30503,1,8
264,184,30922,6,0,B|200:168|160:216,1,112,4|8
136,320,31761,1,0
56,240,32181,1,8
48,128,32601,2,0,B|56:64|104:32,1,112,0|8
156,20,33230,1,0
200,56,33440,2,0,B|248:88|312:72,1,112,0|8
360,52,34069,1,0
464,96,34489,6,0,B|464:40,2,56,0|8|0
464,152,35118,2,0,B|464:208|416:248,1,112,0|8
312,208,35957,1,0
272,312,36377,1,8
192,232,36796,2,0,B|136:232,1,56
96,272,37216,2,0,B|40:272,1,56,8|0
0,232,37636,6,0,B|-16:168|24:120,1,112,4|8
112,64,38475,1,0
224,80,38894,1,8
152,168,39314,2,0,B|120:224|136:280,1,112,0|8
168,320,39943,1,0
224,312,40153,2,0,B|256:256|240:200,1,112,0|8
208,160,40782,1,0
256,56,41202,5,0
256,56,41412,1,8
368,40,41831,2,0,B|424:32|472:80,1,112,0|8
472,192,42671,1,0
400,280,43090,1,8
312,208,43510,2,0,B|256:208,1,56
216,248,43929,2,0,B|160:248,1,56,8|0
120,288,44349,5,4
24,232,44768,1,8
24,120,45188,2,0,B|32:64|88:32,1,112,0|8
144,28,45817,1,0
192,128,46237,1,2
304,144,46657,1,2
392,72,47076,1,2
392,72,47286,2,0,B|448:72,1,56,8|0
496,104,47706,6,0,B|520:160|496:216,1,112,0|8
432,304,48545,1,0
328,344,48964,1,8
328,344,49174,1,0
280,240,49594,2,0,B|336:240,2,56,0|8|0
240,280,50223,2,0,B|184:280,1,56
144,240,50643,2,0,B|88:240,1,56,8|0
48,280,51062,5,4
32,168,51482,1,8
72,64,51901,2,0,B|112:24|176:32,1,112,0|8
224,60,52531,1,0
192,168,52950,1,0
192,168,53160,2,0,B|184:224|224:272,1,112,8|0
320,328,53999,1,8
376,336,54209,1,0
432,328,54419,5,8
488,232,54838,2,0,B|488:176,1,56,0|8
488,120,55258,1,8
400,48,55678,2,0,B|400:104,1,56,0|8
400,160,56097,5,8
400,216,56307,1,0
400,272,56517,2,0,B|400:328,2,56
288,256,57356,1,8
232,160,57775,6,0,B|216:104|248:48,1,112,4|8
360,40,58615,1,0
400,144,59034,1,8
376,256,59454,1,0
348,304,59664,1,0
300,332,59873,2,0,B|248:352|192:320,1,112,8|0
120,232,60713,1,8
64,136,61132,5,0
120,144,61342,1,0
176,136,61552,2,0,B|232:128|264:64,1,112,8|0
368,32,62391,1,8
448,112,62810,2,0,B|504:112,2,56,0|0|8
392,120,63440,1,0
344,152,63650,2,0,B|304:192|304:256,1,112,0|8
344,360,64489,5,4
232,344,64908,1,8
160,256,65328,1,0
48,240,65747,1,8
0,136,66167,2,0,B|0:72|40:32,1,112,0|8
92,16,66796,1,0
120,64,67006,2,0,B|152:120|216:120,1,112,0|8
312,72,67845,6,0,B|312:16,2,56,0|0|8
312,128,68475,1,0
320,184,68685,2,0,B|336:240|392:264,1,112,0|8
496,224,69524,1,8
456,120,69943,1,8
416,16,70363,1,8
376,56,70573,2,0,B|320:56,1,56,0|8
208,32,71202,6,0,B|152:32|112:88,1,112,4|8
80,192,72041,1,0
136,288,72461,1,8
248,304,72880,2,0,B|248:360,2,56,0|0|8
256,248,73510,1,0
280,200,73719,2,0,B|312:144|376:136,1,112,0|8
480,160,74559,5,0
488,272,74978,1,8
400,344,75398,2,0,B|344:368|288:328,1,112,0|8
264,224,76237,2,0,B|320:224,2,56,0|0|8
208,224,76866,1,0
152,216,77076,2,0,B|96:200|72:144,1,112,0|8
112,40,77915,5,4
224,56,78335,1,8
264,160,78754,1,0
376,176,79174,1,8
472,232,79594,2,0,B|472:176,2,56,0|0|8
464,288,80223,1,0
432,336,80433,2,0,B|376:368|320:344,1,112,0|8
288,240,81272,6,0,B|232:208|176:232,1,112,0|8
136,264,81901,1,0
80,272,82111,2,0,B|24:248|16:184,1,112,0|8
128,168,82950,1,8
216,96,83370,1,8
304,24,83789,1,8
352,56,83999,2,0,B|408:56,1,56,0|8
488,136,84629,6,0,B|472:192,1,56,4|0
456,244,85048,1,8
384,328,85468,2,0,B|368:272,1,56,4|0
352,220,85887,1,8
288,128,86307,6,0,B|232:128,1,56,8|8
192,168,86726,2,0,B|136:168,1,56,8|8
88,200,87146,1,8
32,296,87566,1,4
