osu file format v9

[General]
AudioFilename: Taiyou Iwaku Moeyo Chaos (TV Size).mp3
AudioLeadIn: 1750
PreviewTime: 57566
Countdown: 0
SampleSet: Soft
StackLeniency: 0.7
Mode: 0
LetterboxInBreaks: 0

[Editor]
DistanceSpacing: 1.3
BeatDivisor: 4
GridSize: 8

[Metadata]
Title:Taiyou Iwaku Moeyo Chaos (TV Size)
Artist:Ushirokara Haiyoritai G
Creator:wcx19911123
Version:Insane
Source:Haiyore! Nyaruko-san
Tags:opening Nyarlathotep Nyaruratohotepu Nyaruko Yasaka Mahiro Cthugha Kutugaa Kuko Hastur Hasuta Asumi Kana Kitamura Eri Matsuki Miyu Kugimiya Rie Otsubo Yuka STUDIO MAUSU MONACA DIVEII entertainment XEBEC

[Difficulty]
HPDrainRate:7
CircleSize:4
OverallDifficulty:8
ApproachRate:8
SliderMultiplier:1.92
SliderTickRate:1

[Events]
//Background and Video events
0,0,"Insane BG.jpg"
Video,400,"Taiyou Iwaku Moeyo Kaosu (TV Size).flv"
//Break Periods
//Storyboard Layer 0 (Background)
//Storyboard Layer 1 (Fail)
//Storyboard Layer 2 (Pass)
//Storyboard Layer 3 (Foreground)
//Storyboard Sound Samples
//Background Colour Transformations
3,100,163,162,255

[TimingPoints]
713,419.58041958042,4,2,1,80,1,0
4069,-100,4,2,1,70,0,0
10782,-100,4,2,1,65,0,0
54419,-100,4,2,1,70,0,0
57775,-100,4,2,1,80,0,1
70782,-100,4,2,1,70,0,1
71097,-100,4,2,1,70,0,0
71202,-100,4,2,1,80,0,1
84209,-100,4,2,1,70,0,1
84629,-100,4,2,1,80,0,1
85048,-100,4,2,1,70,0,1
85258,-100,4,2,1,80,0,1
85887,-100,4,2,1,70,0,1
86097,-100,4,2,1,80,0,1
87566,-100,4,2,1,80,0,0

[Colours]
Combo1 : 235,243,82
Combo2 : 169,182,181
Combo3 : 255,9,70

[HitObjects]
416,124,713,1,4
400,100,817,1,0
380,80,922,1,0
356,64,1027,1,0
328,56,1132,2,0,B|276:40|232:64,1,96,2|0
74,132,1552,5,4
90,156,1656,1,0
110,176,1761,1,0
134,192,1866,1,0
162,200,1971,2,0,B|214:216|258:192,1,96,2|0
344,96,2391,5,8
191,78,2601,1,8
128,217,2810,1,8
241,321,3020,1,8
374,246,3230,1,8
256,192,3440,1,0
256,192,3545,1,0
256,192,3650,1,8
40,32,4069,5,4
24,128,4279,1,0
44,148,4384,1,0
72,156,4489,2,0,B|124:168|164:136,1,96,8|0
128,352,4908,1,0
112,256,5118,1,0
132,236,5223,1,0
160,228,5328,2,0,B|212:216|252:248,1,96,8|0
224,32,5747,5,0
208,128,5957,1,0
228,148,6062,1,0
256,156,6167,2,0,B|308:168|348:136,1,96,8|0
312,352,6586,1,0
296,256,6796,1,0
316,236,6901,1,0
344,228,7006,2,0,B|396:216|436:248,1,96,8|0
496,32,7426,5,0
512,128,7636,1,0
492,148,7741,1,0
464,156,7846,2,0,B|412:168|372:136,1,96,8|0
408,352,8265,1,0
424,256,8475,1,0
404,236,8580,1,0
376,228,8685,2,0,B|324:216|284:248,1,96,8|0
192,352,9104,5,8
80,304,9314,1,8
32,192,9524,1,8
80,80,9733,1,8
192,32,9943,1,8
256,192,10153,1,0
256,192,10258,1,0
256,192,10363,1,8
480,352,10782,5,4
408,288,10992,1,0
408,288,11097,1,0
408,288,11202,2,0,B|376:248|384:192,1,96,8|0
488,56,11622,1,0
408,104,11831,1,0
240,112,12041,1,8
320,64,12250,1,0
256,208,12461,5,0
240,304,12671,1,0
240,304,12775,1,0
240,304,12880,2,0,B|216:352|168:360,1,96,8|0
64,312,13300,1,0
16,208,13510,1,0
80,304,13719,1,8
48,192,13929,1,0
16,80,14139,5,0
104,120,14349,1,0
104,120,14454,1,0
104,120,14559,2,0,B|152:136|200:112,1,96,8|0
384,200,14978,2,0,B|336:208|296:168,1,96
280,144,15293,1,0
272,116,15398,2,0,B|264:64|296:24,1,96,8|0
456,88,15817,5,0
464,184,16027,1,0
464,184,16132,1,0
464,184,16237,2,0,B|468:240|424:272,1,96,8|0
320,344,16657,1,0
224,280,16866,1,0
128,344,17076,1,8
32,280,17286,1,0
32,280,17391,1,0
32,280,17496,1,4
56,184,17706,5,0
56,184,17810,1,0
56,184,17915,2,0,B|104:184|136:136,1,96,8|0
72,24,18335,1,0
168,40,18545,1,0
320,136,18754,1,8
224,120,18964,1,0
160,264,19174,5,0
216,344,19384,1,0
216,344,19489,1,0
216,344,19594,2,0,B|252:384|304:368,1,96,8|0
400,304,20013,1,0
448,200,20223,1,0
384,296,20433,1,8
416,184,20643,1,0
448,72,20852,5,0
360,112,21062,1,0
360,112,21167,1,0
360,112,21272,2,0,B|304:128|264:88,1,96,8|0
112,24,21692,2,0,B|160:32|184:88,1,96
184,112,22006,1,0
180,140,22111,2,0,B|168:192|120:208,1,96,8|0
32,304,22531,5,0
48,328,22636,1,0
72,344,22740,1,0
100,352,22845,1,0
128,356,22950,2,0,B|176:352|208:304,1,96,8|0
224,192,23370,1,0
336,216,23580,1,0
360,104,23789,1,8
456,40,23999,5,0
456,40,24104,1,0
456,40,24209,2,0,B|496:72|496:128,1,96,4|0
492,152,24524,1,0
476,176,24629,2,0,B|440:216|384:208,1,96,8|0
272,128,25048,1,0
176,112,25258,1,0
176,112,25363,1,0
176,112,25468,2,0,B|128:104|88:144,1,96,8|0
48,232,25887,5,0
128,336,26097,1,0
216,296,26307,1,8
256,208,26517,1,0
304,336,26726,1,0
216,296,26936,1,0
160,216,27146,1,8
168,120,27356,1,0
224,40,27566,6,0,B|272:16|320:24,1,96
332,48,27880,1,0
356,64,27985,2,0,B|400:96|448:80,1,96,8|0
496,208,28405,2,0,B|456:240|400:232,1,96
380,220,28719,1,0
352,212,28824,2,0,B|304:192|256:224,1,96,8|0
208,304,29244,5,0
296,344,29454,2,0,B|336:376,2,48,0|0|0
200,208,29873,1,0
256,56,30083,2,0,B|256:24,5,32,2|0|0|0|0|0
256,72,30503,1,8
256,312,30922,5,4
168,352,31132,1,0
168,352,31237,1,0
168,352,31342,2,0,B|120:368|72:344,1,96,8|0
88,192,31761,1,0
24,264,31971,1,0
72,96,32181,1,8
136,24,32391,1,0
176,160,32601,5,0
248,224,32810,1,0
248,224,32915,1,0
248,224,33020,2,0,B|288:248|344:232,1,96,8|0
432,160,33440,1,0
464,48,33650,1,0
416,152,33859,1,8
368,256,34069,1,0
320,360,34279,5,0
280,272,34489,1,0
280,272,34594,1,0
280,272,34699,2,0,B|248:232|192:232,1,96,8|0
80,344,35118,2,0,B|32:320|24:272,1,96
16,244,35433,1,0
24,208,35538,2,0,B|40:160|96:144,1,96,8|0
232,136,35957,5,0
272,224,36167,1,0
272,224,36272,1,0
272,224,36377,2,0,B|296:272|352:280,1,96,8|0
456,248,36796,1,0
384,160,37006,1,0
480,96,37216,1,8
400,16,37426,1,0
400,16,37531,1,0
400,16,37636,1,4
328,80,37845,5,0
328,80,37950,1,0
328,80,38055,2,0,B|280:104|232:80,1,96,8|0
96,112,38475,1,0
152,32,38685,1,0
152,192,38894,1,8
96,272,39104,1,0
240,224,39314,5,0
296,304,39524,1,0
296,304,39629,1,0
296,304,39733,2,0,B|328:344|384:336,1,96,8|0
472,264,40153,1,0
496,152,40363,1,0
448,256,40573,1,8
448,140,40782,1,0
448,24,40992,5,0
368,80,41202,1,0
368,80,41307,1,0
368,80,41412,2,0,B|328:104|272:88,1,96,8|0
128,24,41831,2,0,B|176:56|176:112,1,96
176,132,42146,1,0
168,160,42251,2,0,B|144:208|96:216,1,96,8|0
40,352,42671,5,0
120,296,42880,1,0
120,296,42985,1,0
120,296,43090,2,0,B|160:272|216:288,1,96,8|0
312,352,43510,1,0
424,328,43719,1,0
472,224,43929,1,8
448,112,44139,5,0
448,112,44244,1,0
448,112,44349,2,0,B|416:40|344:16,1,144,4|0
267,63,44768,2,0,B|323:63|347:15,1,96,8|0
176,40,45188,2,0,B|160:88|192:144|240:152,1,144
268,152,45608,1,8
360,176,45817,5,0
480,352,46237,1,2
256,288,46657,1,2
32,352,47076,1,2
32,352,47181,1,0
32,352,47286,2,0,B|16:304|32:256,1,96,8|0
184,192,47706,6,0,B|136:220|88:200,1,96
64,188,48020,1,0
48,164,48125,2,0,B|32:120|56:72,1,96,8|0
216,104,48545,1,0
272,184,48754,1,0
272,184,48859,1,0
272,184,48964,2,0,B|272:240|228:264,1,96,8|0
280,40,49594,5,0
280,40,49699,1,0
280,40,49803,2,0,B|320:8|376:24,1,96,8|0
472,80,50223,1,0
408,176,50433,1,0
472,272,50643,1,8
384,344,50852,5,0
384,344,50957,1,0
384,344,51062,2,0,B|336:368|288:352,1,96,4|0
264,344,51377,1,0
240,328,51482,2,0,B|200:288|208:240,1,96,8|0
232,144,51901,1,0
296,48,52111,1,0
392,112,52321,1,8
328,208,52531,2,0,B|304:256|320:304,1,96
224,272,52950,5,0
224,272,53055,1,0
224,272,53160,2,0,B|176:264|128:296,1,96,8|0
68,364,53580,1,0
12,288,53789,1,0
0,192,53999,1,8
12,96,54209,1,0
68,20,54418,5,8
256,280,54838,2,0,B|248:328|200:352,1,96,0|8
68,364,55258,1,8
256,104,55678,2,0,B|264:56|312:32,1,96,0|8
444,20,56097,5,8
500,96,56306,1,0
512,192,56516,1,0
500,288,56726,1,0
444,364,56935,1,0
352,336,57146,2,0,B|352:288,2,48,0|0|8
256,40,57775,5,4
160,24,57985,1,0
132,32,58090,1,0
108,48,58195,2,0,B|72:80|72:136,1,96,8|0
16,256,58615,1,0
112,264,58824,1,0
184,200,59034,1,8
272,160,59244,5,0
300,152,59349,1,0
328,152,59454,2,0,B|384:152|416:192,1,96
424,216,59768,1,0
420,244,59873,2,0,B|400:296|352:312,1,96,8|0
240,312,60293,1,0
128,288,60503,1,0
32,352,60713,1,8
56,240,60922,5,0
64,212,61027,1,0
64,184,61132,2,0,B|64:128|24:96,1,96
136,136,61552,1,8
232,152,61761,1,0
260,156,61866,1,0
288,152,61971,2,0,B|336:144|368:104,1,96
408,16,62391,1,8
368,104,62601,5,0
364,132,62706,1,0
364,160,62810,2,0,B|368:208|416:240,2,96,0|0|8
472,136,63440,1,0
496,272,63650,1,0
424,336,63859,1,0
264,360,64069,1,8
336,296,64278,1,0
176,328,64489,6,0,B|128:304|80:320,1,96,4|0
56,336,64803,1,0
82,319,64908,2,0,B|120:280|112:232,1,96,8|0
24,80,65328,1,0
104,136,65538,1,0
200,128,65747,1,8
272,64,65957,5,0
296,48,66062,1,0
324,40,66167,2,0,B|376:32|416:64,1,96
464,168,66587,1,8
392,232,66796,1,0
368,248,66901,1,0
340,256,67006,2,0,B|288:264|248:232,1,96
200,128,67426,1,8
120,72,67636,1,0
32,112,67845,5,0
76,224,68055,1,0
104,216,68160,1,0
128,200,68265,2,0,B|160:156|152:108,1,96,8|0
0,184,68685,2,0,B|-32:256|32:324|96:304,1,192,0|8
200,260,69314,5,0
228,252,69419,1,0
256,256,69524,1,8
488,352,69943,1,8
456,104,70363,1,8
400,240,70573,1,0
400,240,70782,1,8
136,352,71202,6,0,B|80:360|48:312,1,96,4|0
36,292,71517,1,0
28,264,71622,2,0,B|20:212|60:168,1,96,8|0
96,48,72041,1,0
176,104,72251,1,0
184,200,72461,1,8
224,288,72671,5,0
240,312,72775,1,0
264,328,72880,1,0
304,240,73090,1,0
320,216,73195,1,0
344,200,73300,2,0,B|392:176|440:200,1,96,8|0
356,324,73719,2,0,B|312:352|264:328,1,96
208,248,74139,1,8
152,168,74349,5,0
128,152,74454,1,0
100,144,74559,1,0
92,288,74768,1,0
108,264,74873,1,0
116,236,74978,2,0,B|124:184|100:144,1,96,8|0
8,296,75398,2,0,B|12:360|92:400|156:348,1,192,0|8
232,288,76027,5,0
256,272,76132,1,0
284,264,76237,2,0,B|336:256|376:288,1,96
480,336,76657,2,0,B|440:304|440:248,1,96,8|0
512,88,77076,1,0
444,156,77286,1,0
280,200,77496,1,8
348,132,77706,1,0
320,288,77915,6,0,B|272:312|224:280,1,96,4|0
208,264,78230,1,0
192,240,78335,2,0,B|172:192|196:148,1,96,8|0
336,32,78754,1,0
256,88,78964,1,0
228,96,79069,1,0
200,96,79174,2,0,B|152:96|112:56,1,96,8|0
152,168,79594,5,0
152,264,79803,1,0
144,292,79908,1,0
128,316,80013,2,0,B|96:360|48:368,1,96,8|0
88,208,80433,2,0,B|128:160|220:168|236:252,1,192,0|8
280,336,81062,1,0
368,372,81272,5,0
456,336,81482,1,0
472,312,81587,1,0
480,284,81692,2,0,B|488:232|464:192,1,96,8|0
344,72,82111,2,0,B|312:168|368:256,1,192,0|8
280,328,82740,5,0
252,336,82845,1,0
224,332,82950,1,8
16,192,83370,1,8
240,80,83789,1,8
160,200,83999,1,0
160,200,84209,1,8
416,260,84629,5,4
400,284,84733,1,0
380,304,84838,1,0
356,320,84943,1,0
328,328,85048,2,0,B|276:344|232:320,1,96,8|0
74,252,85468,5,4
90,228,85572,1,0
110,208,85677,1,0
134,192,85782,1,0
162,184,85887,2,0,B|214:168|258:192,1,96,8|0
344,288,86307,5,8
191,306,86517,1,8
128,167,86726,1,8
241,63,86936,1,8
374,138,87146,1,8
256,192,87356,1,0
256,192,87461,1,0
256,192,87566,1,4
