osu file format v9

[General]
AudioFilename: Taiyou Iwaku Moeyo Chaos (TV Size).mp3
AudioLeadIn: 1750
PreviewTime: 57566
Countdown: 0
SampleSet: Soft
StackLeniency: 0.7
Mode: 0
LetterboxInBreaks: 0

[Editor]
DistanceSpacing: 1
BeatDivisor: 4
GridSize: 8

[Metadata]
Title:Taiyou Iwaku Moeyo Chaos (TV Size)
Artist:Ushirokara Haiyoritai G
Creator:wcx19911123
Version:Hard
Source:Haiyore! Nyaruko-san
Tags:opening Nyarlathotep Nyaruratohotepu Nyaruko Yasaka Mahiro Cthugha Kutugaa Kuko Hastur Hasuta Asumi Kana Kitamura Eri Matsuki Miyu Kugimiya Rie Otsubo Yuka STUDIO MAUSU MONACA DIVEII entertainment XEBEC

[Difficulty]
HPDrainRate:6
CircleSize:4
OverallDifficulty:6
ApproachRate:7
SliderMultiplier:1.6
SliderTickRate:1

[Events]
//Background and Video events
0,0,"Hard BG.jpg"
Video,400,"Taiyou Iwaku Moeyo Kaosu (TV Size).flv"
//Break Periods
//Storyboard Layer 0 (Background)
//Storyboard Layer 1 (Fail)
//Storyboard Layer 2 (Pass)
//Storyboard Layer 3 (Foreground)
//Storyboard Sound Samples
//Background Colour Transformations
3,100,163,162,255

[TimingPoints]
713,419.58041958042,4,2,1,80,1,0
4069,-100,4,2,1,70,0,0
10782,-100,4,2,1,65,0,0
54419,-100,4,2,1,70,0,0
57775,-100,4,2,1,80,0,1
70782,-100,4,2,1,70,0,1
71097,-100,4,2,1,70,0,0
71202,-100,4,2,1,80,0,1
84209,-100,4,2,1,70,0,1
84629,-100,4,2,1,80,0,1
85048,-100,4,2,1,70,0,1
85258,-100,4,2,1,80,0,1
85887,-100,4,2,1,70,0,1
86097,-100,4,2,1,80,0,1
87566,-100,4,2,1,80,0,0

[Colours]
Combo1 : 235,243,82
Combo2 : 169,182,181
Combo3 : 255,9,70

[HitObjects]
368,80,713,2,0,B|392:120,3,40,4|0|0|0
400,152,1132,2,0,B|408:192|384:232,1,80,2|0
304,280,1552,6,0,B|280:240,3,40,4|0|0|0
256,216,1971,2,0,B|224:192|176:200,1,80,2|0
104,232,2391,5,8
64,356,2601,1,8
168,280,2810,1,8
40,280,3020,1,8
144,356,3230,1,8
224,356,3440,2,0,B|264:356,2,40,0|0|8
32,64,4069,5,4
40,144,4279,2,0,B|48:184|84:208,1,80,0|8
164,216,4699,1,0
112,360,4908,1,0
120,280,5118,2,0,B|128:240|164:216,1,80,0|8
244,208,5538,1,0
192,64,5747,5,0
200,144,5957,2,0,B|208:184|244:208,1,80,0|8
324,216,6377,1,0
272,360,6586,1,0
280,280,6796,2,0,B|288:240|324:216,1,80,0|8
404,208,7216,1,0
456,64,7426,5,0
448,144,7636,2,0,B|440:184|404:208,1,80,0|8
324,216,8056,1,0
376,360,8265,1,0
368,280,8475,2,0,B|360:240|324:216,1,80,0|8
244,208,8895,1,0
176,288,9104,5,8
88,296,9314,1,8
20,240,9524,1,8
8,152,9733,1,8
44,72,9943,1,8
128,48,10153,2,0,B|168:48,2,40,0|0|8
176,288,10782,5,4
232,344,10992,2,0,B|272:360|312:352,1,80,0|8
376,304,11412,1,0
448,220,11622,1,0
448,220,11831,1,0
416,112,12041,1,8
416,112,12251,1,0
368,48,12461,5,0
288,40,12671,2,0,B|248:48|224:88,1,80,0|8
212,164,13090,1,0
296,224,13300,1,0
280,328,13510,1,0
296,224,13719,1,8
280,328,13929,1,0
208,360,14139,5,0
160,296,14349,2,0,B|160:256,2,40,0|0|8
96,344,14768,1,0
24,304,14978,2,0,B|0:248|24:184,1,120
48,156,15398,1,8
24,80,15608,1,0
76,20,15817,5,0
104,96,16027,2,0,B|144:104,2,40,0|0|8
48,156,16447,1,0
24,272,16657,1,0
88,320,16866,1,0
168,328,17076,1,8
244,300,17286,1,0
288,232,17496,5,4
272,152,17706,2,0,B|264:112|296:72,1,80,0|8
360,32,18125,1,0
456,88,18335,1,0
456,88,18545,1,0
416,192,18754,1,8
416,192,18964,1,0
464,256,19174,5,0
384,264,19384,2,0,B|344:264|312:304,1,80,0|8
288,376,19803,1,0
208,312,20013,1,0
224,208,20223,1,0
208,312,20433,1,8
224,208,20643,1,0
192,136,20852,5,0
160,64,21062,2,0,B|168:-8,2,40,0|0|8
112,128,21482,1,0
40,160,21692,2,0,B|0:216|16:280,1,120
24,312,22111,1,8
88,360,22321,1,0
96,280,22531,6,0,B|112:240,3,40
128,208,22950,2,0,B|152:168|192:160,1,80,8|0
248,264,23370,1,0
296,328,23580,1,0
376,344,23789,1,8
456,328,23999,1,0
504,264,24209,5,4
512,184,24419,2,0,B|512:144,2,40,0|0|8
440,216,24838,1,0
360,216,25048,2,0,B|296:200|264:144,1,120
256,108,25468,1,8
248,28,25678,2,0,B|204:32|184:72,1,80
184,152,26097,5,0
48,68,26307,2,0,B|92:72|112:112,1,80,8|0
112,192,26726,1,0
64,256,26936,2,0,B|24:256,2,40,0|0|8
104,328,27356,1,0
176,360,27566,6,0,B|240:376|296:352,1,120
328,332,27985,1,8
352,256,28195,1,0
224,248,28405,2,0,B|208:208|224:168,1,80
256,96,28824,1,8
320,48,29034,1,0
400,40,29244,5,0
496,80,29454,2,0,B|496:40,2,40
496,192,29873,1,0
392,136,30083,2,0,B|304:112|240:176,1,160,2|8
168,368,30922,5,4
88,344,31132,2,0,B|56:320|56:272,1,80,0|8
64,192,31552,1,0
24,88,31761,1,0
24,88,31971,1,0
128,128,32181,1,8
128,128,32391,1,0
176,64,32601,5,0
208,136,32810,2,0,B|232:176|280:184,1,80,0|8
352,176,33230,1,0
440,120,33440,1,0
456,16,33650,1,0
440,120,33859,1,8
456,16,34069,1,0
388,60,34279,5,0
312,88,34489,2,0,B|264:72,2,40,0|0|8
364,148,34908,1,0
408,216,35118,2,0,B|432:272|416:336,1,120
396,368,35538,1,8
256,152,35957,5,0
184,120,36167,2,0,B|144:104|104:128,1,80,0|8
52,184,36587,1,0
40,304,36796,1,0
96,248,37006,1,0
176,232,37216,1,8
256,248,37426,1,0
320,296,37636,5,4
368,360,37845,2,0,B|404:336|400:288,1,80,0|8
356,224,38265,1,0
440,160,38475,1,0
440,160,38685,1,0
424,56,38894,1,8
424,56,39104,1,0
360,104,39314,5,0
296,56,39524,2,0,B|264:32|216:40,1,80,0|8
144,64,39943,1,0
80,144,40153,1,0
136,232,40363,1,0
80,144,40573,1,8
136,232,40783,1,0
208,264,40992,5,0
288,256,41202,2,0,B|320:296,2,40,0|0|8
240,192,41622,1,0
160,192,41831,2,0,B|96:192|56:248,1,120
44,284,42251,1,8
288,360,42671,5,0
360,328,42880,2,0,B|400:328,2,40,0|0|8
296,280,43300,1,0
160,256,43510,1,0
232,224,43719,1,0
280,160,43929,1,8
288,80,44139,1,0
256,8,44349,5,4
208,72,44559,2,0,B|176:104|136:104,1,80,0|8
40,72,44978,1,0
72,144,45188,2,0,B|96:200|80:264,1,120
60,296,45608,1,8
8,356,45817,1,0
0,192,46237,5,2
208,280,46657,1,2
264,64,47076,1,2
328,16,47286,2,0,B|368:0|408:16,1,80,8|0
472,64,47706,5,0
480,144,47915,1,0
432,208,48125,2,0,B|400:240|360:240,1,80,8|0
277,160,48545,2,0,B|333:176|361:240,1,120
364,280,48964,1,8
336,356,49174,1,0
200,184,49594,6,0,B|200:144,2,40,0|0|8
200,264,50013,1,0
136,360,50223,1,0
56,344,50433,1,0
8,280,50643,1,8
8,200,50852,1,0
52,132,51062,6,0,B|96:80|160:88,1,120,4|0
174,164,51482,2,0,B|150:132|158:84,1,80,8|0
208,24,51901,1,0
288,16,52111,1,0
360,48,52321,1,8
408,112,52531,2,0,B|424:152|416:192,1,80
352,272,52950,6,0,B|316:248|312:204,2,80,0|8|0
424,304,53580,1,0
504,296,53789,1,0
464,168,53999,2,0,B|416:168|392:200,1,80,8|0
352,272,54419,5,8
48,168,54838,2,0,B|96:168|120:200,1,80,0|8
160,272,55258,1,8
256,24,55678,2,0,B|256:104,1,80,0|8
256,184,56097,5,8
256,264,56307,1,0
188,304,56517,1,0
256,344,56726,1,0
324,304,56936,1,0
324,224,57146,2,0,B|324:184,2,40,0|0|8
128,360,57775,6,0,B|88:368|56:336,1,80,4|0
16,264,58195,1,8
24,184,58405,1,0
72,32,58615,2,0,B|112:56|112:104,1,80
104,176,59034,1,8
24,352,59454,5,0
80,296,59664,2,0,B|80:256,2,40,0|0|8
136,352,60083,1,0
216,368,60293,1,0
296,352,60503,1,0
344,288,60713,1,8
256,32,61132,6,0,B|216:32|192:72,1,80
176,152,61552,1,8
208,224,61761,1,0
176,360,61971,2,0,B|200:272|280:248,1,160,0|8
360,240,62601,1,0
440,224,62810,5,0
496,168,63020,1,0
496,88,63230,2,0,B|496:48|464:16,1,80,8|0
344,40,63650,1,0
336,120,63859,1,0
400,168,64069,1,8
408,88,64279,1,0
272,72,64489,6,0,B|232:72|200:104,1,80,4|0
168,176,64908,1,8
168,256,65118,1,0
272,360,65328,2,0,B|304:328|304:280,1,80
296,208,65747,1,8
128,32,66167,5,0
64,80,66377,2,0,B|24:80,2,40,0|0|8
136,112,66796,1,0
184,176,67006,1,0
192,256,67216,1,0
160,328,67426,2,0,B|136:360|88:368,2,80,8|0|0
192,216,68055,5,0
224,144,68265,1,8
296,112,68475,1,0
376,120,68685,2,0,B|456:136|488:224,1,160,0|8
488,304,69314,1,0
440,368,69524,5,8
248,344,69943,1,8
368,192,70363,1,8
352,300,70573,1,0
352,300,70782,1,8
104,360,71202,6,0,B|64:344|48:304,1,80,4|0
28,228,71622,1,8
48,152,71831,1,0
120,56,72041,2,0,B|128:104|168:120,1,80
240,144,72461,1,8
440,88,72880,5,0
440,168,73090,2,0,B|432:216|392:232,1,80,0|8
360,160,73510,1,0
512,184,73719,2,0,B|492:276|408:304,1,160,0|8
336,312,74349,1,0
264,280,74559,5,0
200,160,74768,1,0
192,240,74978,2,0,B|184:280|144:304,1,80,8|0
120,144,75398,2,0,B|132:88|196:56|248:96,1,160,0|8
200,352,76237,6,0,B|160:368|120:352,1,80
48,320,76657,1,8
16,248,76866,1,0
32,112,77076,1,0
64,184,77286,1,0
128,232,77496,1,8
208,240,77706,1,0
280,208,77915,6,0,B|320:184|328:144,1,80,4|0
328,64,78335,1,8
272,8,78545,1,0
327,146,78754,2,0,B|372:148|400:108,1,80
432,40,79174,1,8
496,240,79594,6,0,B|488:288|456:312,1,80
384,336,80013,1,8
312,304,80223,1,0
184,312,80433,2,0,B|272:304|312:224,1,160,0|8
324,148,81062,1,0
304,72,81272,5,0
240,24,81482,2,0,B|200:16|160:40,2,80,0|8|0
324,148,82111,2,0,B|288:224|200:240,1,160,0|8
120,232,82740,1,0
56,184,82950,5,8
136,8,83370,1,8
248,164,83789,1,8
148,120,83999,1,0
148,120,84209,1,8
88,304,84629,6,0,B|120:336,3,40,4|0|0|0
152,352,85048,2,0,B|192:368|232:344,1,80,8|0
264,256,85468,6,0,B|280:216,3,40,4|0|0|0
296,184,85887,2,0,B|320:144|360:144,1,80,8|0
464,192,86307,5,8
464,320,86517,1,8
388,216,86726,1,8
512,256,86936,1,8
388,296,87146,1,8
312,320,87356,2,0,B|272:320,2,40,0|0|4
