osu file format v9

[General]
AudioFilename: Taiyou Iwaku Moeyo Chaos (TV Size).mp3
AudioLeadIn: 1750
PreviewTime: 57566
Countdown: 0
SampleSet: Soft
StackLeniency: 0.7
Mode: 0
LetterboxInBreaks: 0

[Editor]
DistanceSpacing: 1.1
BeatDivisor: 4
GridSize: 8

[Metadata]
Title:Taiyou Iwaku Moeyo Chaos (TV Size)
Artist:Ushirokara Haiyoritai G
Creator:wcx19911123
Version:Easy
Source:Haiyore! Nyaruko-san
Tags:opening Nyarlathotep Nyaruratohotepu Nyaruko Yasaka Mahiro Cthugha Kutugaa Kuko Hastur Hasuta Asumi Kana Kitamura Eri Matsuki Miyu Kugimiya Rie Otsubo Yuka STUDIO MAUSU MONACA DIVEII entertainment XEBEC

[Difficulty]
HPDrainRate:2
CircleSize:3
OverallDifficulty:2
ApproachRate:3
SliderMultiplier:0.8
SliderTickRate:1

[Events]
//Background and Video events
0,0,"Easy BG.jpg"
Video,400,"Taiyou Iwaku Moeyo Kaosu (TV Size).flv"
//Break Periods
//Storyboard Layer 0 (Background)
//Storyboard Layer 1 (Fail)
//Storyboard Layer 2 (Pass)
//Storyboard Layer 3 (Foreground)
//Storyboard Sound Samples
//Background Colour Transformations
3,100,163,162,255

[TimingPoints]
713,419.58041958042,4,2,1,80,1,0
4069,-100,4,2,1,70,0,0
10782,-100,4,2,1,65,0,0
11202,-100,4,2,2,65,0,0
11622,-100,4,2,1,65,0,0
12880,-100,4,2,2,65,0,0
13300,-100,4,2,1,65,0,0
18754,-100,4,2,2,65,0,0
19174,-100,4,2,1,65,0,0
22111,-100,4,2,2,65,0,0
22531,-100,4,2,1,65,0,0
25468,-100,4,2,2,65,0,0
25678,-100,4,2,1,65,0,0
27985,-100,4,2,2,65,0,0
28405,-100,4,2,1,65,0,0
30503,-100,4,2,2,65,0,0
30922,-100,4,2,1,65,0,0
33859,-100,4,2,2,65,0,0
34069,-100,4,2,1,65,0,0
40573,-100,4,2,2,65,0,0
40782,-100,4,2,1,65,0,0
45608,-100,4,2,2,65,0,0
45817,-100,4,2,1,65,0,0
48964,-100,4,2,2,65,0,0
49174,-100,4,2,1,65,0,0
52321,-100,4,2,2,65,0,0
52531,-100,4,2,1,65,0,0
54419,-100,4,2,1,70,0,0
57775,-100,4,2,1,80,0,1
59873,-100,4,2,2,80,0,1
60293,-100,4,2,1,80,0,1
63230,-100,4,2,2,80,0,1
63440,-100,4,2,1,80,0,1
66587,-100,4,2,2,80,0,1
67006,-100,4,2,1,80,0,1
70782,-100,4,2,1,70,0,1
71097,-100,4,2,1,70,0,0
71202,-100,4,2,1,80,0,1
73300,-100,4,2,2,80,0,1
73719,-100,4,2,1,80,0,1
76657,-100,4,2,2,80,0,1
76866,-100,4,2,1,80,0,1
80013,-100,4,2,2,80,0,1
80433,-100,4,2,1,80,0,1
84209,-100,4,2,1,70,0,1
84629,-100,4,2,1,80,0,1
85048,-100,4,2,1,70,0,1
85468,-100,4,2,1,80,0,1
85887,-100,4,2,1,70,0,1
86307,-100,4,2,1,80,0,1
87566,-100,4,2,1,80,0,0

[Colours]
Combo1 : 235,243,82
Combo2 : 169,182,181
Combo3 : 255,9,70

[HitObjects]
88,272,713,2,0,B|112:312|152:320,1,80,4|2
200,248,1552,2,0,B|224:216|272:208,1,80,4|2
352,232,2391,6,0,B|336:272|352:312,2,80,8|8|8
400,160,3650,1,8
480,128,4069,5,4
344,40,4908,1,2
232,152,5747,1,2
96,64,6586,1,2
40,216,7426,5,2
136,344,8265,1,2
296,344,9104,2,0,B|376:344,2,80,8|8|8
216,312,10363,1,8
168,240,10782,6,0,B|136:160|184:64|272:56,1,240,4|8
344,96,12461,2,0,B|376:176|328:272|240:280,1,240,0|8
168,240,14139,5,0
80,232,14559,2,0,B|68:284|120:344|180:328,1,160,8|8
248,280,15817,1,0
272,200,16237,1,8
336,144,16657,2,0,B|416:144,1,80,0|8
488,192,17496,5,4
488,280,17915,2,0,B|464:360|352:392|280:336,1,240,8|0
248,264,19594,1,8
240,176,20013,2,0,B|240:96,1,80,0|8
296,32,20852,5,0
352,96,21272,1,8
344,184,21692,2,0,B|296:256|200:248,1,160
128,208,22950,1,8
80,136,23370,2,0,B|80:56,2,80,0|8|4
40,216,24629,5,8
72,296,25048,2,0,B|104:352|168:360,2,120,0|0|8
40,216,26726,1,0
48,128,27146,1,8
96,56,27566,6,0,B|168:8|272:24|304:112,1,240,0|8
304,192,29244,1,0
336,272,29664,1,0
416,304,30083,2,0,B|496:280|520:192,1,160,2|4
488,112,31342,5,8
424,56,31761,2,0,B|344:56,1,80,0|8
256,56,32601,1,0
184,104,33020,1,8
152,184,33440,2,0,B|144:248|184:296,2,120,0|0|8
184,104,35118,5,0
256,56,35538,1,8
344,56,35957,2,0,B|424:56,2,80,0|8|0
272,104,37216,1,8
240,184,37636,5,4
272,264,38055,2,0,B|320:336|408:336,1,160,8|8
472,280,39314,1,0
392,248,39733,1,8
344,176,40153,2,0,B|320:112|352:48,2,120,0|0|8
312,256,41831,6,0,B|296:296|248:304,1,80,0|8
164,304,42671,1,0
88,264,43090,1,8
56,184,43510,2,0,B|56:104,1,80,0|8
112,36,44349,6,0,B|144:60|144:108,1,80,4|8
144,192,45188,2,0,B|144:264|200:296,1,120
280,272,46237,2,0,B|288:312|264:348,2,80,2|2|2
272,232,47286,2,0,B|256:192|272:152,1,80,8|0
328,88,48125,5,8
416,80,48545,2,0,B|480:88|512:152,2,120,0|0|8
380,160,50223,1,0
304,200,50643,2,0,B|216:200,2,80,8|4|8
376,248,51901,6,0,B|384:312|440:352,2,120,0|0|8
368,160,53580,2,0,B|360:120|320:88,1,80,0|8
240,80,54419,5,8
96,152,55258,1,8
48,304,56097,1,8
120,352,56517,1,0
208,352,56936,2,0,B|248:344|280:312,1,80,0|8
360,344,57775,6,0,B|368:296|344:264,1,80,4|8
276,216,58615,1,0
192,208,59034,2,0,B|128:208|80:256,2,120,8|0|0
276,216,60713,1,8
360,240,61132,6,0,B|400:240|440:216,1,80,0|8
480,144,61971,1,0
472,56,62391,1,8
392,24,62810,2,0,B|328:8|280:48,2,120,0|0|8
472,56,64489,6,0,B|456:96|412:108,1,80,4|8
328,120,65328,1,0
248,152,65747,2,0,B|200:192|200:264,2,120,8|0|0
328,120,67426,1,8
400,168,67845,5,0
408,256,68265,1,8
360,328,68685,2,0,B|328:360|288:360,1,80,0|8
204,340,69524,1,8
144,280,69943,1,8
136,192,70363,2,0,B|136:112,1,80,8|8
88,40,71202,6,0,B|48:64|48:112,1,80,4|8
64,192,72041,1,0
144,224,72461,2,0,B|208:232|256:192,2,120,8|0|0
64,192,74139,1,8
72,280,74559,6,0,B|80:328|120:344,1,80,0|8
200,360,75398,1,0
280,328,75817,1,8
312,248,76237,2,0,B|328:184|296:128,2,120,0|0|8
280,328,77915,6,0,B|240:312|228:268,1,80,4|8
224,184,78754,1,0
288,128,79174,2,0,B|344:96|408:128,2,120,8|0|0
224,184,80852,1,8
192,264,81272,5,0
240,336,81692,2,0,B|312:376|400:344,1,160,8|8
456,288,82950,1,8
464,200,83370,1,8
432,120,83789,2,0,B|408:88|360:80,1,80,8|8
312,152,84629,6,0,B|280:192|240:192,1,80,4|8
168,232,85468,2,0,B|149:184|169:149,1,80,4|8
168,68,86307,6,0,B|218:75|238:110,2,80,8|8|8
88,104,87566,1,4
