osu file format v9

[General]
AudioFilename: Taiyou Iwaku Moeyo Kaosu (TV Size).mp3
AudioLeadIn: 1500
PreviewTime: 57297
Countdown: 0
SampleSet: Soft
StackLeniency: 0.7
Mode: 0
LetterboxInBreaks: 0

[Editor]
DistanceSpacing: 1
BeatDivisor: 4
GridSize: 4

[Metadata]
Title:Taiyou Iwaku Moeyo Chaos (TV Size)
Artist:Ushirokara Haiyoritai G
Creator:Kawayi Rika
Version:Rika
Source:Haiyore! Nyaruko-san
Tags:LKs Scorpiour No_Gu KanaRin opening Nyaruko

[Difficulty]
HPDrainRate:7
CircleSize:4
OverallDifficulty:7
ApproachRate:8
SliderMultiplier:2.16
SliderTickRate:1

[Events]
//Background and Video events
Video,64,"Taiyou Iwaku Moeyo Kaosu (TV Size).flv"
0,0,"BG.jpg"
//Break Periods
//Storyboard Layer 0 (Background)
//Storyboard Layer 1 (Fail)
//Storyboard Layer 2 (Pass)
//Storyboard Layer 3 (Foreground)
//Storyboard Sound Samples
//Background Colour Transformations
3,100,163,162,255

[TimingPoints]
444,419.58041958042,4,2,1,60,1,0
10513,-100,4,2,1,65,0,0
23940,-100,4,2,1,70,0,0
44080,-100,4,2,1,75,0,0
57506,-100,4,2,1,80,0,1
70828,-100,4,2,1,80,0,0
70933,-100,4,2,1,85,0,1
87192,-100,4,2,1,80,0,0
87297,-100,4,2,1,90,0,1
87402,-100,4,2,1,90,0,0

[Colours]
Combo1 : 251,49,49
Combo2 : 222,243,27
Combo3 : 158,158,158

[HitObjects]
112,224,444,1,4
136,248,548,1,0
168,260,653,1,0
200,260,758,1,0
232,248,863,2,0,B|282:221|343:230,1,108,2|0
496,254,1284,5,4
464,250,1388,1,0
437,228,1493,1,0
421,200,1598,1,0
420,166,1703,2,0,B|389:117|392:64,1,108,2|0
256,24,2122,5,8
120,64,2332,1,8
60,192,2541,1,8
120,320,2751,1,8
256,360,2961,1,8
256,192,3171,1,0
256,192,3276,1,0
256,192,3381,1,8
392,320,3800,6,0,B|340:292|320:240,1,108,4|0
344,220,4115,1,0
376,208,4220,2,0,B|432:184|451:129,1,108,8|0
256,48,4639,2,0,B|200:72|180:126,1,108
160,148,4954,1,0
172,180,5059,2,0,B|216:212|228:268,1,108,8|0
64,364,5478,6,0,B|20:332|8:276,1,108,0|0
8,244,5793,1,0
20,216,5898,1,8
116,268,6108,1,0
316,209,6318,2,0,B|264:225|228:269,1,108,0|0
212,296,6632,1,0
208,328,6737,1,8
316,328,6947,1,0
464,364,7157,6,0,B|421:325|408:272,1,108,0|0
420,244,7471,1,0
444,224,7576,2,0,B|487:185|500:132,1,108,8|0
336,40,7996,2,0,B|293:79|280:132,1,108,0|0
284,164,8311,1,0
300,192,8416,1,8
392,132,8625,1,0
336,40,8835,5,8
184,92,9045,1,8
32,40,9255,1,8
100,192,9464,1,8
32,344,9674,1,8
184,292,9884,1,0
184,292,9989,1,0
184,292,10094,1,8
328,292,10304,5,0
328,292,10409,1,0
328,292,10513,2,0,B|436:292,1,108,4|0
480,192,10933,1,8
376,160,11143,1,0
344,56,11353,2,0,B|288:76|267:127,1,108
164,160,11772,1,8
56,144,11982,5,0
56,144,12087,1,0
56,144,12192,2,0,B|48:200|92:240,1,108
192,288,12611,2,0,B|100:344,1,108,8|0
319,288,13031,2,0,B|412:344,1,108
420,240,13450,1,8
420,56,13660,1,0
476,152,13870,1,0
368,152,14080,5,0
344,128,14185,1,0
312,116,14290,2,0,B|256:100|204:116,1,108,8|0
60,256,14709,2,0,B|120:352,1,108
148,376,15024,1,0
180,376,15129,2,0,B|224:344|284:348,1,108,8|0
456,232,15548,2,0,B|380:316,1,108
392,344,15863,1,0
392,344,15968,2,0,B|360:232,1,108,8|0
344,132,16388,5,0
80,68,16597,1,8
228,52,16807,1,8
196,148,17017,1,8
196,148,17122,1,0
196,148,17227,6,0,B|204:208|168:252,1,108,4|0
148,272,17541,1,0
148,304,17646,2,0,B|256:336,1,108,8|0
360,340,18066,1,0
352,244,18276,1,0
452,284,18485,1,8
352,244,18695,1,0
450,82,18905,6,0,B|390:90|360:136,1,108
328,136,19220,1,0
300,152,19325,2,0,B|240:144|209:98,1,108,8|0
304,44,19744,1,0
156,192,19954,1,0
209,285,20164,2,0,B|240:240|300:232,1,108,8|0
400,192,20583,1,0
480,12,20793,5,0
480,12,20898,1,0
480,12,21003,2,0,B|480:124,1,108,8|0
480,264,21423,2,0,B|480:372,1,108
452,356,21737,1,0
424,340,21842,2,0,B|328:284,1,108,8|0
182,285,22262,5,0
256,364,22471,1,0
182,285,22681,2,0,B|254:197,1,108,8|0
168,128,23101,2,0,B|109:112|81:64,1,108,0|8
108,44,23416,1,0
108,44,23520,2,0,B|24:120,1,108,8|8
72,296,23940,6,0,B|124:324|152:376,1,108,4|0
180,372,24255,1,0
212,372,24360,2,0,B|320:372,1,108,8|0
472,220,24779,2,0,B|404:304,1,108
420,332,25094,1,0
420,332,25199,2,0,B|392:276|348:256,1,108,8|0
256,196,25618,1,0
256,88,25828,5,0
256,88,25933,1,0
256,88,26038,1,8
160,136,26248,1,0
0,19,26457,2,0,B|56:112,1,108
88,216,26876,2,0,B|96:280|48:316,1,108,8|0
256,288,27297,5,0
272,316,27402,1,0
300,332,27506,1,0
332,336,27611,1,0
364,324,27716,2,0,B|468:260,1,108,8|0
460,160,28136,2,0,B|432:108|376:92,1,108
352,112,28450,1,0
324,132,28555,2,0,B|216:196,1,108,8|0
148,116,28975,5,2
44,88,29185,1,2
44,88,29290,1,0
44,88,29395,1,2
104,248,29604,1,2
256,332,29814,2,0,B|376:308|416:200,1,216,2|8
416,32,30444,2,0,B|308:32,1,108,0|4
204,32,30863,5,0
172,40,30968,1,0
148,60,31073,1,8
64,256,31283,1,0
92,152,31492,2,0,B|144:180|208:168,1,108
461,52,31912,2,0,B|401:64|372:108,1,108,8|0
264,88,32332,5,0
304,188,32541,1,0
412,208,32751,2,0,B|400:268|340:288,1,108,8|0
59,286,33171,2,0,B|167:286,1,108
256,348,33590,1,8
167,286,33800,1,8
35,119,34010,6,0,B|112:196,1,108,0|0
144,192,34325,1,0
172,176,34430,2,0,B|224:196|280:172,1,108,8|0
410,5,34849,2,0,B|354:33|348:88,1,108
384,188,35269,1,8
472,248,35478,1,0
472,248,35688,6,0,B|384:320,1,108
404,344,36003,1,0
404,344,36108,2,0,B|380:292|324:272,1,108,8|0
256,352,36527,1,0
256,192,36737,1,8
186,272,36947,2,0,B|132:252|108:200,1,108,8|8
140,28,37367,5,4
202,116,37576,2,0,B|310:116,1,108,0|8
372,28,37996,1,0
256,192,38206,5,0
496,192,38416,1,0
372,28,38625,1,8
496,192,38835,1,0
376,192,39045,6,0,B|376:304,1,108
408,308,39360,1,0
408,308,39464,2,0,B|296:364,1,108,8|0
55,256,39884,2,0,B|96:220|156:224,1,108
176,248,40199,1,0
204,264,40304,1,8
333,221,40513,2,0,B|236:268,1,108,8|0
148,100,40933,5,0
148,100,41038,1,0
148,100,41143,2,0,B|188:60|248:48,1,108,8|0
422,151,41562,2,0,B|364:136|344:84,1,108
312,96,41877,1,0
300,128,41982,2,0,B|260:168|200:180,1,108,8|0
24,124,42402,5,0
32,156,42506,1,0
52,180,42611,1,0
12,348,42821,2,0,B|96:280,1,108,8|0
288,280,43241,1,0
192,328,43450,1,8
372,348,43660,1,8
416,248,43870,1,8
416,248,43975,1,0
416,248,44080,6,0,B|332:228|300:144,1,162,4|0
312,116,44499,2,0,B|420:116,1,108,8|0
42,44,44919,2,0,B|204:44,1,162,0|0
212,76,45339,2,0,B|152:88|120:148,1,108,8|0
136,168,45653,1,0
160,188,45758,1,0
28,352,45968,5,2
256,232,46388,1,2
484,352,46807,1,2
484,352,46912,1,0
484,352,47017,2,0,B|432:316|436:260,1,108,8|0
444,136,47437,6,0,B|344:76,1,108,0|0
320,80,47751,1,0
320,80,47856,2,0,B|256:168,1,108,8|0
100,316,48276,2,0,B|40:296|32:224,1,108
60,220,48590,1,0
92,216,48695,2,0,B|212:216,1,108,8|0
256,308,49115,1,0
404,272,49325,5,2
404,272,49430,1,0
404,272,49534,1,8
480,144,49744,1,2
197,76,49954,2,0,B|268:40|356:56,1,162,2|0
372,28,50374,2,0,B|308:132,1,108,8|0
256,192,50793,6,0,B|204:216|150:212,1,108,4|0
120,208,51108,1,0
120,208,51213,2,0,B|184:304,1,108,8|0
256,376,51632,1,0
456,300,51842,2,0,B|432:248|376:232,1,108,0|8
352,328,52262,1,0
256,276,52471,5,0
256,276,52576,1,0
256,276,52681,2,0,B|256:168,1,108,0|8
256,60,53101,1,0
152,36,53311,1,0
360,36,53520,1,0
108,124,53730,1,8
404,124,53940,1,0
256,192,54150,5,4
68,300,54569,1,2
172,264,54779,1,8
192,288,54884,1,0
212,312,54989,1,8
428,340,55409,1,2
492,256,55618,1,8
492,256,55723,1,0
492,256,55828,6,0,B|404:192,1,108,8|2
300,56,56248,1,2
136,104,56457,1,2
132,276,56667,2,0,B|151:256,7,27,2|0|0|0|2|0|0|0
164,248,57087,2,0,B|256:304,1,108,8|0
501,173,57506,6,0,B|424:208|392:296,1,162,4|0
424,304,57926,2,0,B|372:284|336:232,1,108,8|0
423,34,58346,2,0,B|393:115|316:150,1,162,0|0
310,120,58765,2,0,B|202:120,1,108,8|0
112,56,59185,5,0
56,252,59395,1,0
172,172,59604,1,8
116,364,59814,1,0
116,364,59919,1,0
116,364,60024,2,0,B|264:296,1,162
213,273,60444,2,0,B|329:325,1,108,8|0
416,284,60863,5,0
480,196,61073,1,0
480,196,61178,1,0
480,196,61283,1,8
348,28,61492,1,0
412,116,61702,2,0,B|252:116,1,162
222,68,62122,2,0,B|262:112|258:188,1,108,8|0
11,372,62541,6,0,B|128:260,1,162,0|0
80,232,62961,2,0,B|124:268|180:268,1,108,8|0
360,320,63381,1,2
256,348,63590,1,2
468,144,63800,1,8
440,248,64010,1,2
360,176,64220,6,0,B|268:96,1,108,4|0
248,104,64534,1,0
220,120,64639,2,0,B|160:120|124:76,1,108,8|0
45,361,65059,2,0,B|148:236,1,162
120,216,65478,2,0,B|208:276,1,108,8|0
492,220,65898,6,0,B|436:236|404:280,1,108
500,328,66318,1,8
404,280,66527,1,0
354,37,66737,2,0,B|496:116,1,162,0|0
456,80,67157,2,0,B|396:96|352:144,1,108,8|0
256,96,67576,5,0
256,96,67681,1,0
256,96,67786,2,0,B|148:96,1,108,0|8
92,192,68206,1,0
148,96,68416,2,0,B|216:200|144:304,1,216,0|8
256,332,69045,1,0
256,332,69150,1,0
256,332,69255,5,8
445,229,69464,2,0,B|364:300,1,108,0|8
316,156,69884,2,0,B|408:76,1,108,0|8
184,80,70304,1,0
184,80,70513,1,2
32,192,70723,5,0
32,192,70828,1,0
32,192,70933,2,0,B|112:220|164:304,1,162,4|0
196,256,71353,2,0,B|112:332,1,108,8|0
309,358,71772,2,0,B|256:380|204:356,1,108
316,256,72192,2,0,B|396:328,1,108,8|0
448,36,72611,6,0,B|484:76|484:136,1,108
460,156,72926,1,0
432,168,73031,2,0,B|374:183|345:228,1,108,8|0
264,156,73450,2,0,B|120:64,1,162
146,17,73870,2,0,B|138:73|90:113,1,108,8|0
128,284,74290,5,0
128,284,74395,1,0
128,284,74499,1,0
224,332,74709,2,0,B|264:292|332:288,1,108,8|0
400,364,75129,2,0,B|312:316|308:236,1,162
332,192,75548,2,0,B|440:192,1,108,8|0
308,52,75968,5,0
256,148,76178,1,0
204,52,76388,1,8
204,52,76493,1,0
204,52,76598,1,0
132,132,76807,2,0,B|172:164|172:164|200:224,1,108
380,132,77227,2,0,B|340:164|340:164|312:224,1,108,8|0
148,304,77646,5,4
256,320,77856,1,0
256,320,77961,1,0
256,320,78066,2,0,B|416:320,1,162,8|0
405,349,78485,2,0,B|453:245,1,108
405,35,78905,2,0,B|453:139,1,108,8|0
360,192,79325,6,0,B|252:192,1,108
220,192,79639,1,0
188,192,79744,2,0,B|184:132|140:100,1,108,8|0
158,37,80164,2,0,B|150:121|66:181,1,162
56,196,80583,2,0,B|60:256|104:288,1,108,8|0
409,239,81003,6,0,B|252:292,1,162
231,268,81423,2,0,B|279:304|283:360,1,108,8|0
182,107,81842,2,0,B|336:56,1,162
330,23,82262,2,0,B|334:79|382:115,1,108,8|0
456,192,82681,5,8
256,192,83101,1,8
56,192,83520,1,8
212,336,83730,1,0
256,344,83835,1,0
300,336,83940,2,0,B|352:356|408:336,1,108,2|0
310,104,84360,5,4
338,136,84464,1,0
346,180,84569,1,0
338,224,84674,1,0
310,256,84779,2,0,B|202:256,1,108,8|0
202,256,85199,5,4
174,224,85303,1,0
166,180,85408,1,0
174,136,85513,1,0
202,104,85618,2,0,B|310:104,1,108,8|0
256,24,86038,5,8
392,64,86248,1,8
452,192,86457,1,8
392,320,86667,1,8
256,360,86877,1,8
256,192,87087,1,0
256,192,87192,1,0
256,192,87297,1,4
