osu file format v12

[General]
AudioFilename: Koi wa Chaos no Shimobenari (TV Size).mp3
AudioLeadIn: 2000
PreviewTime: 393
Countdown: 0
SampleSet: Soft
StackLeniency: 0.7
Mode: 3
LetterboxInBreaks: 0
SpecialStyle: 0

[Editor]
DistanceSpacing: 0.9
BeatDivisor: 4
GridSize: 16

[Metadata]
Title:Koi wa Chaos no Shimobenari (TV Size)
TitleUnicode:恋は浑沌の隷也 (TV Size)
Artist:Ushirokara Haiyoritai G
ArtistUnicode:後ろから這いより隊G
Creator:Lieselotte
Version:LV.5
Source:Haiyore! Nyaruko-san W
Tags:opening nyaruko kuko hasuta asumi kana matsuki miyu kugimiya rie yuka otsubo \(・ω・\)san値! (/・ω・)/ピンチ!
BeatmapID:273800
BeatmapSetID:104030

[Difficulty]
HPDrainRate:6
CircleSize:7
OverallDifficulty:6
ApproachRate:5
SliderMultiplier:1.9
SliderTickRate:1

[Events]
//Background and Video events
0,0,"BG.jpg",0,0
Video,0,"Koi wa Chaos no Shimobenari (TV Size).avi"
//Break Periods
//Storyboard Layer 0 (Background)
//Storyboard Layer 1 (Fail)
//Storyboard Layer 2 (Pass)
//Storyboard Layer 3 (Foreground)
//Storyboard Sound Samples
//Background Colour Transformations
3,100,0,0,0

[TimingPoints]
393,379.746835443038,4,2,0,30,1,0

[Colours]
Combo1 : 5,5,240
Combo2 : 5,240,5

[HitObjects]
475,192,393,1,0,0:0:0:0:
36,192,393,1,0,0:0:0:0:
36,192,772,1,0,0:0:0:0:
475,192,772,1,0,0:0:0:0:
402,192,1152,1,0,0:0:0:0:
329,192,1247,1,0,0:0:0:0:
109,192,1437,1,0,0:0:0:0:
402,192,1722,128,0,2101:0:0:0:0:
109,192,2101,1,0,0:0:0:0:
109,192,2291,1,0,0:0:0:0:
402,192,2481,1,0,0:0:0:0:
402,192,2671,1,0,0:0:0:0:
475,192,3051,1,0,0:0:0:0:
36,192,3051,1,0,0:0:0:0:
182,192,3430,1,0,0:0:0:0:
329,192,3810,1,0,0:0:0:0:
402,192,3810,1,0,0:0:0:0:
182,192,4190,1,0,0:0:0:0:
329,192,4570,1,0,0:0:0:0:
402,192,4570,1,0,0:0:0:0:
109,192,4949,1,0,0:0:0:0:
402,192,5329,1,0,0:0:0:0:
475,192,5329,1,0,0:0:0:0:
109,192,5709,1,0,0:0:0:0:
402,192,6089,1,0,0:0:0:0:
475,192,6089,1,0,0:0:0:0:
182,192,6468,1,0,0:0:0:0:
329,192,6848,1,0,0:0:0:0:
402,192,6848,1,0,0:0:0:0:
182,192,7228,1,0,0:0:0:0:
329,192,7608,1,0,0:0:0:0:
402,192,7608,1,0,0:0:0:0:
109,192,7987,1,0,0:0:0:0:
329,192,8367,1,0,0:0:0:0:
475,192,8367,1,0,0:0:0:0:
109,192,8747,1,0,0:0:0:0:
329,192,9127,1,0,0:0:0:0:
329,192,9317,1,0,0:0:0:0:
182,192,9506,1,0,0:0:0:0:
329,192,9886,1,0,0:0:0:0:
402,192,9886,1,0,0:0:0:0:
182,192,10266,1,0,0:0:0:0:
329,192,10646,1,0,0:0:0:0:
402,192,10646,1,0,0:0:0:0:
182,192,11025,1,0,0:0:0:0:
402,192,11405,1,0,0:0:0:0:
475,192,11405,1,0,0:0:0:0:
182,192,11785,1,0,0:0:0:0:
329,192,12165,1,0,0:0:0:0:
329,192,12355,1,0,0:0:0:0:
475,192,12544,1,0,0:0:0:0:
36,192,12544,1,0,0:0:0:0:
475,192,12924,1,0,0:0:0:0:
36,192,12924,1,0,0:0:0:0:
402,192,13304,1,0,0:0:0:0:
329,192,13399,1,0,0:0:0:0:
182,192,13589,1,0,0:0:0:0:
329,192,13874,128,0,14253:0:0:0:0:
109,192,14253,1,0,0:0:0:0:
109,192,14443,1,0,0:0:0:0:
402,192,14633,1,0,0:0:0:0:
402,192,14823,1,0,0:0:0:0:
475,192,15203,1,0,0:0:0:0:
36,192,15203,1,0,0:0:0:0:
182,192,15582,1,0,0:0:0:0:
329,192,15962,1,0,0:0:0:0:
402,192,15962,1,0,0:0:0:0:
109,192,16342,1,0,0:0:0:0:
402,192,16722,1,0,0:0:0:0:
475,192,16722,1,0,0:0:0:0:
182,192,17101,1,0,0:0:0:0:
329,192,17481,1,0,0:0:0:0:
402,192,17481,1,0,0:0:0:0:
109,192,17861,1,0,0:0:0:0:
402,192,18241,1,0,0:0:0:0:
475,192,18241,1,0,0:0:0:0:
182,192,18620,1,0,0:0:0:0:
329,192,19000,1,0,0:0:0:0:
402,192,19000,1,0,0:0:0:0:
109,192,19380,1,0,0:0:0:0:
402,192,19760,1,0,0:0:0:0:
475,192,19760,1,0,0:0:0:0:
182,192,20139,1,0,0:0:0:0:
329,192,20519,1,0,0:0:0:0:
402,192,20519,1,0,0:0:0:0:
36,192,20899,1,0,0:0:0:0:
329,192,21279,1,0,0:0:0:0:
402,192,21279,1,0,0:0:0:0:
475,192,21279,1,0,0:0:0:0:
182,192,21658,1,0,0:0:0:0:
329,192,22038,1,0,0:0:0:0:
402,192,22038,1,0,0:0:0:0:
109,192,22418,1,0,0:0:0:0:
402,192,22798,1,0,0:0:0:0:
475,192,22798,1,0,0:0:0:0:
182,192,23177,1,0,0:0:0:0:
329,192,23557,1,0,0:0:0:0:
402,192,23557,1,0,0:0:0:0:
109,192,23937,1,0,0:0:0:0:
402,192,24317,1,0,0:0:0:0:
475,192,24317,1,0,0:0:0:0:
182,192,24696,1,0,0:0:0:0:
329,192,25076,1,0,0:0:0:0:
402,192,25076,1,0,0:0:0:0:
109,192,25456,1,0,0:0:0:0:
402,192,25836,1,0,0:0:0:0:
475,192,25836,1,0,0:0:0:0:
182,192,26215,1,0,0:0:0:0:
329,192,26595,1,0,0:0:0:0:
402,192,26595,1,0,0:0:0:0:
36,192,26975,1,0,0:0:0:0:
329,192,27355,1,0,0:0:0:0:
402,192,27355,1,0,0:0:0:0:
475,192,27355,1,0,0:0:0:0:
109,192,27734,1,0,0:0:0:0:
182,192,27924,1,0,0:0:0:0:
109,192,28114,1,0,0:0:0:0:
182,192,28304,1,0,0:0:0:0:
402,192,28494,1,0,0:0:0:0:
329,192,28684,1,0,0:0:0:0:
402,192,28874,1,0,0:0:0:0:
329,192,29063,1,0,0:0:0:0:
182,192,29253,1,0,0:0:0:0:
402,192,29633,1,0,0:0:0:0:
329,192,29823,1,0,0:0:0:0:
329,192,30393,1,0,0:0:0:0:
182,192,30772,1,0,0:0:0:0:
109,192,30962,1,0,0:0:0:0:
182,192,31152,1,0,0:0:0:0:
109,192,31342,1,0,0:0:0:0:
329,192,31532,1,0,0:0:0:0:
402,192,31722,1,0,0:0:0:0:
329,192,31911,1,0,0:0:0:0:
402,192,32101,1,0,0:0:0:0:
182,192,32291,128,0,32671:0:0:0:0:
182,192,32861,128,0,33620:0:0:0:0:
109,192,33810,1,0,0:0:0:0:
36,192,34000,1,0,0:0:0:0:
109,192,34190,1,0,0:0:0:0:
182,192,34380,1,0,0:0:0:0:
402,192,34570,1,0,0:0:0:0:
475,192,34760,1,0,0:0:0:0:
402,192,34949,1,0,0:0:0:0:
329,192,35139,1,0,0:0:0:0:
182,192,35329,1,0,0:0:0:0:
329,192,35709,1,0,0:0:0:0:
182,192,35899,1,0,0:0:0:0:
329,192,36468,1,0,0:0:0:0:
109,192,36848,1,0,0:0:0:0:
36,192,37038,1,0,0:0:0:0:
109,192,37228,1,0,0:0:0:0:
182,192,37418,1,0,0:0:0:0:
402,192,37608,1,0,0:0:0:0:
475,192,37798,1,0,0:0:0:0:
402,192,37987,1,0,0:0:0:0:
329,192,38177,1,0,0:0:0:0:
182,192,38367,128,0,39506:0:0:0:0:
329,192,39506,1,0,0:0:0:0:
182,192,39886,1,0,0:0:0:0:
329,192,40266,1,0,0:0:0:0:
402,192,40266,1,0,0:0:0:0:
109,192,40646,1,0,0:0:0:0:
402,192,41025,1,0,0:0:0:0:
475,192,41025,1,0,0:0:0:0:
182,192,41405,1,0,0:0:0:0:
329,192,41785,1,0,0:0:0:0:
402,192,41785,1,0,0:0:0:0:
109,192,42165,1,0,0:0:0:0:
402,192,42544,1,0,0:0:0:0:
475,192,42544,1,0,0:0:0:0:
182,192,42924,1,0,0:0:0:0:
329,192,43304,1,0,0:0:0:0:
402,192,43304,1,0,0:0:0:0:
109,192,43684,1,0,0:0:0:0:
402,192,44063,1,0,0:0:0:0:
475,192,44063,1,0,0:0:0:0:
182,192,44443,1,0,0:0:0:0:
329,192,44633,1,0,0:0:0:0:
109,192,44823,1,0,0:0:0:0:
402,192,45013,1,0,0:0:0:0:
182,192,45203,1,0,0:0:0:0:
329,192,45582,1,0,0:0:0:0:
475,192,45582,1,0,0:0:0:0:
182,192,45962,1,0,0:0:0:0:
329,192,46342,1,0,0:0:0:0:
402,192,46342,1,0,0:0:0:0:
109,192,46722,1,0,0:0:0:0:
402,192,47101,1,0,0:0:0:0:
475,192,47101,1,0,0:0:0:0:
182,192,47481,1,0,0:0:0:0:
329,192,47861,1,0,0:0:0:0:
402,192,47861,1,0,0:0:0:0:
109,192,48241,1,0,0:0:0:0:
402,192,48620,1,0,0:0:0:0:
475,192,48620,1,0,0:0:0:0:
182,192,49000,1,0,0:0:0:0:
329,192,49380,1,0,0:0:0:0:
402,192,49380,1,0,0:0:0:0:
109,192,49760,1,0,0:0:0:0:
402,192,50139,1,0,0:0:0:0:
475,192,50139,1,0,0:0:0:0:
182,192,50519,1,0,0:0:0:0:
329,192,50709,1,0,0:0:0:0:
109,192,50899,1,0,0:0:0:0:
402,192,51089,1,0,0:0:0:0:
182,192,51279,1,0,0:0:0:0:
475,192,51658,1,0,0:0:0:0:
36,192,51658,1,0,0:0:0:0:
329,192,52038,1,0,0:0:0:0:
182,192,52228,1,0,0:0:0:0:
329,192,52418,1,0,0:0:0:0:
182,192,52608,1,0,0:0:0:0:
329,192,52798,1,0,0:0:0:0:
182,192,52987,1,0,0:0:0:0:
36,192,53177,1,0,0:0:0:0:
402,192,53367,1,0,0:0:0:0:
329,192,53747,1,0,0:0:0:0:
182,192,53937,1,0,0:0:0:0:
36,192,54127,1,0,0:0:0:0:
182,192,54506,1,0,0:0:0:0:
329,192,54696,1,0,0:0:0:0:
182,192,54886,1,0,0:0:0:0:
402,192,55076,1,0,0:0:0:0:
109,192,55266,1,0,0:0:0:0:
402,192,55456,1,0,0:0:0:0:
109,192,55646,1,0,0:0:0:0:
402,192,55836,1,0,0:0:0:0:
109,192,56025,1,0,0:0:0:0:
475,192,56215,1,0,0:0:0:0:
329,192,56405,128,0,57639:0:0:0:0:
329,192,58114,1,0,0:0:0:0:
182,192,58304,1,0,0:0:0:0:
329,192,58494,1,0,0:0:0:0:
182,192,58684,1,0,0:0:0:0:
329,192,58874,1,0,0:0:0:0:
182,192,59063,1,0,0:0:0:0:
36,192,59253,1,0,0:0:0:0:
402,192,59443,1,0,0:0:0:0:
329,192,59823,1,0,0:0:0:0:
182,192,60013,1,0,0:0:0:0:
36,192,60203,1,0,0:0:0:0:
182,192,60582,1,0,0:0:0:0:
329,192,60772,1,0,0:0:0:0:
182,192,60962,1,0,0:0:0:0:
402,192,61152,1,0,0:0:0:0:
109,192,61342,1,0,0:0:0:0:
402,192,61532,1,0,0:0:0:0:
109,192,61722,1,0,0:0:0:0:
402,192,61911,1,0,0:0:0:0:
109,192,62101,1,0,0:0:0:0:
329,192,62291,1,0,0:0:0:0:
475,192,62481,1,0,0:0:0:0:
182,192,62861,1,0,0:0:0:0:
36,192,63051,1,0,0:0:0:0:
256,192,63241,128,0,64000:0:0:0:0:
329,192,64380,1,0,0:0:0:0:
182,192,64570,1,0,0:0:0:0:
329,192,64760,1,0,0:0:0:0:
182,192,64949,1,0,0:0:0:0:
475,192,65329,1,0,0:0:0:0:
36,192,65329,1,0,0:0:0:0:
402,192,65519,1,0,0:0:0:0:
109,192,65709,1,0,0:0:0:0:
402,192,65899,1,0,0:0:0:0:
109,192,66089,1,0,0:0:0:0:
402,192,66279,1,0,0:0:0:0:
109,192,66468,1,0,0:0:0:0:
475,192,66848,1,0,0:0:0:0:
36,192,66848,1,0,0:0:0:0:
475,192,67228,1,0,0:0:0:0:
36,192,67228,1,0,0:0:0:0:
109,192,67608,1,0,0:0:0:0:
402,192,67608,1,0,0:0:0:0:
329,192,67987,1,0,0:0:0:0:
182,192,68272,1,0,0:0:0:0:
329,192,68557,1,0,0:0:0:0:
402,192,68747,1,0,0:0:0:0:
109,192,68937,1,0,0:0:0:0:
402,192,69127,1,0,0:0:0:0:
109,192,69222,1,0,0:0:0:0:
402,192,69411,128,0,69791:0:0:0:0:
182,192,70076,1,0,0:0:0:0:
329,192,70266,1,0,0:0:0:0:
402,192,70456,1,0,0:0:0:0:
329,192,70646,1,0,0:0:0:0:
402,192,70836,1,0,0:0:0:0:
182,192,71025,1,0,0:0:0:0:
329,192,71215,1,0,0:0:0:0:
402,192,71405,1,0,0:0:0:0:
329,192,71595,1,0,0:0:0:0:
182,192,71975,1,0,0:0:0:0:
109,192,72165,1,0,0:0:0:0:
182,192,72355,1,0,0:0:0:0:
329,192,72544,1,0,0:0:0:0:
182,192,72734,1,0,0:0:0:0:
329,192,72924,1,0,0:0:0:0:
182,192,73114,1,0,0:0:0:0:
36,192,73304,1,0,0:0:0:0:
475,192,73304,1,0,0:0:0:0:
109,192,73684,1,0,0:0:0:0:
402,192,73684,1,0,0:0:0:0:
329,192,74063,1,0,0:0:0:0:
182,192,74348,1,0,0:0:0:0:
329,192,74633,1,0,0:0:0:0:
402,192,74823,1,0,0:0:0:0:
109,192,75013,1,0,0:0:0:0:
402,192,75203,1,0,0:0:0:0:
109,192,75298,1,0,0:0:0:0:
402,192,75487,128,0,75867:0:0:0:0:
109,192,76152,1,0,0:0:0:0:
329,192,76342,1,0,0:0:0:0:
402,192,76532,1,0,0:0:0:0:
329,192,76722,1,0,0:0:0:0:
402,192,76911,1,0,0:0:0:0:
182,192,77101,1,0,0:0:0:0:
329,192,77291,1,0,0:0:0:0:
402,192,77481,1,0,0:0:0:0:
329,192,77671,128,0,78051:0:0:0:0:
182,192,78051,1,0,0:0:0:0:
109,192,78241,1,0,0:0:0:0:
182,192,78430,128,0,79190:0:0:0:0:
329,192,78620,1,0,0:0:0:0:
402,192,79000,1,0,0:0:0:0:
329,192,79380,1,0,0:0:0:0:
182,192,79570,1,0,0:0:0:0:
329,192,79760,1,0,0:0:0:0:
182,192,79949,1,0,0:0:0:0:
329,192,80139,1,0,0:0:0:0:
109,192,80329,1,0,0:0:0:0:
402,192,80519,1,0,0:0:0:0:
109,192,80709,1,0,0:0:0:0:
402,192,80899,1,0,0:0:0:0:
182,192,81089,1,0,0:0:0:0:
329,192,81279,1,0,0:0:0:0:
182,192,81468,1,0,0:0:0:0:
329,192,81658,1,0,0:0:0:0:
182,192,81848,1,0,0:0:0:0:
36,192,82038,1,0,0:0:0:0:
182,192,82228,1,0,0:0:0:0:
109,192,82608,128,0,82798:0:0:0:0:
402,192,82798,1,0,0:0:0:0:
109,192,82987,128,0,83177:0:0:0:0:
402,192,83177,1,0,0:0:0:0:
109,192,83367,128,0,83557:0:0:0:0:
402,192,83557,1,0,0:0:0:0:
109,192,83747,128,0,83937:0:0:0:0:
402,192,83937,1,0,0:0:0:0:
182,192,84127,128,0,84317:0:0:0:0:
329,192,84317,1,0,0:0:0:0:
182,192,84506,128,0,84696:0:0:0:0:
329,192,84696,1,0,0:0:0:0:
182,192,84886,1,0,0:0:0:0:
329,192,85076,1,0,0:0:0:0:
329,192,85266,1,0,0:0:0:0:
475,192,85456,1,0,0:0:0:0:
36,192,85456,1,0,0:0:0:0:
402,192,85836,1,0,0:0:0:0:
109,192,85836,1,0,0:0:0:0:
329,192,86215,1,0,0:0:0:0:
182,192,86310,1,0,0:0:0:0:
36,192,86500,1,0,0:0:0:0:
402,192,86785,128,0,87165:0:0:0:0:
109,192,87165,1,0,0:0:0:0:
109,192,87355,1,0,0:0:0:0:
402,192,87544,1,0,0:0:0:0:
402,192,87734,1,0,0:0:0:0:
475,192,88114,1,0,0:0:0:0:
329,192,88114,1,0,0:0:0:0:
182,192,88114,1,0,0:0:0:0:
36,192,88114,1,0,0:0:0:0:
