osu file format v12

[General]
AudioFilename: Koi wa Chaos no Shimobenari (TV Size).mp3
AudioLeadIn: 2000
PreviewTime: 393
Countdown: 0
SampleSet: Soft
StackLeniency: 0.7
Mode: 3
LetterboxInBreaks: 0
SpecialStyle: 0

[Editor]
DistanceSpacing: 0.9
BeatDivisor: 4
GridSize: 16

[Metadata]
Title:Koi wa Chaos no Shimobenari (TV Size)
TitleUnicode:恋は浑沌の隷也 (TV Size)
Artist:Ushirokara Haiyoritai G
ArtistUnicode:後ろから這いより隊G
Creator:Lieselotte
Version:LV.21
Source:Haiyore! Nyaruko-san W
Tags:opening nyaruko kuko hasuta asumi kana matsuki miyu kugimiya rie yuka otsubo \(・ω・\)san値! (/・ω・)/ピンチ!
BeatmapID:273799
BeatmapSetID:104030

[Difficulty]
HPDrainRate:7
CircleSize:7
OverallDifficulty:8
ApproachRate:5
SliderMultiplier:1.9
SliderTickRate:1

[Events]
//Background and Video events
0,0,"BG.jpg",0,0
Video,0,"Koi wa Chaos no Shimobenari (TV Size).avi"
//Break Periods
//Storyboard Layer 0 (Background)
//Storyboard Layer 1 (Fail)
//Storyboard Layer 2 (Pass)
//Storyboard Layer 3 (Foreground)
//Storyboard Sound Samples
//Background Colour Transformations
3,100,0,0,0

[TimingPoints]
393,379.746835443038,4,2,0,30,1,0
395,-133.333333333333,4,2,0,30,0,0
537,-80,4,2,0,30,0,0
774,-133.333333333333,4,2,0,30,0,0
917,-80,4,2,0,30,0,0
1154,-100,4,2,0,30,0,0
2673,-133.333333333333,4,2,0,30,0,0
2815,-80,4,2,0,30,0,0
3290,-133.333333333333,4,2,0,30,0,0
3432,-100,4,2,0,30,0,0
12546,-80,4,2,0,30,0,0
12784,-133.333333333333,4,2,0,30,0,0
12926,-80,4,2,0,30,0,0
13163,-133.333333333333,4,2,0,30,0,0
13306,-100,4,2,0,30,0,0
14825,-80,4,2,0,30,0,0
15062,-133.333333333333,4,2,0,30,0,0
15205,-80,4,2,0,30,0,0
15442,-133.333333333333,4,2,0,30,0,0
15584,-100,4,2,0,30,0,0
21281,-66.6666666666667,4,2,0,30,0,0
21565,-200,4,2,0,30,0,0
21660,-100,4,2,0,30,0,0
27357,-66.6666666666667,4,2,0,30,0,0
27641,-200,4,2,0,30,0,0
27736,-100,4,2,0,30,0,0
39508,-80,4,2,0,30,0,0
39746,-133.333333333333,4,2,0,30,0,0
39888,-100,4,2,0,30,0,0
45584,-66.6666666666667,4,2,0,30,0,0
45869,-200,4,2,0,30,0,0
45964,-100,4,2,0,30,0,0
51660,-66.6666666666667,4,2,0,30,0,0
51945,-200,4,2,0,30,0,0
52040,-100,4,2,0,30,0,0
85458,-133.333333333333,4,2,0,30,0,0
85600,-80,4,2,0,30,0,0
85838,-133.333333333333,4,2,0,30,0,0
85980,-80,4,2,0,30,0,0
86217,-100,4,2,0,30,0,0
87736,-133.333333333333,4,2,0,30,0,0
87879,-80,4,2,0,30,0,0
88116,-100,4,2,0,30,0,0

[Colours]
Combo1 : 5,5,240
Combo2 : 5,240,5

[HitObjects]
36,192,393,1,0,0:0:0:0:
109,192,393,1,0,0:0:0:0:
402,192,393,1,0,0:0:0:0:
475,192,393,1,0,0:0:0:0:
402,192,772,1,0,0:0:0:0:
329,192,772,1,0,0:0:0:0:
182,192,772,1,0,0:0:0:0:
109,192,772,1,0,0:0:0:0:
329,192,1152,1,0,0:0:0:0:
475,192,1152,1,0,0:0:0:0:
182,192,1247,1,0,0:0:0:0:
36,192,1247,1,0,0:0:0:0:
109,192,1437,1,0,0:0:0:0:
256,192,1437,1,0,0:0:0:0:
402,192,1437,1,0,0:0:0:0:
36,192,1722,1,0,0:0:0:0:
182,192,1722,1,0,0:0:0:0:
329,192,1722,128,0,2101:0:0:0:0:
475,192,1722,128,0,2101:0:0:0:0:
182,192,2101,1,0,0:0:0:0:
36,192,2101,1,0,0:0:0:0:
109,192,2291,1,0,0:0:0:0:
256,192,2291,1,0,0:0:0:0:
256,192,2481,1,0,0:0:0:0:
402,192,2481,1,0,0:0:0:0:
329,192,2671,1,0,0:0:0:0:
475,192,2671,1,0,0:0:0:0:
36,192,3051,128,0,3336:0:0:0:0:
109,192,3051,128,0,3336:0:0:0:0:
182,192,3051,128,0,3336:0:0:0:0:
329,192,3051,128,0,3336:0:0:0:0:
402,192,3051,128,0,3336:0:0:0:0:
475,192,3051,128,0,3336:0:0:0:0:
329,192,3430,1,0,0:0:0:0:
475,192,3430,1,0,0:0:0:0:
36,192,3430,1,0,0:0:0:0:
109,192,3525,1,0,0:0:0:0:
182,192,3620,1,0,0:0:0:0:
256,192,3810,1,0,0:0:0:0:
402,192,3810,1,0,0:0:0:0:
475,192,3810,1,0,0:0:0:0:
109,192,4000,1,0,0:0:0:0:
36,192,4190,1,0,0:0:0:0:
329,192,4190,1,0,0:0:0:0:
329,192,4285,1,0,0:0:0:0:
182,192,4380,1,0,0:0:0:0:
402,192,4475,1,0,0:0:0:0:
256,192,4570,1,0,0:0:0:0:
36,192,4570,1,0,0:0:0:0:
329,192,4760,1,0,0:0:0:0:
402,192,4949,1,0,0:0:0:0:
182,192,4949,1,0,0:0:0:0:
402,192,5044,1,0,0:0:0:0:
329,192,5139,1,0,0:0:0:0:
475,192,5329,1,0,0:0:0:0:
256,192,5329,1,0,0:0:0:0:
36,192,5329,1,0,0:0:0:0:
182,192,5424,1,0,0:0:0:0:
109,192,5614,128,0,5899:0:0:0:0:
329,192,5709,1,0,0:0:0:0:
109,192,6089,1,0,0:0:0:0:
256,192,6089,1,0,0:0:0:0:
475,192,6089,1,0,0:0:0:0:
182,192,6279,1,0,0:0:0:0:
36,192,6468,1,0,0:0:0:0:
329,192,6468,1,0,0:0:0:0:
475,192,6468,1,0,0:0:0:0:
109,192,6848,1,0,0:0:0:0:
256,192,6848,1,0,0:0:0:0:
402,192,6848,1,0,0:0:0:0:
182,192,7228,1,0,0:0:0:0:
329,192,7228,1,0,0:0:0:0:
109,192,7323,1,0,0:0:0:0:
256,192,7513,128,0,7798:0:0:0:0:
475,192,7608,1,0,0:0:0:0:
36,192,7608,1,0,0:0:0:0:
329,192,7798,1,0,0:0:0:0:
475,192,7987,1,0,0:0:0:0:
182,192,7987,128,0,8272:0:0:0:0:
402,192,8272,128,0,8557:0:0:0:0:
256,192,8367,1,0,0:0:0:0:
36,192,8367,1,0,0:0:0:0:
182,192,8557,128,0,8937:0:0:0:0:
475,192,8747,1,0,0:0:0:0:
36,192,8937,1,0,0:0:0:0:
182,192,9127,1,0,0:0:0:0:
329,192,9127,1,0,0:0:0:0:
402,192,9127,1,0,0:0:0:0:
182,192,9317,1,0,0:0:0:0:
36,192,9506,1,0,0:0:0:0:
329,192,9506,1,0,0:0:0:0:
475,192,9506,1,0,0:0:0:0:
109,192,9601,1,0,0:0:0:0:
182,192,9696,1,0,0:0:0:0:
256,192,9886,1,0,0:0:0:0:
402,192,9886,1,0,0:0:0:0:
475,192,9886,1,0,0:0:0:0:
109,192,10076,1,0,0:0:0:0:
329,192,10266,1,0,0:0:0:0:
475,192,10266,1,0,0:0:0:0:
329,192,10361,1,0,0:0:0:0:
109,192,10456,1,0,0:0:0:0:
329,192,10551,1,0,0:0:0:0:
182,192,10646,1,0,0:0:0:0:
36,192,10646,1,0,0:0:0:0:
256,192,10836,1,0,0:0:0:0:
182,192,11025,1,0,0:0:0:0:
402,192,11025,1,0,0:0:0:0:
402,192,11120,1,0,0:0:0:0:
329,192,11215,1,0,0:0:0:0:
256,192,11405,1,0,0:0:0:0:
475,192,11405,1,0,0:0:0:0:
36,192,11405,1,0,0:0:0:0:
182,192,11500,1,0,0:0:0:0:
109,192,11690,128,0,11880:0:0:0:0:
329,192,11785,1,0,0:0:0:0:
109,192,12165,1,0,0:0:0:0:
329,192,12165,1,0,0:0:0:0:
475,192,12165,1,0,0:0:0:0:
402,192,12355,1,0,0:0:0:0:
475,192,12544,1,0,0:0:0:0:
256,192,12544,1,0,0:0:0:0:
36,192,12544,1,0,0:0:0:0:
109,192,12924,1,0,0:0:0:0:
256,192,12924,1,0,0:0:0:0:
402,192,12924,1,0,0:0:0:0:
329,192,13304,1,0,0:0:0:0:
475,192,13304,1,0,0:0:0:0:
36,192,13304,1,0,0:0:0:0:
182,192,13399,1,0,0:0:0:0:
109,192,13589,1,0,0:0:0:0:
256,192,13589,1,0,0:0:0:0:
402,192,13589,1,0,0:0:0:0:
36,192,13874,1,0,0:0:0:0:
475,192,13874,1,0,0:0:0:0:
329,192,13874,128,0,14253:0:0:0:0:
256,192,14253,1,0,0:0:0:0:
36,192,14253,1,0,0:0:0:0:
109,192,14443,1,0,0:0:0:0:
329,192,14443,1,0,0:0:0:0:
182,192,14633,1,0,0:0:0:0:
402,192,14633,1,0,0:0:0:0:
256,192,14823,1,0,0:0:0:0:
475,192,14823,1,0,0:0:0:0:
36,192,15203,128,0,15487:0:0:0:0:
109,192,15203,128,0,15487:0:0:0:0:
182,192,15203,128,0,15487:0:0:0:0:
329,192,15203,128,0,15487:0:0:0:0:
402,192,15203,128,0,15487:0:0:0:0:
475,192,15203,128,0,15487:0:0:0:0:
182,192,15582,1,0,0:0:0:0:
402,192,15772,1,0,0:0:0:0:
475,192,15772,1,0,0:0:0:0:
256,192,15962,1,0,0:0:0:0:
36,192,15962,1,0,0:0:0:0:
329,192,16152,1,0,0:0:0:0:
402,192,16152,1,0,0:0:0:0:
182,192,16342,1,0,0:0:0:0:
402,192,16532,1,0,0:0:0:0:
475,192,16532,1,0,0:0:0:0:
256,192,16722,1,0,0:0:0:0:
36,192,16722,1,0,0:0:0:0:
329,192,16911,1,0,0:0:0:0:
402,192,16911,1,0,0:0:0:0:
182,192,17101,1,0,0:0:0:0:
402,192,17291,1,0,0:0:0:0:
475,192,17291,1,0,0:0:0:0:
329,192,17386,1,0,0:0:0:0:
256,192,17481,1,0,0:0:0:0:
36,192,17481,1,0,0:0:0:0:
329,192,17671,1,0,0:0:0:0:
402,192,17671,1,0,0:0:0:0:
182,192,17861,1,0,0:0:0:0:
402,192,18051,1,0,0:0:0:0:
475,192,18051,1,0,0:0:0:0:
256,192,18241,1,0,0:0:0:0:
36,192,18241,1,0,0:0:0:0:
329,192,18430,1,0,0:0:0:0:
402,192,18430,1,0,0:0:0:0:
182,192,18620,1,0,0:0:0:0:
36,192,18810,1,0,0:0:0:0:
402,192,18810,1,0,0:0:0:0:
109,192,18905,1,0,0:0:0:0:
182,192,19000,1,0,0:0:0:0:
329,192,19000,1,0,0:0:0:0:
475,192,19000,1,0,0:0:0:0:
402,192,19190,1,0,0:0:0:0:
36,192,19190,1,0,0:0:0:0:
109,192,19380,1,0,0:0:0:0:
256,192,19380,1,0,0:0:0:0:
475,192,19570,1,0,0:0:0:0:
402,192,19760,1,0,0:0:0:0:
182,192,19760,1,0,0:0:0:0:
36,192,19760,1,0,0:0:0:0:
256,192,19949,1,0,0:0:0:0:
329,192,20139,128,0,20329:0:0:0:0:
475,192,20139,1,0,0:0:0:0:
36,192,20329,1,0,0:0:0:0:
182,192,20329,128,0,20519:0:0:0:0:
256,192,20519,1,0,0:0:0:0:
475,192,20519,1,0,0:0:0:0:
402,192,20519,128,0,20709:0:0:0:0:
109,192,20709,128,0,20899:0:0:0:0:
36,192,20709,1,0,0:0:0:0:
256,192,20899,128,0,21279:0:0:0:0:
36,192,21279,1,0,0:0:0:0:
182,192,21279,1,0,0:0:0:0:
329,192,21279,1,0,0:0:0:0:
475,192,21279,1,0,0:0:0:0:
182,192,21658,1,0,0:0:0:0:
402,192,21848,1,0,0:0:0:0:
475,192,21848,1,0,0:0:0:0:
256,192,22038,1,0,0:0:0:0:
36,192,22038,1,0,0:0:0:0:
329,192,22228,1,0,0:0:0:0:
402,192,22228,1,0,0:0:0:0:
182,192,22418,1,0,0:0:0:0:
402,192,22608,1,0,0:0:0:0:
475,192,22608,1,0,0:0:0:0:
256,192,22798,1,0,0:0:0:0:
36,192,22798,1,0,0:0:0:0:
329,192,22987,1,0,0:0:0:0:
402,192,22987,1,0,0:0:0:0:
182,192,23177,1,0,0:0:0:0:
402,192,23367,1,0,0:0:0:0:
475,192,23367,1,0,0:0:0:0:
329,192,23462,1,0,0:0:0:0:
256,192,23557,1,0,0:0:0:0:
36,192,23557,1,0,0:0:0:0:
329,192,23747,1,0,0:0:0:0:
402,192,23747,1,0,0:0:0:0:
182,192,23937,1,0,0:0:0:0:
402,192,24127,1,0,0:0:0:0:
475,192,24127,1,0,0:0:0:0:
256,192,24317,1,0,0:0:0:0:
36,192,24317,1,0,0:0:0:0:
329,192,24506,1,0,0:0:0:0:
402,192,24506,1,0,0:0:0:0:
182,192,24696,1,0,0:0:0:0:
329,192,24886,1,0,0:0:0:0:
36,192,24886,1,0,0:0:0:0:
109,192,24981,1,0,0:0:0:0:
182,192,25076,1,0,0:0:0:0:
402,192,25076,1,0,0:0:0:0:
475,192,25076,1,0,0:0:0:0:
329,192,25266,1,0,0:0:0:0:
36,192,25266,1,0,0:0:0:0:
109,192,25456,1,0,0:0:0:0:
256,192,25456,1,0,0:0:0:0:
475,192,25646,1,0,0:0:0:0:
402,192,25836,1,0,0:0:0:0:
182,192,25836,1,0,0:0:0:0:
36,192,25836,1,0,0:0:0:0:
256,192,26025,1,0,0:0:0:0:
475,192,26215,1,0,0:0:0:0:
329,192,26215,128,0,26595:0:0:0:0:
182,192,26405,128,0,26595:0:0:0:0:
36,192,26405,1,0,0:0:0:0:
256,192,26595,1,0,0:0:0:0:
475,192,26595,1,0,0:0:0:0:
402,192,26595,128,0,26975:0:0:0:0:
109,192,26785,128,0,26975:0:0:0:0:
36,192,26785,1,0,0:0:0:0:
256,192,26975,128,0,27355:0:0:0:0:
36,192,27355,1,0,0:0:0:0:
182,192,27355,1,0,0:0:0:0:
329,192,27355,1,0,0:0:0:0:
475,192,27355,1,0,0:0:0:0:
256,192,27734,1,0,0:0:0:0:
36,192,27734,1,0,0:0:0:0:
109,192,27924,1,0,0:0:0:0:
329,192,27924,1,0,0:0:0:0:
182,192,28114,1,0,0:0:0:0:
402,192,28114,1,0,0:0:0:0:
256,192,28304,1,0,0:0:0:0:
475,192,28304,1,0,0:0:0:0:
402,192,28494,1,0,0:0:0:0:
109,192,28494,1,0,0:0:0:0:
256,192,28684,1,0,0:0:0:0:
475,192,28684,1,0,0:0:0:0:
402,192,28874,1,0,0:0:0:0:
182,192,28874,1,0,0:0:0:0:
329,192,29063,1,0,0:0:0:0:
109,192,29063,1,0,0:0:0:0:
182,192,29253,1,0,0:0:0:0:
402,192,29443,1,0,0:0:0:0:
256,192,29633,1,0,0:0:0:0:
36,192,29633,1,0,0:0:0:0:
402,192,29823,1,0,0:0:0:0:
182,192,30013,1,0,0:0:0:0:
402,192,30203,1,0,0:0:0:0:
256,192,30393,1,0,0:0:0:0:
36,192,30393,1,0,0:0:0:0:
402,192,30582,1,0,0:0:0:0:
256,192,30772,1,0,0:0:0:0:
36,192,30772,1,0,0:0:0:0:
109,192,30962,1,0,0:0:0:0:
329,192,30962,1,0,0:0:0:0:
182,192,31152,1,0,0:0:0:0:
402,192,31152,1,0,0:0:0:0:
256,192,31342,1,0,0:0:0:0:
475,192,31342,1,0,0:0:0:0:
329,192,31532,1,0,0:0:0:0:
109,192,31532,1,0,0:0:0:0:
256,192,31722,1,0,0:0:0:0:
475,192,31722,1,0,0:0:0:0:
402,192,31911,1,0,0:0:0:0:
182,192,31911,1,0,0:0:0:0:
329,192,32101,1,0,0:0:0:0:
109,192,32101,1,0,0:0:0:0:
182,192,32291,1,0,0:0:0:0:
402,192,32291,128,0,32671:0:0:0:0:
475,192,32291,128,0,32671:0:0:0:0:
36,192,32481,1,0,0:0:0:0:
109,192,32671,1,0,0:0:0:0:
256,192,32671,1,0,0:0:0:0:
36,192,32861,1,0,0:0:0:0:
402,192,32861,128,0,33620:0:0:0:0:
475,192,32861,128,0,33620:0:0:0:0:
182,192,33051,1,0,0:0:0:0:
36,192,33241,1,0,0:0:0:0:
109,192,33430,1,0,0:0:0:0:
256,192,33430,1,0,0:0:0:0:
36,192,33620,1,0,0:0:0:0:
109,192,33810,1,0,0:0:0:0:
256,192,33810,1,0,0:0:0:0:
402,192,33810,1,0,0:0:0:0:
475,192,33810,1,0,0:0:0:0:
182,192,34000,1,0,0:0:0:0:
329,192,34000,1,0,0:0:0:0:
109,192,34190,1,0,0:0:0:0:
256,192,34190,1,0,0:0:0:0:
402,192,34190,1,0,0:0:0:0:
182,192,34380,1,0,0:0:0:0:
475,192,34380,1,0,0:0:0:0:
402,192,34570,1,0,0:0:0:0:
256,192,34570,1,0,0:0:0:0:
36,192,34570,1,0,0:0:0:0:
182,192,34760,1,0,0:0:0:0:
329,192,34760,1,0,0:0:0:0:
109,192,34949,1,0,0:0:0:0:
256,192,34949,1,0,0:0:0:0:
402,192,34949,1,0,0:0:0:0:
329,192,35139,1,0,0:0:0:0:
36,192,35139,1,0,0:0:0:0:
109,192,35329,1,0,0:0:0:0:
182,192,35329,1,0,0:0:0:0:
329,192,35519,1,0,0:0:0:0:
402,192,35519,1,0,0:0:0:0:
256,192,35709,1,0,0:0:0:0:
182,192,35709,1,0,0:0:0:0:
36,192,35709,1,0,0:0:0:0:
402,192,35899,1,0,0:0:0:0:
475,192,35899,1,0,0:0:0:0:
109,192,36089,1,0,0:0:0:0:
182,192,36089,1,0,0:0:0:0:
329,192,36279,1,0,0:0:0:0:
402,192,36279,1,0,0:0:0:0:
256,192,36468,1,0,0:0:0:0:
182,192,36468,1,0,0:0:0:0:
36,192,36468,1,0,0:0:0:0:
402,192,36658,1,0,0:0:0:0:
475,192,36658,1,0,0:0:0:0:
256,192,36848,1,0,0:0:0:0:
109,192,36848,128,0,37038:0:0:0:0:
329,192,37038,1,0,0:0:0:0:
36,192,37038,128,0,37228:0:0:0:0:
402,192,37228,1,0,0:0:0:0:
109,192,37228,128,0,37418:0:0:0:0:
475,192,37418,1,0,0:0:0:0:
182,192,37418,128,0,37608:0:0:0:0:
256,192,37608,1,0,0:0:0:0:
402,192,37608,128,0,37798:0:0:0:0:
182,192,37798,1,0,0:0:0:0:
475,192,37798,128,0,37987:0:0:0:0:
402,192,37987,128,0,38177:0:0:0:0:
109,192,37987,1,0,0:0:0:0:
329,192,38177,128,0,38367:0:0:0:0:
36,192,38177,1,0,0:0:0:0:
256,192,38367,128,0,39506:0:0:0:0:
109,192,38367,128,0,38747:0:0:0:0:
475,192,38557,128,0,38937:0:0:0:0:
36,192,38747,128,0,39127:0:0:0:0:
402,192,38937,128,0,39506:0:0:0:0:
109,192,39127,128,0,39506:0:0:0:0:
182,192,39506,1,0,0:0:0:0:
329,192,39506,1,0,0:0:0:0:
475,192,39506,1,0,0:0:0:0:
109,192,39886,1,0,0:0:0:0:
182,192,39886,128,0,40266:0:0:0:0:
329,192,40076,1,0,0:0:0:0:
402,192,40076,1,0,0:0:0:0:
256,192,40266,1,0,0:0:0:0:
109,192,40266,1,0,0:0:0:0:
36,192,40266,1,0,0:0:0:0:
402,192,40456,1,0,0:0:0:0:
475,192,40456,1,0,0:0:0:0:
182,192,40646,1,0,0:0:0:0:
109,192,40646,1,0,0:0:0:0:
329,192,40836,1,0,0:0:0:0:
402,192,40836,1,0,0:0:0:0:
256,192,41025,1,0,0:0:0:0:
109,192,41025,1,0,0:0:0:0:
36,192,41025,1,0,0:0:0:0:
402,192,41215,1,0,0:0:0:0:
475,192,41215,1,0,0:0:0:0:
182,192,41405,1,0,0:0:0:0:
109,192,41405,1,0,0:0:0:0:
329,192,41595,1,0,0:0:0:0:
402,192,41595,1,0,0:0:0:0:
256,192,41690,1,0,0:0:0:0:
182,192,41785,1,0,0:0:0:0:
109,192,41785,1,0,0:0:0:0:
36,192,41785,1,0,0:0:0:0:
402,192,41975,1,0,0:0:0:0:
475,192,41975,1,0,0:0:0:0:
182,192,42165,1,0,0:0:0:0:
109,192,42165,1,0,0:0:0:0:
256,192,42165,128,0,42734:0:0:0:0:
329,192,42355,1,0,0:0:0:0:
402,192,42355,1,0,0:0:0:0:
182,192,42544,1,0,0:0:0:0:
109,192,42544,1,0,0:0:0:0:
36,192,42544,1,0,0:0:0:0:
402,192,42734,1,0,0:0:0:0:
475,192,42734,1,0,0:0:0:0:
256,192,42924,1,0,0:0:0:0:
182,192,42924,1,0,0:0:0:0:
36,192,43114,1,0,0:0:0:0:
402,192,43114,1,0,0:0:0:0:
109,192,43209,1,0,0:0:0:0:
182,192,43304,1,0,0:0:0:0:
329,192,43304,1,0,0:0:0:0:
475,192,43304,1,0,0:0:0:0:
402,192,43494,1,0,0:0:0:0:
36,192,43494,1,0,0:0:0:0:
109,192,43684,1,0,0:0:0:0:
256,192,43684,1,0,0:0:0:0:
475,192,43874,1,0,0:0:0:0:
402,192,44063,1,0,0:0:0:0:
182,192,44063,1,0,0:0:0:0:
36,192,44063,1,0,0:0:0:0:
256,192,44253,1,0,0:0:0:0:
475,192,44443,1,0,0:0:0:0:
329,192,44443,128,0,44823:0:0:0:0:
182,192,44633,128,0,44823:0:0:0:0:
36,192,44633,1,0,0:0:0:0:
256,192,44823,1,0,0:0:0:0:
475,192,44823,1,0,0:0:0:0:
402,192,44823,128,0,45582:0:0:0:0:
109,192,45013,128,0,45582:0:0:0:0:
36,192,45013,1,0,0:0:0:0:
256,192,45203,128,0,45582:0:0:0:0:
329,192,45582,1,0,0:0:0:0:
475,192,45582,1,0,0:0:0:0:
182,192,45582,1,0,0:0:0:0:
182,192,45962,128,0,46342:0:0:0:0:
109,192,45962,1,0,0:0:0:0:
329,192,46152,1,0,0:0:0:0:
402,192,46152,1,0,0:0:0:0:
109,192,46342,1,0,0:0:0:0:
36,192,46342,1,0,0:0:0:0:
256,192,46342,1,0,0:0:0:0:
402,192,46532,1,0,0:0:0:0:
475,192,46532,1,0,0:0:0:0:
182,192,46722,1,0,0:0:0:0:
109,192,46722,1,0,0:0:0:0:
329,192,46911,1,0,0:0:0:0:
402,192,46911,1,0,0:0:0:0:
256,192,47101,1,0,0:0:0:0:
109,192,47101,1,0,0:0:0:0:
36,192,47101,1,0,0:0:0:0:
402,192,47291,1,0,0:0:0:0:
475,192,47291,1,0,0:0:0:0:
109,192,47481,1,0,0:0:0:0:
182,192,47481,1,0,0:0:0:0:
329,192,47671,1,0,0:0:0:0:
402,192,47671,1,0,0:0:0:0:
256,192,47766,1,0,0:0:0:0:
182,192,47861,1,0,0:0:0:0:
109,192,47861,1,0,0:0:0:0:
36,192,47861,1,0,0:0:0:0:
402,192,48051,1,0,0:0:0:0:
475,192,48051,1,0,0:0:0:0:
182,192,48241,1,0,0:0:0:0:
109,192,48241,1,0,0:0:0:0:
256,192,48241,128,0,48810:0:0:0:0:
329,192,48430,1,0,0:0:0:0:
402,192,48430,1,0,0:0:0:0:
182,192,48620,1,0,0:0:0:0:
109,192,48620,1,0,0:0:0:0:
36,192,48620,1,0,0:0:0:0:
402,192,48810,1,0,0:0:0:0:
475,192,48810,1,0,0:0:0:0:
182,192,49000,1,0,0:0:0:0:
109,192,49000,1,0,0:0:0:0:
329,192,49190,1,0,0:0:0:0:
36,192,49190,1,0,0:0:0:0:
109,192,49285,1,0,0:0:0:0:
182,192,49380,1,0,0:0:0:0:
402,192,49380,1,0,0:0:0:0:
475,192,49380,1,0,0:0:0:0:
329,192,49570,1,0,0:0:0:0:
36,192,49570,1,0,0:0:0:0:
256,192,49760,1,0,0:0:0:0:
109,192,49760,1,0,0:0:0:0:
475,192,49949,1,0,0:0:0:0:
402,192,50139,1,0,0:0:0:0:
182,192,50139,1,0,0:0:0:0:
36,192,50139,1,0,0:0:0:0:
256,192,50329,1,0,0:0:0:0:
475,192,50519,1,0,0:0:0:0:
329,192,50519,128,0,50899:0:0:0:0:
182,192,50709,128,0,50899:0:0:0:0:
36,192,50709,1,0,0:0:0:0:
256,192,50899,1,0,0:0:0:0:
475,192,50899,1,0,0:0:0:0:
402,192,50899,128,0,51658:0:0:0:0:
109,192,51089,128,0,51658:0:0:0:0:
36,192,51089,1,0,0:0:0:0:
256,192,51279,128,0,51658:0:0:0:0:
329,192,51658,1,0,0:0:0:0:
182,192,51658,1,0,0:0:0:0:
475,192,51658,1,0,0:0:0:0:
182,192,52038,1,0,0:0:0:0:
402,192,52038,1,0,0:0:0:0:
329,192,52228,1,0,0:0:0:0:
109,192,52228,1,0,0:0:0:0:
182,192,52418,1,0,0:0:0:0:
402,192,52418,1,0,0:0:0:0:
475,192,52418,1,0,0:0:0:0:
329,192,52608,1,0,0:0:0:0:
109,192,52608,1,0,0:0:0:0:
182,192,52798,1,0,0:0:0:0:
402,192,52798,1,0,0:0:0:0:
329,192,52987,1,0,0:0:0:0:
109,192,52987,1,0,0:0:0:0:
36,192,53177,1,0,0:0:0:0:
256,192,53177,1,0,0:0:0:0:
402,192,53177,1,0,0:0:0:0:
109,192,53367,1,0,0:0:0:0:
475,192,53367,128,0,53747:0:0:0:0:
182,192,53557,1,0,0:0:0:0:
329,192,53747,1,0,0:0:0:0:
109,192,53747,1,0,0:0:0:0:
256,192,53937,1,0,0:0:0:0:
475,192,53937,1,0,0:0:0:0:
36,192,53937,1,0,0:0:0:0:
182,192,54127,1,0,0:0:0:0:
402,192,54127,1,0,0:0:0:0:
256,192,54317,1,0,0:0:0:0:
329,192,54506,1,0,0:0:0:0:
109,192,54506,1,0,0:0:0:0:
36,192,54696,1,0,0:0:0:0:
256,192,54696,1,0,0:0:0:0:
475,192,54696,1,0,0:0:0:0:
402,192,54886,1,0,0:0:0:0:
182,192,54886,1,0,0:0:0:0:
475,192,55076,1,0,0:0:0:0:
36,192,55076,1,0,0:0:0:0:
329,192,55266,1,0,0:0:0:0:
109,192,55266,1,0,0:0:0:0:
256,192,55456,1,0,0:0:0:0:
475,192,55456,1,0,0:0:0:0:
36,192,55456,1,0,0:0:0:0:
182,192,55646,1,0,0:0:0:0:
402,192,55646,1,0,0:0:0:0:
475,192,55836,1,0,0:0:0:0:
36,192,55836,1,0,0:0:0:0:
329,192,56025,1,0,0:0:0:0:
109,192,56025,1,0,0:0:0:0:
256,192,56215,1,0,0:0:0:0:
475,192,56215,1,0,0:0:0:0:
36,192,56215,1,0,0:0:0:0:
182,192,56405,1,0,0:0:0:0:
329,192,56405,128,0,57544:0:0:0:0:
402,192,56595,1,0,0:0:0:0:
109,192,56595,128,0,56785:0:0:0:0:
36,192,56785,128,0,56975:0:0:0:0:
402,192,56975,1,0,0:0:0:0:
475,192,56975,1,0,0:0:0:0:
182,192,56975,128,0,57165:0:0:0:0:
109,192,57165,128,0,57355:0:0:0:0:
475,192,57355,1,0,0:0:0:0:
256,192,57355,128,0,57544:0:0:0:0:
182,192,57544,128,0,57734:0:0:0:0:
329,192,57734,1,0,0:0:0:0:
475,192,57734,1,0,0:0:0:0:
109,192,57734,128,0,57924:0:0:0:0:
329,192,57924,1,0,0:0:0:0:
36,192,57924,128,0,61152:0:0:0:0:
402,192,58114,1,0,0:0:0:0:
182,192,58114,1,0,0:0:0:0:
256,192,58304,1,0,0:0:0:0:
329,192,58494,1,0,0:0:0:0:
475,192,58494,1,0,0:0:0:0:
109,192,58494,1,0,0:0:0:0:
182,192,58684,1,0,0:0:0:0:
256,192,58874,1,0,0:0:0:0:
402,192,58874,1,0,0:0:0:0:
182,192,59063,1,0,0:0:0:0:
109,192,59253,1,0,0:0:0:0:
329,192,59253,1,0,0:0:0:0:
475,192,59253,1,0,0:0:0:0:
402,192,59443,128,0,59823:0:0:0:0:
182,192,59633,1,0,0:0:0:0:
475,192,59823,1,0,0:0:0:0:
402,192,60013,1,0,0:0:0:0:
256,192,60013,1,0,0:0:0:0:
109,192,60013,1,0,0:0:0:0:
329,192,60203,1,0,0:0:0:0:
182,192,60393,1,0,0:0:0:0:
256,192,60582,1,0,0:0:0:0:
329,192,60772,1,0,0:0:0:0:
475,192,60772,1,0,0:0:0:0:
109,192,60772,1,0,0:0:0:0:
256,192,60962,1,0,0:0:0:0:
182,192,61152,1,0,0:0:0:0:
475,192,61152,1,0,0:0:0:0:
329,192,61152,128,0,62671:0:0:0:0:
109,192,61342,1,0,0:0:0:0:
36,192,61532,1,0,0:0:0:0:
256,192,61532,1,0,0:0:0:0:
475,192,61532,1,0,0:0:0:0:
182,192,61722,1,0,0:0:0:0:
109,192,61911,1,0,0:0:0:0:
475,192,61911,1,0,0:0:0:0:
256,192,62101,1,0,0:0:0:0:
182,192,62291,1,0,0:0:0:0:
36,192,62291,1,0,0:0:0:0:
402,192,62291,1,0,0:0:0:0:
475,192,62481,128,0,62861:0:0:0:0:
182,192,62671,1,0,0:0:0:0:
109,192,62671,128,0,64000:0:0:0:0:
329,192,62861,1,0,0:0:0:0:
475,192,63051,1,0,0:0:0:0:
256,192,63051,1,0,0:0:0:0:
36,192,63051,1,0,0:0:0:0:
402,192,63241,128,0,64000:0:0:0:0:
256,192,63430,1,0,0:0:0:0:
256,192,63620,1,0,0:0:0:0:
256,192,63810,1,0,0:0:0:0:
256,192,64000,1,0,0:0:0:0:
109,192,64380,1,0,0:0:0:0:
402,192,64380,1,0,0:0:0:0:
329,192,64570,1,0,0:0:0:0:
182,192,64570,1,0,0:0:0:0:
109,192,64760,1,0,0:0:0:0:
402,192,64760,1,0,0:0:0:0:
329,192,64949,1,0,0:0:0:0:
182,192,64949,1,0,0:0:0:0:
36,192,64949,128,0,65329:0:0:0:0:
475,192,64949,128,0,65329:0:0:0:0:
402,192,65329,1,0,0:0:0:0:
182,192,65329,1,0,0:0:0:0:
109,192,65519,1,0,0:0:0:0:
329,192,65519,1,0,0:0:0:0:
182,192,65709,1,0,0:0:0:0:
402,192,65709,1,0,0:0:0:0:
329,192,65899,1,0,0:0:0:0:
109,192,65899,1,0,0:0:0:0:
402,192,66089,1,0,0:0:0:0:
182,192,66089,1,0,0:0:0:0:
329,192,66279,1,0,0:0:0:0:
109,192,66279,1,0,0:0:0:0:
36,192,66468,128,0,67228:0:0:0:0:
475,192,66468,128,0,67228:0:0:0:0:
182,192,66468,1,0,0:0:0:0:
402,192,66468,1,0,0:0:0:0:
256,192,66468,128,0,67228:0:0:0:0:
182,192,67228,1,0,0:0:0:0:
402,192,67228,1,0,0:0:0:0:
475,192,67608,1,0,0:0:0:0:
256,192,67608,1,0,0:0:0:0:
109,192,67608,1,0,0:0:0:0:
329,192,67987,1,0,0:0:0:0:
402,192,67987,1,0,0:0:0:0:
182,192,67987,128,0,68272:0:0:0:0:
36,192,68272,128,0,68557:0:0:0:0:
402,192,68367,128,0,68557:0:0:0:0:
475,192,68367,128,0,68557:0:0:0:0:
256,192,68367,1,0,0:0:0:0:
329,192,68367,1,0,0:0:0:0:
109,192,68557,1,0,0:0:0:0:
36,192,68747,1,0,0:0:0:0:
475,192,68747,1,0,0:0:0:0:
329,192,68747,128,0,68937:0:0:0:0:
182,192,68937,128,0,69127:0:0:0:0:
36,192,69127,1,0,0:0:0:0:
329,192,69127,1,0,0:0:0:0:
475,192,69127,1,0,0:0:0:0:
182,192,69222,1,0,0:0:0:0:
329,192,69411,128,0,69791:0:0:0:0:
182,192,69506,1,0,0:0:0:0:
109,192,69506,1,0,0:0:0:0:
402,192,69696,128,0,69791:0:0:0:0:
475,192,69696,128,0,69791:0:0:0:0:
329,192,69886,1,0,0:0:0:0:
109,192,69886,1,0,0:0:0:0:
36,192,69886,1,0,0:0:0:0:
402,192,69886,128,0,70076:0:0:0:0:
475,192,69886,128,0,70076:0:0:0:0:
182,192,70076,128,0,70266:0:0:0:0:
109,192,70266,1,0,0:0:0:0:
329,192,70266,1,0,0:0:0:0:
402,192,70456,1,0,0:0:0:0:
329,192,70646,1,0,0:0:0:0:
182,192,70646,1,0,0:0:0:0:
36,192,70646,1,0,0:0:0:0:
402,192,70836,1,0,0:0:0:0:
329,192,71025,1,0,0:0:0:0:
109,192,71025,1,0,0:0:0:0:
402,192,71215,1,0,0:0:0:0:
475,192,71405,1,0,0:0:0:0:
256,192,71405,1,0,0:0:0:0:
36,192,71405,1,0,0:0:0:0:
329,192,71595,128,0,71975:0:0:0:0:
36,192,71785,1,0,0:0:0:0:
475,192,71785,1,0,0:0:0:0:
182,192,71975,1,0,0:0:0:0:
329,192,72165,1,0,0:0:0:0:
402,192,72165,1,0,0:0:0:0:
109,192,72165,1,0,0:0:0:0:
182,192,72355,128,0,72924:0:0:0:0:
329,192,72544,1,0,0:0:0:0:
475,192,72544,1,0,0:0:0:0:
36,192,72544,1,0,0:0:0:0:
109,192,72734,1,0,0:0:0:0:
402,192,72734,1,0,0:0:0:0:
256,192,72829,1,0,0:0:0:0:
329,192,72924,1,0,0:0:0:0:
475,192,72924,1,0,0:0:0:0:
36,192,72924,1,0,0:0:0:0:
109,192,73114,1,0,0:0:0:0:
182,192,73114,1,0,0:0:0:0:
402,192,73114,1,0,0:0:0:0:
475,192,73304,1,0,0:0:0:0:
36,192,73304,1,0,0:0:0:0:
402,192,73684,1,0,0:0:0:0:
256,192,73684,1,0,0:0:0:0:
109,192,73684,1,0,0:0:0:0:
329,192,74063,1,0,0:0:0:0:
475,192,74063,1,0,0:0:0:0:
182,192,74063,128,0,74348:0:0:0:0:
36,192,74348,128,0,74633:0:0:0:0:
402,192,74443,128,0,74633:0:0:0:0:
475,192,74443,128,0,74633:0:0:0:0:
329,192,74443,1,0,0:0:0:0:
256,192,74443,1,0,0:0:0:0:
109,192,74633,1,0,0:0:0:0:
36,192,74823,1,0,0:0:0:0:
475,192,74823,1,0,0:0:0:0:
329,192,74823,128,0,75013:0:0:0:0:
182,192,75013,128,0,75203:0:0:0:0:
329,192,75203,1,0,0:0:0:0:
475,192,75203,1,0,0:0:0:0:
36,192,75203,1,0,0:0:0:0:
182,192,75298,1,0,0:0:0:0:
329,192,75487,128,0,75867:0:0:0:0:
182,192,75582,1,0,0:0:0:0:
109,192,75582,1,0,0:0:0:0:
402,192,75772,128,0,75867:0:0:0:0:
475,192,75772,128,0,75867:0:0:0:0:
402,192,75962,128,0,76152:0:0:0:0:
475,192,75962,128,0,76152:0:0:0:0:
329,192,75962,1,0,0:0:0:0:
109,192,75962,1,0,0:0:0:0:
36,192,75962,1,0,0:0:0:0:
182,192,76152,128,0,76342:0:0:0:0:
109,192,76342,1,0,0:0:0:0:
329,192,76342,1,0,0:0:0:0:
402,192,76532,1,0,0:0:0:0:
329,192,76722,1,0,0:0:0:0:
182,192,76722,1,0,0:0:0:0:
36,192,76722,1,0,0:0:0:0:
402,192,76911,1,0,0:0:0:0:
329,192,77101,1,0,0:0:0:0:
109,192,77101,1,0,0:0:0:0:
402,192,77291,1,0,0:0:0:0:
475,192,77481,1,0,0:0:0:0:
256,192,77481,1,0,0:0:0:0:
36,192,77481,1,0,0:0:0:0:
329,192,77671,128,0,78051:0:0:0:0:
475,192,77861,1,0,0:0:0:0:
36,192,77861,1,0,0:0:0:0:
182,192,78051,1,0,0:0:0:0:
329,192,78241,1,0,0:0:0:0:
402,192,78241,1,0,0:0:0:0:
109,192,78241,1,0,0:0:0:0:
182,192,78430,128,0,79190:0:0:0:0:
329,192,78620,1,0,0:0:0:0:
475,192,78620,1,0,0:0:0:0:
36,192,78620,1,0,0:0:0:0:
256,192,78810,1,0,0:0:0:0:
402,192,78810,1,0,0:0:0:0:
329,192,79000,1,0,0:0:0:0:
475,192,79000,1,0,0:0:0:0:
109,192,79000,1,0,0:0:0:0:
256,192,79190,1,0,0:0:0:0:
402,192,79190,1,0,0:0:0:0:
36,192,79190,1,0,0:0:0:0:
182,192,79380,1,0,0:0:0:0:
402,192,79570,1,0,0:0:0:0:
109,192,79760,1,0,0:0:0:0:
36,192,79760,1,0,0:0:0:0:
475,192,79760,1,0,0:0:0:0:
256,192,79760,128,0,81658:0:0:0:0:
402,192,79949,1,0,0:0:0:0:
475,192,80139,1,0,0:0:0:0:
182,192,80139,1,0,0:0:0:0:
402,192,80329,1,0,0:0:0:0:
475,192,80519,1,0,0:0:0:0:
36,192,80519,1,0,0:0:0:0:
109,192,80519,1,0,0:0:0:0:
402,192,80709,1,0,0:0:0:0:
475,192,80899,1,0,0:0:0:0:
182,192,80899,1,0,0:0:0:0:
402,192,81089,1,0,0:0:0:0:
475,192,81279,1,0,0:0:0:0:
109,192,81279,1,0,0:0:0:0:
36,192,81279,1,0,0:0:0:0:
402,192,81468,1,0,0:0:0:0:
475,192,81658,1,0,0:0:0:0:
182,192,81658,1,0,0:0:0:0:
402,192,81848,1,0,0:0:0:0:
109,192,81848,1,0,0:0:0:0:
329,192,82038,1,0,0:0:0:0:
182,192,82038,1,0,0:0:0:0:
36,192,82038,1,0,0:0:0:0:
109,192,82228,1,0,0:0:0:0:
402,192,82228,1,0,0:0:0:0:
256,192,82418,1,0,0:0:0:0:
182,192,82608,1,0,0:0:0:0:
329,192,82608,1,0,0:0:0:0:
182,192,82703,1,0,0:0:0:0:
329,192,82703,1,0,0:0:0:0:
475,192,82798,1,0,0:0:0:0:
36,192,82798,1,0,0:0:0:0:
182,192,82987,1,0,0:0:0:0:
329,192,82987,1,0,0:0:0:0:
329,192,83082,1,0,0:0:0:0:
182,192,83082,1,0,0:0:0:0:
475,192,83177,1,0,0:0:0:0:
36,192,83177,1,0,0:0:0:0:
329,192,83367,1,0,0:0:0:0:
182,192,83367,1,0,0:0:0:0:
182,192,83462,1,0,0:0:0:0:
329,192,83462,1,0,0:0:0:0:
475,192,83557,1,0,0:0:0:0:
36,192,83557,1,0,0:0:0:0:
182,192,83747,1,0,0:0:0:0:
329,192,83747,1,0,0:0:0:0:
182,192,83842,1,0,0:0:0:0:
329,192,83842,1,0,0:0:0:0:
475,192,83937,1,0,0:0:0:0:
36,192,83937,1,0,0:0:0:0:
329,192,84127,1,0,0:0:0:0:
182,192,84127,1,0,0:0:0:0:
182,192,84222,1,0,0:0:0:0:
329,192,84222,1,0,0:0:0:0:
475,192,84317,1,0,0:0:0:0:
36,192,84317,1,0,0:0:0:0:
329,192,84506,1,0,0:0:0:0:
182,192,84506,1,0,0:0:0:0:
182,192,84601,1,0,0:0:0:0:
329,192,84601,1,0,0:0:0:0:
475,192,84696,1,0,0:0:0:0:
36,192,84696,1,0,0:0:0:0:
109,192,84886,1,0,0:0:0:0:
329,192,84886,1,0,0:0:0:0:
182,192,85076,1,0,0:0:0:0:
402,192,85076,1,0,0:0:0:0:
475,192,85266,1,0,0:0:0:0:
256,192,85266,1,0,0:0:0:0:
475,192,85456,1,0,0:0:0:0:
329,192,85456,1,0,0:0:0:0:
182,192,85456,1,0,0:0:0:0:
36,192,85456,1,0,0:0:0:0:
402,192,85836,1,0,0:0:0:0:
329,192,85836,1,0,0:0:0:0:
182,192,85836,1,0,0:0:0:0:
109,192,85836,1,0,0:0:0:0:
329,192,86215,1,0,0:0:0:0:
475,192,86215,1,0,0:0:0:0:
182,192,86310,1,0,0:0:0:0:
36,192,86310,1,0,0:0:0:0:
402,192,86500,1,0,0:0:0:0:
256,192,86500,1,0,0:0:0:0:
109,192,86500,1,0,0:0:0:0:
329,192,86785,128,0,87165:0:0:0:0:
475,192,86785,128,0,87165:0:0:0:0:
182,192,86785,1,0,0:0:0:0:
36,192,86785,1,0,0:0:0:0:
36,192,87165,1,0,0:0:0:0:
182,192,87165,1,0,0:0:0:0:
256,192,87355,1,0,0:0:0:0:
109,192,87355,1,0,0:0:0:0:
256,192,87544,1,0,0:0:0:0:
402,192,87544,1,0,0:0:0:0:
329,192,87734,1,0,0:0:0:0:
475,192,87734,1,0,0:0:0:0:
36,192,88114,128,0,88399:0:0:0:0:
109,192,88114,128,0,88399:0:0:0:0:
182,192,88114,128,0,88399:0:0:0:0:
329,192,88114,128,0,88399:0:0:0:0:
402,192,88114,128,0,88399:0:0:0:0:
475,192,88114,128,0,88399:0:0:0:0:
