osu file format v12

[General]
AudioFilename: nyaruko2.mp3
AudioLeadIn: 1750
PreviewTime: 263
Countdown: 0
SampleSet: Soft
StackLeniency: 0.7
Mode: 0
LetterboxInBreaks: 0

[Editor]
Bookmarks: 108553
DistanceSpacing: 1
BeatDivisor: 4
GridSize: 4

[Metadata]
Title:Koi wa Chaos no Shimobenari (TV Size)
TitleUnicode:恋は渾沌の隷也 (TV Size)
Artist:Ushirokara Haiyoritai G
ArtistUnicode:後ろから這いより隊G
Creator:Kawayi Rika
Version:Rika
Source:Haiyore! Nyaruko-san W
Tags:opening nyaruko season 2 Saten Saten-san Darksonic Vicho kanpakyin mintong89 Kana Asumi Miyu Matsuki Yuka Otsubo
BeatmapID:233070
BeatmapSetID:84646

[Difficulty]
HPDrainRate:7
CircleSize:4
OverallDifficulty:7
ApproachRate:8
SliderMultiplier:1.8
SliderTickRate:1

[Events]
//Background and Video events
0,0,"BG.png",0,0
Video,0,"Haiyore! Nyaruko-san W op.avi"
//Break Periods
//Storyboard Layer 0 (Background)
//Storyboard Layer 1 (Fail)
//Storyboard Layer 2 (Pass)
//Storyboard Layer 3 (Foreground)
//Storyboard Sound Samples
//Background Colour Transformations
3,100,163,162,255

[TimingPoints]
358,379.746835443038,4,2,1,70,1,0
3016,-100,4,2,2,95,0,0
3395,-100,4,2,1,65,0,0
15168,-100,4,2,2,80,0,0
15547,-100,4,2,1,50,0,0
15642,-100,4,2,2,70,0,0
21623,-100,4,2,1,55,0,0
21718,-100,4,2,2,70,0,0
27699,-133.333333333333,4,2,1,50,0,0
38332,-133.333333333333,4,2,1,5,0,0
39471,-133.333333333333,4,2,2,80,0,0
39851,-100,4,2,1,50,0,0
39946,-100,4,2,2,70,0,0
45927,-100,4,2,1,50,0,0
46022,-100,4,2,2,70,0,0
52003,-100,4,2,1,60,0,0
52098,-100,4,2,2,65,0,0
58079,-100,4,2,1,50,0,0
58174,-100,4,2,2,65,0,0
63395,-100,4,2,2,55,0,0
64250,-100,4,2,1,50,0,0
65294,-100,4,2,2,5,0,0
65389,-100,4,2,1,50,0,0
66813,-100,4,2,2,50,0,0
67193,-100,4,2,1,65,0,1
67288,-100,4,2,2,75,0,1
73269,-100,4,2,1,65,0,1
73364,-100,4,2,2,75,0,1
79345,-100,4,2,1,60,0,1
79440,-100,4,2,2,75,0,1
82383,-100,4,2,1,60,0,1
82478,-100,4,2,2,75,0,1
84661,-100,4,2,1,40,0,1
84851,-100,4,2,1,45,0,1
85041,-100,4,2,1,55,0,1
85421,-100,4,2,1,65,0,1
88079,-100,4,2,2,80,0,0

[Colours]
Combo1 : 179,115,155
Combo2 : 160,160,160
Combo3 : 241,48,37
Combo4 : 222,243,33

[HitObjects]
144,52,358,1,8,0:0:0:0:
256,192,738,1,8,0:0:0:0:
368,52,1118,1,8,0:0:0:0:
368,52,1213,2,0,L|400:20,2,45,0|0|0,0:0|0:0|0:0,0:0:0:0:
384,188,1688,2,0,P|428:268|512:300,1,180,8|0,0:0|0:0,0:0:0:0:
404,356,2257,5,8,0:0:0:0:
256,284,2447,1,8,0:0:0:0:
108,356,2637,1,8,0:0:0:0:
108,28,3017,1,4,0:0:0:0:
404,28,3396,6,0,P|448:40|480:76,1,90,4|0,0:0|0:0,0:0:0:0:
484,96,3681,1,0,0:0:0:0:
476,124,3776,1,8,0:0:0:0:
420,192,3966,1,0,0:0:0:0:
328,344,4156,1,0,0:0:0:0:
448,276,4345,1,0,0:0:0:0:
424,292,4440,1,0,0:0:0:0:
396,296,4535,1,8,0:0:0:0:
372,284,4631,2,0,P|364:264|360:240,1,45
220,156,4915,5,0,0:0:0:0:
196,144,5010,1,0,0:0:0:0:
168,148,5105,1,0,0:0:0:0:
148,164,5200,1,0,0:0:0:0:
140,188,5295,2,0,P|87:231|24:214,1,135,8|0,0:0|0:0,0:0:0:0:
73,162,5675,2,0,P|64:123|36:83,1,90
220,156,6055,2,0,P|229:195|257:235,1,90,8|0,0:0|0:0,0:0:0:0:
347,347,6434,6,0,L|486:345,1,135
510,277,6814,2,0,P|501:238|473:198,1,90,8|0,0:0|0:0,0:0:0:0:
488,108,7194,1,0,0:0:0:0:
460,100,7289,1,0,0:0:0:0:
432,104,7384,1,0,0:0:0:0:
408,120,7479,1,0,0:0:0:0:
392,144,7574,2,0,P|344:143|308:123,1,90,8|0,0:0|0:0,0:0:0:0:
184,52,7953,6,0,P|116:44|48:76,1,135,0|0,0:0|0:0,0:0:0:0:
28,136,8333,2,0,P|16:204|52:264,1,135,8|0,0:0|0:0,0:0:0:0:
100,308,8713,2,0,P|168:316|236:284,1,135,0|0,0:0|0:0,0:0:0:0:
248,272,9093,1,8,0:0:0:0:
272,264,9188,1,0,0:0:0:0:
300,264,9283,1,0,0:0:0:0:
324,272,9377,1,0,0:0:0:0:
344,292,9472,6,0,L|392:316,2,45,4|0|0,0:0|0:0|0:0,0:0:0:0:
456,348,9852,1,8,0:0:0:0:
476,224,10042,1,0,0:0:0:0:
496,100,10232,2,0,L|448:76,3,45,0|0|0|0,0:0|0:0|0:0|0:0,0:0:0:0:
432,68,10612,2,0,P|388:52|340:60,1,90,8|0,0:0|0:0,0:0:0:0:
184,132,10991,6,0,P|164:88|176:44,1,90
264,128,11371,2,0,P|260:172|228:204,1,90,8|0,0:0|0:0,0:0:0:0:
138,202,11751,2,0,P|162:266|218:294,1,135
256,300,12131,1,8,0:0:0:0:
380,292,12321,1,0,0:0:0:0:
456,192,12510,5,8,0:0:0:0:
132,32,12890,1,8,0:0:0:0:
132,352,13270,1,8,0:0:0:0:
132,352,13365,1,0,0:0:0:0:
44,192,13555,1,8,0:0:0:0:
44,192,13650,1,0,0:0:0:0:
224,192,13840,6,0,L|404:192,1,180,8|0,0:0|0:0,0:0:0:0:
512,240,14409,2,0,L|428:272,1,90,8|8,0:0|0:0,0:0:0:0:
428,112,14789,2,0,L|512:144,1,90,8|0,0:0|0:0,0:0:0:0:
404,192,15169,1,4,0:0:0:0:
324,32,15548,6,0,L|188:32,1,135,4|0,0:0|0:0,0:0:0:0:
160,32,15928,2,0,P|120:48|88:92,1,90,8|0,0:0|0:0,0:0:0:0:
16,224,16308,2,0,P|56:207|84:172,1,90
168,136,16688,1,8,0:0:0:0:
180,280,16877,1,0,0:0:0:0:
256,328,17067,5,0,0:0:0:0:
332,280,17257,2,0,L|376:312,2,45,0|0|8,0:0|0:0|0:0,0:0:0:0:
388,208,17637,1,0,0:0:0:0:
388,208,17827,2,0,P|372:120|440:64,1,180,0|8,0:0|0:0,0:0:0:0:
456,152,18396,1,0,0:0:0:0:
434,66,18586,1,0,0:0:0:0:
340,28,18776,5,0,0:0:0:0:
316,40,18871,1,0,0:0:0:0:
292,44,18966,2,0,P|244:48|204:72,1,90,8|0,0:0|0:0,0:0:0:0:
12,224,19346,2,0,P|72:228|132:188,1,135
152,120,19726,2,0,P|188:144|202:195,1,90,8|0,0:0|0:0,0:0:0:0:
328,292,20105,6,0,P|368:316|428:312,1,90
432,304,20390,1,0,0:0:0:0:
448,280,20485,2,0,L|477:194,1,90,8|0,0:0|0:0,0:0:0:0:
508,108,20865,2,0,P|452:68|380:68,1,135
364,80,21245,2,0,P|320:80|276:60,1,90,8|0,0:0|0:0,0:0:0:0:
194,178,21624,6,0,B|142:194|146:242|86:262,1,135,4|0,0:0|0:0,0:0:0:0:
20,237,22004,2,0,P|31:300|91:334,1,135,8|0,0:0|0:0,0:0:0:0:
115,333,22384,2,0,L|207:333,1,90
434,260,22764,2,0,L|344:260,1,90,8|0,0:0|0:0,0:0:0:0:
292,333,23143,5,0,0:0:0:0:
252,252,23332,1,0,0:0:0:0:
252,252,23428,1,0,0:0:0:0:
252,252,23523,2,0,P|224:200|232:120,1,135,8|0,0:0|0:0,0:0:0:0:
272,68,23903,2,0,P|336:48|404:68,1,135
472,84,24283,2,0,P|448:120|396:140,1,90,8|0,0:0|0:0,0:0:0:0:
352,212,24662,1,0,0:0:0:0:
380,352,24852,6,0,L|428:320,2,45,0|0|8,0:0|0:0|0:0,0:0:0:0:
292,332,25232,1,0,0:0:0:0:
204,352,25422,2,0,B|156:352|156:352|112:360,1,90
16,252,25802,2,0,B|64:252|64:252|108:244,1,90,8|0,0:0|0:0,0:0:0:0:
16,132,26181,2,0,B|64:132|64:132|108:140,1,90
132,144,26466,1,0,0:0:0:0:
156,152,26561,2,0,B|204:152|204:152|248:144,1,90,8|0,0:0|0:0,0:0:0:0:
360,60,26941,2,0,P|416:24|484:36,1,135
488,60,27321,2,0,L|516:160,1,90,8|0,0:0|0:0,0:0:0:0:
464,272,27700,6,0,L|396:300,1,67.5000025749208,4|0,0:0|0:0,0:0:0:0:
332,260,28080,2,0,L|264:288,1,67.5000025749208,2|0,0:0|0:0,0:0:0:0:
192,312,28460,1,2,0:0:0:0:
116,340,28650,1,0,0:0:0:0:
40,308,28840,1,2,0:0:0:0:
24,228,29029,1,0,0:0:0:0:
84,172,29219,5,0,0:0:0:0:
428,172,29599,1,2,0:0:0:0:
300,76,29979,2,0,P|306:46|298:10,1,67.5000025749208,2|0,0:0|0:0,0:0:0:0:
212,12,30358,2,0,P|204:48|210:77,1,67.5000025749208,2|0,0:0|0:0,0:0:0:0:
256,144,30738,5,2,0:0:0:0:
196,200,30928,1,0,0:0:0:0:
216,280,31118,1,2,0:0:0:0:
296,280,31308,1,0,0:0:0:0:
316,200,31498,1,2,0:0:0:0:
396,192,31688,1,0,0:0:0:0:
428,268,31877,1,2,0:0:0:0:
368,324,32067,1,0,0:0:0:0:
216,280,32257,6,0,L|148:280,1,67.5000025749208,2|0,0:0|0:0,0:0:0:0:
16,328,32637,2,0,L|84:328,1,67.5000025749208,2|0,0:0|0:0,0:0:0:0:
72,248,33017,2,0,P|52:224|48:176,1,67.5000025749208,2|0,0:0|0:0,0:0:0:0:
44,168,33302,1,0,0:0:0:0:
52,148,33396,1,2,0:0:0:0:
124,184,33586,1,0,0:0:0:0:
202,182,33776,6,0,P|196:148|176:124,2,67.5000025749208,4|0|2,0:0|0:0|0:0,0:0:0:0:
256,244,34346,1,0,0:0:0:0:
316,300,34536,2,0,P|322:334|342:358,1,67.5000025749208,2|0,0:0|0:0,0:0:0:0:
396,300,34915,2,0,P|428:320|464:324,1,67.5000025749208,2|0,0:0|0:0,0:0:0:0:
456,244,35295,6,0,P|489:226|510:197,1,67.5000025749208,2|0,0:0|0:0,0:0:0:0:
436,164,35675,1,2,0:0:0:0:
356,164,35865,1,0,0:0:0:0:
356,84,36055,2,0,L|276:84,1,67.5000025749208,2|0,0:0|0:0,0:0:0:0:
228,140,36434,2,0,L|148:140,1,67.5000025749208,2|0,0:0|0:0,0:0:0:0:
96,260,36814,5,2,0:0:0:0:
188,360,37004,1,0,0:0:0:0:
324,360,37194,1,2,0:0:0:0:
416,260,37384,1,0,0:0:0:0:
217,214,37574,6,0,B|205:250|205:250|208:280,1,67.5000025749208,2|0,0:0|0:0,0:0:0:0:
304,280,37953,2,0,B|306:250|306:250|294:214,1,67.5000025749208,2|0,0:0|0:0,0:0:0:0:
256,192,38333,12,4,39472,0:0:0:0:
244,112,39852,6,0,P|312:116|376:164,1,135,4|0,0:0|0:0,0:0:0:0:
384,172,40232,2,0,P|420:196|472:200,1,90,8|0,0:0|0:0,0:0:0:0:
452,112,40612,1,0,0:0:0:0:
466,201,40802,2,0,P|492:236|496:288,1,90,0|8,0:0|0:0,0:0:0:0:
428,340,41181,1,0,0:0:0:0:
336,340,41370,5,0,0:0:0:0:
248,360,41560,1,0,0:0:0:0:
248,360,41655,1,0,0:0:0:0:
248,360,41751,2,0,P|200:364|156:348,1,90,8|0,0:0|0:0,0:0:0:0:
36,280,42131,2,0,P|0:208|28:100,1,180,0|8,0:0|0:0,0:0:0:0:
88,56,42700,2,0,P|128:36|176:40,1,90
340,38,43080,5,0,0:0:0:0:
340,38,43175,1,0,0:0:0:0:
340,38,43270,2,0,P|384:52|416:80,1,90,8|0,0:0|0:0,0:0:0:0:
468,32,43650,2,0,P|415:82|397:146,1,135
464,172,44029,2,0,P|432:204|388:214,1,90,8|0,0:0|0:0,0:0:0:0:
256,272,44409,5,0,0:0:0:0:
168,316,44599,1,0,0:0:0:0:
56,280,44789,1,8,0:0:0:0:
40,156,44979,1,0,0:0:0:0:
140,80,45169,1,0,0:0:0:0:
256,132,45358,2,0,L|256:72,2,45,0|0|8,0:0|0:0|0:0,0:0:0:0:
372,80,45738,1,0,0:0:0:0:
492,120,45928,6,0,P|446:194|500:268,1,180,4|8,0:0|0:0,0:0:0:0:
20,120,46688,2,0,P|66:194|12:268,1,180,0|8,0:0|0:0,0:0:0:0:
88,324,47257,1,0,0:0:0:0:
172,288,47447,1,0,0:0:0:0:
256,324,47637,1,0,0:0:0:0:
256,324,47732,1,0,0:0:0:0:
256,324,47827,1,8,0:0:0:0:
340,288,48017,1,0,0:0:0:0:
424,324,48207,2,0,P|448:260|504:220,1,135
464,160,48586,2,0,P|496:128|508:80,1,90,8|0,0:0|0:0,0:0:0:0:
376,0,48965,6,0,P|344:32|332:80,1,90,0|0,0:0|0:0,0:0:0:0:
320,96,49250,1,0,0:0:0:0:
320,124,49345,1,8,0:0:0:0:
268,200,49535,1,0,0:0:0:0:
220,276,49725,2,0,P|152:284|100:328,1,135
52,276,50104,2,0,P|16:244|8:200,1,90,8|0,0:0|0:0,0:0:0:0:
60,48,50484,5,0,0:0:0:0:
80,208,50674,1,0,0:0:0:0:
188,124,50864,1,8,0:0:0:0:
344,88,51054,1,0,0:0:0:0:
464,124,51244,1,0,0:0:0:0:
496,264,51433,2,0,P|456:284|432:328,1,90,0|8,0:0|0:0,0:0:0:0:
308,344,51813,5,0,0:0:0:0:
308,344,51908,1,0,0:0:0:0:
308,344,52003,2,0,B|244:344|244:344|212:352,1,90,4|0,0:0|0:0,0:0:0:0:
176,272,52383,2,0,B|112:272|112:272|80:264,1,90,8|0,0:0|0:0,0:0:0:0:
64,108,52763,1,0,0:0:0:0:
32,192,52952,1,0,0:0:0:0:
123,152,53142,2,0,P|136:109|120:62,1,90,8|0,0:0|0:0,0:0:0:0:
280,24,53522,6,0,P|267:67|282:113,1,90
296,132,53807,1,0,0:0:0:0:
320,144,53902,2,0,P|365:148|405:124,1,90,8|0,0:0|0:0,0:0:0:0:
348,68,54282,1,0,0:0:0:0:
476,8,54471,1,0,0:0:0:0:
403,127,54661,1,8,0:0:0:0:
460,260,54851,1,0,0:0:0:0:
320,340,55041,6,0,L|220:352,1,90
180,276,55421,2,0,L|80:288,1,90,8|0,0:0|0:0,0:0:0:0:
32,356,55801,1,0,0:0:0:0:
90,287,55990,1,0,0:0:0:0:
68,272,56085,1,0,0:0:0:0:
52,252,56180,2,0,P|36:208|40:156,1,90,8|0,0:0|0:0,0:0:0:0:
128,52,56560,5,0,0:0:0:0:
180,124,56750,1,0,0:0:0:0:
180,124,56845,1,0,0:0:0:0:
180,124,56940,2,0,P|224:144|272:144,1,90,8|0,0:0|0:0,0:0:0:0:
457,69,57320,2,0,P|413:49|372:48,1,90
340,256,57699,2,0,P|384:276|425:277,1,90,8|0,0:0|0:0,0:0:0:0:
432,252,57984,1,0,0:0:0:0:
438,225,58079,6,0,L|414:333,1,90,4|0,0:0|0:0,0:0:0:0:
332,360,58459,2,0,B|308:360|308:360|252:352|252:352|228:352,1,90,8|0,0:0|0:0,0:0:0:0:
144,360,58839,2,0,B|100:344|100:344|64:308,1,90
24,228,59218,1,8,0:0:0:0:
104,116,59408,2,0,P|68:92|16:92,2,90
184,156,59978,1,8,0:0:0:0:
248,92,60168,2,0,L|352:76,1,90
496,116,60547,5,0,0:3:0:0:
464,236,60737,1,8,0:0:0:0:
356,332,60927,1,0,0:3:0:0:
232,340,61117,6,0,P|160:336|96:360,1,135
64,296,61497,2,0,P|28:272|8:224,1,90,8|0,0:0|0:0,0:0:0:0:
36,88,61876,1,0,0:0:0:0:
84,224,62066,1,0,0:0:0:0:
212,124,62256,2,0,P|236:87|284:67,1,90,8|0,0:0|0:0,0:0:0:0:
304,68,62541,1,0,0:0:0:0:
332,68,62636,6,0,L|432:68,2,90,0|0|8,0:0|0:0|0:0,0:0:0:0:
292,148,63206,2,0,P|324:180|372:196,1,90,0|8,0:0|0:0,0:0:0:0:
508,196,63585,1,8,0:0:0:0:
508,196,63680,1,8,0:0:0:0:
508,196,63775,2,0,P|476:228|460:276,1,90,8|8,0:0|0:0,0:0:0:0:
180,332,64345,5,8,0:0:0:0:
4,288,64534,1,8,0:0:0:0:
180,240,64724,1,8,0:0:0:0:
84,88,64914,2,0,B|128:164|52:184|93:266,1,180,8|0,0:0|0:0,0:0:0:0:
212,128,65484,5,8,0:0:0:0:
372,44,65674,1,8,0:0:0:0:
452,204,65864,1,8,0:0:0:0:
296,292,66054,1,8,0:0:0:0:
212,128,66244,1,8,0:0:0:0:
296,292,66433,6,0,L|452:204,1,180,8|2,0:0|3:0,0:0:0:0:
372,44,67193,6,0,P|304:48|240:88,1,135,4|0,0:0|0:0,0:0:0:0:
232,104,67573,2,0,P|200:136|156:152,1,90,8|0,0:0|0:0,0:0:0:0:
32,216,67952,1,0,0:0:0:0:
32,216,68047,1,0,0:0:0:0:
32,216,68142,2,0,P|52:260|92:292,1,90,0|8,0:0|0:0,0:0:0:0:
168,256,68522,1,0,0:0:0:0:
328,264,68712,5,0,0:0:0:0:
400,320,68902,1,0,0:0:0:0:
420,232,69092,2,0,L|460:212,1,45,8|0,0:0|0:0,0:0:0:0:
456,48,69376,2,0,L|412:36,1,45,0|0,0:0|0:0,0:0:0:0:
328,64,69661,1,8,0:0:0:0:
256,120,69851,1,8,0:0:0:0:
184,64,70041,5,0,0:0:0:0:
184,64,70136,1,0,0:0:0:0:
184,64,70231,2,0,P|152:96|108:112,1,90
16,168,70611,2,0,P|56:184|84:224,1,90,8|0,0:0|0:0,0:0:0:0:
120,304,70990,2,0,P|164:312|208:302,1,90
308,348,71370,1,8,0:0:0:0:
380,244,71560,2,0,P|424:164|512:132,1,180
476,48,72130,5,8,0:0:0:0:
392,80,72320,1,0,0:0:0:0:
392,80,72414,1,0,0:0:0:0:
392,80,72509,2,0,P|348:72|304:80,1,90
120,80,72889,2,0,P|164:72|208:80,1,90,8|0,0:0|0:0,0:0:0:0:
164,220,73269,6,0,P|172:264|164:316,1,90,4|0,0:0|0:0,0:0:0:0:
152,332,73554,1,0,0:0:0:0:
128,344,73649,2,0,P|80:352|40:344,1,90,8|0,0:0|0:0,0:0:0:0:
88,172,74028,2,0,P|40:164|0:172,2,90,0|0|8,0:0|0:0|0:0,0:0:0:0:
164,220,74598,1,0,0:0:0:0:
312,152,74788,5,0,0:0:0:0:
368,224,74978,1,0,0:0:0:0:
404,64,75168,2,0,L|364:44,1,45,8|0,0:0|0:0,0:0:0:0:
512,112,75452,2,0,P|472:164|464:240,1,135,0|8,0:0|0:0,0:0:0:0:
492,316,75927,1,8,0:0:0:0:
424,376,76117,1,0,0:0:0:0:
264,352,76307,6,0,P|216:352|172:332,1,90
60,116,76687,2,0,P|101:121|142:145,1,90,8|0,0:0|0:0,0:0:0:0:
60,240,77066,1,0,0:0:0:0:
184,232,77256,1,0,0:0:0:0:
292,88,77446,1,8,0:0:0:0:
244,164,77636,6,0,P|308:224|396:240,1,180
424,232,78111,1,0,0:0:0:0:
444,216,78206,1,8,0:0:0:0:
512,272,78395,2,0,P|472:292|448:332,1,90
256,352,78775,1,0,0:0:0:0:
63,329,78965,2,0,P|40:292|0:272,2,90,8|0|4,0:0|0:0|0:0,0:0:0:0:
172,260,79535,5,0,0:0:0:0:
256,352,79725,1,8,0:0:0:0:
340,260,79914,1,0,0:0:0:0:
256,164,80104,1,0,0:0:0:0:
172,68,80294,1,0,0:0:0:0:
340,68,80484,1,8,0:0:0:0:
256,164,80674,1,0,0:0:0:0:
428,276,80864,6,0,B|376:260|376:260|324:260,1,90
256,352,81244,2,0,B|220:352|220:352|168:336,1,90,8|0,0:0|0:0,0:0:0:0:
20,272,81623,1,0,0:0:0:0:
16,108,81813,1,0,0:0:0:0:
172,68,82003,1,8,0:0:0:0:
340,68,82193,1,0,0:0:0:0:
496,108,82383,5,4,0:0:0:0:
472,268,82573,2,0,L|440:228,2,45,0|0|8,0:0|0:0|0:0,0:0:0:0:
296,228,82952,2,0,L|264:268,2,45
144,328,83332,2,0,L|172:363,2,45,0|0|8,0:0|0:0|0:0,0:0:0:0:
24,192,83712,1,0,0:0:0:0:
144,56,83902,2,0,L|200:24,1,45
208,44,84092,2,0,L|252:36,1,45
272,56,84282,2,0,L|312:76,1,45,8|0,0:0|0:0,0:0:0:0:
336,88,84471,1,0,0:0:0:0:
460,108,84661,5,8,0:0:0:0:
372,168,84851,1,8,0:0:0:0:
372,276,85041,1,8,0:0:0:0:
460,336,85231,1,8,0:0:0:0:
460,228,85421,5,8,0:0:0:0:
256,376,85801,1,8,0:0:0:0:
52,228,86180,1,8,0:0:0:0:
52,228,86275,2,0,L|20:196,2,45,0|0|0,0:0|0:0|0:0,0:0:0:0:
256,48,86750,6,0,B|300:124|224:144|265:226,1,180,8|8,0:0|0:0,0:0:0:0:
192,96,87320,1,8,0:0:0:0:
332,176,87509,1,8,0:0:0:0:
192,260,87699,1,8,0:0:0:0:
256,48,88079,5,4,0:0:0:0:
