osu file format v14

[General]
AudioFilename: Haiyore Once Nyagain.mp3
AudioLeadIn: 0
PreviewTime: 7153
Countdown: 0
SampleSet: Soft
StackLeniency: 0.7
Mode: 0
LetterboxInBreaks: 0
WidescreenStoryboard: 0

[Editor]
DistanceSpacing: 1
BeatDivisor: 4
GridSize: 8
TimelineZoom: 1

[Metadata]
Title:Haiyore Once Nyagain
TitleUnicode:這いよれOnce Nyagain
Artist:Ushirokara Haiyoritai G
ArtistUnicode:後ろから這いより隊G
Creator:wcx19911123
Version:Normal
Source:這いよれ!ニャル子さんF
Tags:這いよれ!ニャル子さん Haiyore! Nyaruko-san F TV Size opening OP OVA yf_bmp
BeatmapID:671786
BeatmapSetID:298770

[Difficulty]
HPDrainRate:4
CircleSize:3.5
OverallDifficulty:4
ApproachRate:5
SliderMultiplier:1.12
SliderTickRate:1

[Events]
//Background and Video events
0,0,"bg.jpg",0,0
//Break Periods
//Storyboard Layer 0 (Background)
//Storyboard Layer 1 (Fail)
//Storyboard Layer 2 (Pass)
//Storyboard Layer 3 (Foreground)
//Storyboard Sound Samples

[TimingPoints]
296,428.571428571429,4,2,1,65,1,0
14010,-100,4,2,1,55,0,0
51724,-100,4,2,1,60,0,0
60296,-100,4,2,1,65,0,0
67153,-100,4,2,1,70,0,1
80653,-100,4,2,1,50,0,1
80867,-100,4,2,1,65,0,0

[Colours]
Combo1 : 255,255,85
Combo2 : 200,200,200
Combo3 : 250,56,62

[HitObjects]
176,112,296,6,0,P|232:104|288:120,2,112,4|2|0,0:0|0:0|0:0,0:0:0:0:
96,192,1581,1,4,0:0:0:0:
168,280,2010,6,0,L|280:272,1,112,4|2,0:0|0:0,0:0:0:0:
360,296,2760,2,0,P|392:288|416:264,1,56,0|2,0:0|0:0,0:0:0:0:
448,200,3296,2,0,P|440:152|400:104,1,112,4|12,0:0|0:0,0:0:0:0:
348,84,3938,5,8,0:0:0:0:
292,76,4153,2,0,L|236:76,2,56,8|8|8,0:0|0:0|0:0,0:0:0:0:
304,184,5010,1,8,0:0:0:0:
216,256,5438,6,0,L|160:256,1,56,8|8,0:0|0:0,0:0:0:0:
120,296,5867,2,0,P|144:312|168:360,2,84,8|8|8,0:0|0:0|0:0,0:0:0:0:
64,288,6724,1,12,0:0:0:0:
8,192,7153,5,4,0:0:0:0:
8,192,7367,1,10,0:0:0:0:
64,96,7796,1,10,0:0:0:0:
168,136,8224,2,0,L|176:192,2,56,10|2|10,0:0|0:0|0:0,0:0:0:0:
256,64,9081,5,10,0:0:0:0:
272,176,9510,1,10,0:0:0:0:
376,216,9938,1,10,0:0:0:0:
376,216,10153,1,2,0:0:0:0:
376,216,10367,1,10,0:0:0:0:
376,328,10796,5,10,0:0:0:0:
280,272,11224,1,10,0:0:0:0:
168,288,11653,2,0,L|152:344,2,56,10|2|10,0:0|0:0|0:0,0:0:0:0:
136,240,12296,6,0,L|128:184,1,56,4|8,0:0|0:0,0:0:0:0:
88,144,12724,2,0,P|48:144|8:120,2,84,8|8|8,0:0|0:0|0:0,0:0:0:0:
136,112,13581,1,12,0:0:0:0:
232,56,14010,5,4,0:0:0:0:
288,48,14224,2,0,P|320:56|344:72,1,56,0|8,0:0|0:0,0:0:0:0:
416,152,14867,2,0,L|432:64,2,84,0|0|2,0:0|0:0|0:0,0:0:0:0:
376,192,15724,6,0,P|344:208|312:208,1,56,4|0,0:3|0:0,0:0:0:0:
272,192,16153,2,0,P|240:184|184:192,1,84,8|2,0:0|0:0,0:0:0:0:
120,232,16796,1,4,0:3:0:0:
120,232,17010,1,8,0:0:0:0:
48,320,17438,5,4,0:3:0:0:
96,348,17653,2,0,P|128:356|168:348,1,56,0|8,0:0|0:0,0:0:0:0:
256,304,18296,2,0,L|360:320,2,84,2|0|0,0:0|0:0|0:0,0:0:0:0:
204,280,19153,6,0,P|180:248|176:216,1,56,4|0,0:3|0:0,0:0:0:0:
176,176,19581,2,0,P|192:136|184:80,1,84,8|2,0:0|0:0,0:0:0:0:
136,32,20224,1,4,0:3:0:0:
136,32,20438,2,0,L|64:40,1,56,8|0,0:0|0:0,0:0:0:0:
48,84,20867,6,0,P|56:132|88:172,1,84,4|0,0:0|0:0,0:0:0:0:
152,184,21510,2,0,L|288:168,1,112,0|4,0:0|0:3,0:0:0:0:
300,128,22153,2,0,P|324:104|348:96,1,56,8|0,0:0|0:0,0:0:0:0:
400,88,22581,6,0,P|440:96|480:128,1,84,4|0,0:3|0:0,0:0:0:0:
488,204,23224,2,0,P|472:252|416:292,1,112,0|4,0:0|0:3,0:0:0:0:
368,292,23867,1,8,0:0:0:0:
288,216,24296,5,4,0:0:0:0:
240,192,24510,2,0,P|200:192|168:208,1,56,0|8,0:0|0:0,0:0:0:0:
104,272,25153,2,0,L|184:296,2,84,2|0|0,0:0|0:0|0:0,0:0:0:0:
56,240,26010,6,0,P|48:216|48:176,1,56,4|0,0:3|0:0,0:0:0:0:
56,128,26438,2,0,P|72:96|120:64,1,84,8|2,0:0|0:0,0:0:0:0:
192,48,27081,1,4,0:3:0:0:
192,48,27296,1,8,0:0:0:0:
248,144,27724,5,4,0:3:0:0:
296,176,27938,2,0,P|312:184|368:184,1,56,0|8,0:0|0:0,0:0:0:0:
448,136,28581,2,0,L|424:56,2,84,2|0|0,0:0|0:0|0:0,0:0:0:0:
480,184,29438,6,0,P|480:216|464:248,1,56,4|0,0:3|0:0,0:0:0:0:
436,284,29867,2,0,P|388:300|340:292,1,84,8|2,0:0|0:0,0:0:0:0:
280,256,30510,1,4,0:3:0:0:
280,256,30724,2,0,L|216:264,1,56,8|0,0:0|0:0,0:0:0:0:
184,224,31153,6,0,P|152:208|96:208,1,84,4|0,0:0|0:0,0:0:0:0:
52,140,31796,2,0,P|20:204|36:252,1,112,2|4,0:0|0:3,0:0:0:0:
68,280,32438,2,0,P|84:288|136:280,1,56,8|0,0:0|0:0,0:0:0:0:
168,256,32867,6,0,P|208:224|264:216,1,84,4|0,0:3|0:0,0:0:0:0:
280,144,33510,2,0,P|328:144|400:192,1,112,2|4,0:0|0:3,0:0:0:0:
416,220,34153,2,0,L|432:276,1,56,8|8,0:0|0:3,0:0:0:0:
448,328,34581,5,4,0:0:0:0:
336,304,35010,1,8,0:0:0:0:
252,316,35331,2,0,L|196:324,1,56,0|2,0:0|0:0,0:0:0:0:
112,332,35867,2,0,P|80:316|56:284,1,56,8|0,0:0|0:0,0:0:0:0:
40,252,36296,5,4,0:3:0:0:
24,144,36724,1,8,0:0:0:0:
108,128,37046,2,0,L|164:120,1,56,0|2,0:0|0:0,0:0:0:0:
248,104,37581,2,0,P|280:88|304:56,1,56,8|0,0:0|0:0,0:0:0:0:
312,20,38010,6,0,P|344:16|376:24,1,56,4|0,0:0|0:0,0:0:0:0:
416,48,38438,1,8,0:0:0:0:
440,160,38867,2,0,L|456:248,1,84,4|0,0:3|0:0,0:0:0:0:
472,324,39510,1,2,0:0:0:0:
416,336,39724,6,0,P|368:328|344:312,1,56,4|0,0:3|0:0,0:0:0:0:
320,288,40153,1,8,0:0:0:0:
272,216,40474,2,0,P|240:192|176:184,1,84,4|4,0:3|0:3,0:0:0:0:
160,224,41010,2,0,P|144:248|120:264,2,56,8|8|4,0:0|0:0|0:0,0:0:0:0:
152,168,41653,6,0,P|144:136|144:112,1,56,0|8,0:0|0:0,0:0:0:0:
224,32,42296,2,0,L|312:16,2,84,2|0|0,0:0|0:0|0:0,0:0:0:0:
232,88,43153,6,0,P|248:112|280:128,1,56,4|0,0:3|0:0,0:0:0:0:
328,136,43581,2,0,L|416:144,1,84,8|2,0:0|0:0,0:0:0:0:
496,152,44224,1,4,0:3:0:0:
496,152,44438,1,8,0:0:0:0:
440,248,44867,5,4,0:3:0:0:
416,296,45081,2,0,P|408:328|408:360,1,56,0|8,0:0|0:0,0:0:0:0:
304,304,45724,2,0,P|264:336|208:344,2,84,2|0|0,0:0|0:0|0:0,0:0:0:0:
336,256,46581,6,0,P|344:224|344:200,1,56,4|0,0:3|0:0,0:0:0:0:
336,144,47010,2,0,P|312:112|272:88,1,84,8|2,0:0|0:0,0:0:0:0:
192,72,47653,1,4,0:3:0:0:
192,72,47867,2,0,L|120:88,1,56,8|0,0:0|0:0,0:0:0:0:
88,112,48296,6,0,P|64:152|64:208,1,84,4|0,0:3|0:0,0:0:0:0:
120,248,48938,2,0,L|240:272,1,112,2|4,0:0|0:3,0:0:0:0:
272,232,49581,2,0,L|352:248,1,56,8|0,0:0|0:0,0:0:0:0:
384,248,50010,6,0,P|432:232|464:184,1,84,4|0,0:3|0:0,0:0:0:0:
480,128,50653,2,0,B|464:88|464:88|400:56,1,112,0|4,0:0|0:3,0:0:0:0:
352,40,51296,2,0,P|336:72|320:88,1,56,8|8,0:0|0:3,0:0:0:0:
272,112,51724,5,4,0:0:0:0:
160,128,52153,2,0,L|104:112,1,56,8|0,0:0|0:0,0:0:0:0:
72,72,52581,2,0,P|88:48|160:24,2,84,2|8|0,0:0|0:0|0:0,0:0:0:0:
56,128,53438,6,0,B|40:208|40:208|56:240,1,112,4|8,0:3|0:0,0:0:0:0:
88,280,54081,1,0,0:0:0:0:
128,240,54296,2,0,P|160:224|208:224,2,84,2|8|0,0:0|0:0|0:0,0:0:0:0:
144,296,55153,6,0,P|184:320|240:320,1,84,4|0,0:3|0:0,0:0:0:0:
296,288,55796,1,0,0:0:0:0:
336,248,56010,2,0,L|352:160,2,84,2|8|0,0:0|0:0|0:0,0:0:0:0:
352,304,56867,6,0,P|392:328|440:328,1,84,4|0,0:3|0:0,0:0:0:0:
496,280,57510,1,0,0:0:0:0:
488,224,57724,2,0,B|476:152|476:152|452:120,1,112,2|8,0:0|0:0,0:0:0:0:
376,40,58581,5,4,0:0:0:0:
320,136,59010,2,0,P|288:160|224:168,1,84,8|0,0:0|0:0,0:0:0:0:
192,160,59546,2,0,P|144:160|96:184,1,84,2|8,0:0|0:0,0:0:0:0:
76,216,60081,1,4,0:3:0:0:
76,216,60296,5,4,0:0:0:0:
128,320,60724,2,0,P|160:336|216:336,1,84,8|0,0:0|0:0,0:0:0:0:
256,312,61260,2,0,P|304:288|344:288,1,84,2|8,0:0|0:0,0:0:0:0:
388,300,61796,1,4,0:3:0:0:
388,300,62010,6,0,L|472:272,2,84,4|8|2,0:0|0:0|0:0,0:0:0:0:
368,248,62867,2,0,P|352:224|296:192,1,84,4|8,0:3|0:0,0:0:0:0:
224,184,63510,1,2,0:0:0:0:
252,136,63724,6,0,P|288:96|352:72,1,112,4|8,0:0|0:0,0:0:0:0:
396,72,64367,1,2,0:0:0:0:
444,100,64581,2,0,P|476:156|476:212,1,112,4|8,0:3|0:0,0:0:0:0:
416,296,65438,5,4,0:0:0:0:
368,328,65653,2,0,P|336:328|312:320,1,56,2|8,0:0|0:0,0:0:0:0:
248,272,66188,2,0,L|232:188,1,84,4|4,0:3|0:3,0:0:0:0:
220,136,66724,1,8,0:0:0:0:
144,56,67153,5,4,0:0:0:0:
40,96,67581,2,0,P|16:128|8:184,1,84,2|10,0:0|0:0,0:0:0:0:
40,216,68117,2,0,L|120:248,1,84,0|0,0:0|0:0,0:0:0:0:
168,268,68653,1,8,0:0:0:0:
216,296,68867,6,0,P|240:320|256:368,2,84,2|0|8,0:0|0:0|0:0,0:0:0:0:
216,240,69724,2,0,P|240:192|240:160,2,84,4|0|8,0:3|0:0|0:0,0:0:0:0:
168,268,70581,5,4,0:0:0:0:
120,168,71010,2,0,P|136:120|168:88,1,84,0|8,0:0|0:0,0:0:0:0:
208,72,71546,2,0,L|304:64,1,84,2|0,0:0|0:0,0:0:0:0:
348,60,72081,1,8,0:0:0:0:
400,72,72296,6,0,P|424:88|440:112,1,56,2|8,0:0|0:0,0:0:0:0:
456,164,72724,2,0,L|472:252,2,84,0|0|8,0:0|0:0|0:0,0:0:0:0:
400,148,73581,1,2,0:0:0:0:
320,224,74010,5,4,0:0:0:0:
264,320,74438,2,0,P|216:344|176:344,1,84,0|8,0:0|0:0,0:0:0:0:
132,336,74974,2,0,P|100:320|68:272,1,84,2|0,0:0|0:0,0:0:0:0:
56,228,75510,1,8,0:0:0:0:
52,172,75724,6,0,P|52:152|80:88,2,84,2|0|8,0:0|0:0|0:0,0:0:0:0:
104,196,76581,2,0,P|168:192|192:200,2,84,4|2|8,0:3|0:0|0:0,0:0:0:0:
56,228,77438,5,4,0:0:0:0:
144,304,77867,2,0,P|184:312|240:304,1,84,0|4,0:0|0:3,0:0:0:0:
272,272,78403,2,0,L|296:192,1,84,2|0,0:0|0:0,0:0:0:0:
316,140,78938,1,8,0:0:0:0:
352,96,79153,6,0,P|400:80|480:104,1,112,4|4,0:0|0:3,0:0:0:0:
512,192,80010,1,4,0:0:0:0:
512,248,80224,2,0,L|512:304,2,56,8|8|8,0:0|0:0|0:0,0:0:0:0:
464,216,80867,6,0,P|424:200|392:200,1,56,4|0,0:0|0:0,0:0:0:0:
360,224,81296,2,0,P|304:240|264:232,1,84,2|0,0:0|0:0,0:0:0:0:
232,208,81831,2,0,P|176:192|136:200,1,84,2|4,0:0|0:0,0:0:0:0:
88,288,82581,6,0,P|64:264|48:224,1,56,4|0,0:0|0:0,0:0:0:0:
36,192,83010,2,0,P|44:144|76:104,1,84,2|0,0:0|0:0,0:0:0:0:
108,80,83546,2,0,P|156:64|204:72,1,84,2|4,0:0|0:0,0:0:0:0:
280,128,84296,6,0,L|280:184,1,56,12|8,0:0|0:0,0:0:0:0:
232,208,84724,2,0,L|232:264,1,56,8|8,0:0|0:0,0:0:0:0:
256,312,85153,1,8,0:0:0:0:
360,352,85581,1,8,0:0:0:0:
456,296,86010,6,0,P|472:264|472:232,1,56,8|8,0:0|0:0,0:0:0:0:
464,188,86438,2,0,L|448:100,1,84,8|8,0:0|0:0,0:0:0:0:
432,24,87081,1,8,0:0:0:0:
432,24,87296,1,4,1:0:0:0:
