osu file format v9

[General]
AudioFilename: Usher ft Will.I.Am - OMG.mp3
AudioLeadIn: 0
PreviewTime: 14251
Countdown: 0
SampleSet: Soft
StackLeniency: 0.6
Mode: 0
LetterboxInBreaks: 0

[Editor]
DistanceSpacing: 1
BeatDivisor: 4
GridSize: 8

[Metadata]
Title:OMG
Artist:Usher ft. Will.I.Am
Creator:The 08 team_Bourdon
Version:Hard
Source:
Tags:Roddie

[Difficulty]
HPDrainRate:7
CircleSize:5
OverallDifficulty:7
ApproachRate:7
SliderMultiplier:1.6
SliderTickRate:1

[Events]
//Background and Video events
0,0,"BG1.jpg"
//Break Periods
2,102590,116721
2,192590,206260
//Storyboard Layer 0 (Background)
//Storyboard Layer 1 (Fail)
//Storyboard Layer 2 (Pass)
//Storyboard Layer 3 (Foreground)
//Storyboard Sound Samples
//Background Colour Transformations
3,100,226,226,226

[TimingPoints]
15160,461.538461538462,4,2,1,61,1,0
37313,-100,4,2,2,61,0,1
43559,-100,4,2,0,50,0,1
44021,-100,4,2,0,35,0,1
44482,-100,4,2,2,61,0,1
59006,-100,4,2,2,61,0,0
59367,-100,4,2,1,61,0,0
118544,-100,4,2,1,60,0,1
125713,-100,4,2,2,60,0,1
132160,-100,4,2,0,50,0,1
132736,-100,4,2,0,36,0,1
133098,-100,4,2,1,61,0,1
133313,-100,4,2,1,61,0,0
207160,-100,4,2,1,61,0,1
221813,-100,4,2,1,60,0,1
222044,-100,4,2,0,60,0,0

[Colours]
Combo1 : 210,105,250
Combo2 : 240,167,15
Combo3 : 255,231,55
Combo4 : 0,128,255

[HitObjects]
256,192,15159,1,0
256,32,15621,1,8
120,112,16083,1,2
256,192,16544,1,8
392,272,17006,5,2
256,352,17467,1,8
256,192,17929,1,2
112,120,18390,1,8
48,264,18852,6,0,B|112:320|200:336,1,160,2|8
352,312,19775,1,2
368,152,20236,2,8,B|288:168|224:248,1,160,8|0
96,312,21160,1,8
120,152,21621,6,0,B|200:208,1,80,2|0
216,272,22083,2,0,B|160:352,1,80,8|0
96,312,22544,2,0,B|16:256,1,80,2|0
88,208,23006,2,0,B|88:120|192:64|304:128|303:213,1,320,8|8
192,328,24390,5,2
352,328,24852,1,8
240,216,25313,1,2
400,216,25775,1,8
296,96,26236,6,0,B|376:96|432:24,2,160,2|8|2
256,256,27621,1,8
256,176,27852,2,0,B|176:176|120:104,1,160
40,96,28544,1,8
112,240,29006,1,2
32,256,29236,1,2
64,328,29467,1,8
216,272,29929,6,0,B|280:240|328:304|392:256,1,160,2|8
464,136,30852,2,0,B|400:168|352:104|288:152,1,160,0|8
168,224,31775,2,0,B|96:224|96:296|24:288,1,160,2|8
184,320,32698,2,0,B|248:352|296:288|360:336,1,160,0|8
392,176,33621,2,0,B|424:112|360:64|408:0,1,160,2|8
280,128,34544,6,0,B|248:208|152:256,2,160,0|8|0
424,64,35929,2,0,B|320:32,1,80,8|2
280,80,36390,2,0,B|248:184,1,80,0|2
296,224,36852,1,8
440,152,37313,5,8
344,280,37775,1,8
192,320,38236,5,8
112,320,38467,1,8
88,248,38698,1,0
152,200,38929,1,8
216,248,39160,1,8
256,96,39621,5,8
392,176,40083,5,8
392,256,40313,1,8
320,280,40544,1,2
272,216,40775,1,8
320,152,41006,1,8
240,288,41467,5,10
80,256,41929,5,8
80,176,42160,1,8
152,152,42390,1,2
200,216,42621,1,8
152,280,42852,1,8
232,144,43313,5,10
288,296,43775,1,0
384,168,44236,1,0
464,32,44698,6,0,B|408:56|288:48,1,160,8|10
144,56,45621,5,8
224,56,45852,1,8
248,128,46083,1,2
184,176,46313,1,8
120,128,46544,2,8,B|88:208|96:320,1,160,10|10
248,256,47467,5,8
248,336,47698,1,8
176,360,47929,1,2
128,296,48160,1,8
176,232,48390,2,0,B|96:200|-16:208,1,160,8|10
168,144,49313,5,10
168,64,49544,1,10
240,40,49775,1,0
288,104,50006,1,8
240,168,50236,1,8
96,248,50698,5,10
136,320,50929,1,0
216,320,51160,1,8
256,248,51390,1,8
216,176,51621,1,2
136,176,51852,1,8
176,248,52083,5,8
336,248,52544,1,10
424,112,53006,5,8
360,64,53236,1,8
280,40,53467,1,2
240,112,53698,1,8
224,192,53929,2,0,B|328:208|400:136,1,160,8|10
256,264,54852,5,8
320,312,55083,1,8
400,336,55313,1,2
440,264,55544,1,8
456,184,55775,5,8
312,104,56236,1,10
152,88,56698,2,0,B|104:168,1,80,8|8
152,224,57160,1,2
232,240,57390,2,0,B|280:160,1,80,8|8
424,232,58083,1,10
264,240,58544,2,0,B|360:240,1,80,8|8
184,240,59236,5,8
136,176,59467,1,0
160,104,59698,1,0
224,56,59929,1,8
296,80,60160,1,0
344,144,60390,1,0
352,224,60621,2,0,B|272:240,2,80,0|8|0
424,264,61313,5,0
400,344,61544,1,0
352,280,61775,1,8
320,352,62006,1,0
272,288,62236,2,0,B|304:208|392:192,1,160,0|8
256,104,63160,6,0,B|256:200,2,80,0|0|8
256,24,63852,1,0
256,104,64083,1,0
176,128,64313,2,0,B|136:208,1,80,0|8
176,272,64775,2,0,B|136:192,1,80
224,200,65236,2,0,B|312:200,1,80,0|8
384,200,65698,5,0
456,240,65929,1,0
496,168,66160,1,0
424,128,66390,1,8
272,184,66852,5,0
224,120,67083,1,0
304,104,67313,2,0,B|384:168,1,80,8|0
408,224,67775,1,0
376,296,68006,2,0,B|304:240|304:240,1,80,0|8
232,264,68467,5,0
200,192,68698,2,0,B|256:104,1,80
192,64,69160,1,8
120,96,69390,1,0
96,168,69621,2,0,B|72:264|104:360,1,160,0|8
248,368,70544,5,0
352,248,71006,1,0
384,88,71467,2,0,B|296:104,2,80,0|0|8
432,152,72160,1,0
464,224,72390,1,0
304,232,72852,1,8
376,88,73313,5,0
336,160,73544,1,0
416,160,73775,1,8
376,232,74006,1,0
376,312,74236,5,0
304,272,74467,1,0
304,352,74698,1,8
232,312,74929,1,0
160,272,75160,1,0
160,352,75390,1,0
88,312,75621,1,8
232,240,76083,6,0,B|312:272|400:240,1,160,0|8
240,176,77006,2,0,B|184:136|144:216|72:160,1,160,0|8
224,80,77929,6,0,B|176:160,2,80,0|0|8
304,80,78621,2,0,B|352:160,1,80
289,206,79083,2,0,B|353:142,1,80,0|8
288,296,79775,6,0,B|384:272|432:184,3,160,0|8|0|8
408,48,81621,6,0,B|368:136,1,80
336,192,82083,1,8
304,264,82313,1,0
232,232,82544,1,0
168,184,82775,2,0,B|104:136,1,80,0|8
256,88,83467,6,0,B|248:168|184:144|160:240,1,160,0|8
256,88,84390,2,0,B|264:168|328:144|352:240,1,160,0|8
440,88,85313,5,0
344,216,85775,1,8
184,224,86236,1,0
200,144,86467,1,0
248,80,86698,1,8
320,48,86929,1,0
400,40,87159,2,0,B|456:96,2,80,0|0|8
416,200,88083,5,0
344,240,88313,1,0
264,224,88544,2,0,B|218:210|170:258|106:234,1,160,8|0
256,192,89121,8,8,91313
408,176,91775,5,0
488,176,92006,2,0,B|488:88,1,80,0|8
408,88,92467,2,0,B|320:88,1,80
248,88,92929,1,0
248,168,93159,6,0,B|344:168,1,80,8|0
328,248,93621,1,0
248,248,93852,2,0,B|160:248,1,80,0|8
88,248,94313,2,0,B|48:176|160:144|48:96|96:0,1,240,0|8
168,40,95236,6,0,B|256:48,2,80
168,120,95929,1,8
168,200,96159,2,0,B|280:192,2,80
168,280,96852,1,8
328,280,97313,2,0,B|416:280|496:240,1,160,0|8
424,96,98236,5,0
392,168,98467,1,0
320,144,98698,1,8
352,72,98929,2,0,B|264:40,1,80
200,48,99390,2,0,B|124:75,1,80,0|8
120,152,99852,6,0,B|144:232|240:256,1,160
232,336,100544,1,8
232,256,100775,2,0,B|321:233|345:153,1,160
424,152,101467,1,8
344,152,101698,2,0,B|320:72|230:50,1,160
152,56,102390,1,8
256,312,117621,6,8,B|184:256|112:240,1,160,0|8
168,88,118544,2,8,B|240:144|312:160,2,160
310,160,119929,1,8
392,168,120159,2,8,B|456:224|432:328,1,160,0|0
352,312,120852,2,8,B|330:221|394:165,1,160,8|8
232,160,121775,1,8
72,144,122236,6,8,B|120:72|216:40,1,160
128,192,123159,1,8
288,160,123621,2,8,B|240:231|164:256,1,160
120,104,124544,2,0,B|169:41,1,80,8|0
248,48,125006,2,0,B|297:111,1,80,8|0
376,112,125467,2,0,B|425:49,1,80,8|0
464,120,125929,5,10
464,280,126390,1,10
328,200,126852,2,8,B|248:200,1,80,10|8
168,200,127313,2,8,B|272:200,1,80,2|8
248,200,127775,1,10
248,40,128236,5,10
248,200,128698,2,8,B|248:296,1,80,10|8
248,360,129159,2,8,B|248:280,1,80,2|8
248,280,129621,1,10
408,280,130083,5,10
248,280,130544,2,8,B|152:280,1,80,10|8
88,280,131006,2,8,B|184:280,1,80,2|8
168,280,131467,1,10
32,192,131929,5,8
184,144,132390,1,0
320,56,132852,1,0
376,208,133313,1,4
464,344,133775,1,8
304,328,134236,6,0,B|288:288|256:232,1,80
216,200,134698,2,0,B|112:184,1,80,8|0
56,192,135159,1,0
184,288,135621,1,8
24,264,136083,6,0,B|40:224|72:168,1,80
104,128,136544,2,0,B|208:112,1,80,8|0
264,112,137006,1,0
136,200,137467,1,8
296,184,137929,6,0,B|280:144|248:88,1,80
216,48,138390,2,0,B|112:32,1,80,8|0
56,32,138852,1,0
56,112,139083,6,0,B|144:112,1,80,0|8
216,120,139544,1,0
296,144,139775,1,0
312,224,140006,1,0
264,288,140236,2,0,B|216:360|112:352,1,160,8|0
120,192,141159,5,8
136,32,141621,2,0,B|152:72|184:128,1,80
208,176,142083,2,0,B|312:192,1,80,8|0
368,200,142544,1,0
376,280,142775,6,0,B|448:232,2,80,0|8|0
296,280,143467,2,0,B|224:232,2,80,0|0|8
304,208,144159,1,0
304,208,144390,1,0
408,328,144852,1,8
264,264,145313,6,0,B|216:328,1,80
144,296,145775,1,8
80,248,146006,2,0,B|128:176,1,80
256,96,146698,1,8
376,200,147159,6,0,B|424:264,1,80
352,304,147621,1,8
288,352,147852,2,0,B|240:280,1,80
232,208,148313,6,0,B|212:171|236:131,1,80,0|8
320,128,148775,2,0,B|339:91|315:51,1,80,0|0
232,56,149236,2,0,B|212:92|236:132,1,80,0|8
320,128,149698,2,0,B|339:164|315:204,1,80,0|0
232,208,150159,5,0
232,288,150390,1,8
312,288,150621,1,0
312,208,150852,2,0,B|400:240,2,80,0|0|8
256,56,151775,5,0
256,136,152006,2,0,B|176:136,1,80,0|8
176,216,152467,1,0
176,296,152698,2,0,B|256:296,1,80
256,216,153159,1,8
328,184,153390,6,0,B|413:150,1,80
464,208,153852,1,0
392,240,154083,2,0,B|392:328,1,80,8|0
320,360,154544,1,0
312,280,154775,2,0,B|232:256,1,80,0|8
344,136,155467,6,0,B|384:120|440:136,1,80
496,160,155929,2,0,B|520:200|504:240,1,80,8|0
440,280,156390,2,0,B|400:296|363:283,1,80
320,216,156852,1,8
168,160,157313,6,0,B|128:144|72:160,1,80
24,200,157775,2,0,B|0:240|16:280,1,80,8|0
80,320,158236,2,0,B|120:336|157:323,1,80
184,248,158698,1,8
256,104,159159,5,8
392,192,159621,1,8
256,272,160083,2,0,B|176:216,1,80
192,144,160544,1,8
192,64,160775,2,0,B|272:8,1,80
256,176,161467,5,8
256,336,161929,2,0,B|336:376,1,80
392,328,162390,1,8
376,248,162621,2,0,B|296:288,1,80
145,270,163083,6,0,B|184:288|224:272,1,80,0|8
232,192,163544,2,0,B|270:176|309:194,1,80
328,272,164006,2,0,B|373:288|413:273,1,80,0|8
408,120,164698,5,0
248,120,165160,1,8
248,280,165621,2,0,B|336:312|416:272,1,160,0|8
328,136,166544,5,0
272,192,166775,1,0
344,160,167006,1,8
288,216,167236,1,0
360,184,167467,1,0
304,240,167698,1,0
376,208,167929,1,8
224,256,168390,6,0,B|144:288|56:248,3,160,0|8|0|8
120,104,170236,5,0
120,24,170467,1,0
200,24,170698,1,8
200,104,170929,1,0
160,32,171160,5,0
216,88,171390,1,0
160,144,171621,1,8
104,88,171852,1,0
160,144,172083,6,0,B|144:192|152:240,1,80
232,232,172544,2,0,B|248:280|240:328,1,80,8|0
160,320,173006,2,0,B|80:360|-16:336,1,160,0|8
120,232,173929,5,0
120,152,174160,1,0
200,152,174390,1,8
200,232,174621,1,0
160,160,174852,5,0
216,216,175083,1,0
160,272,175313,1,8
104,216,175544,1,0
160,160,175775,5,0
288,64,176236,1,8
408,168,176698,1,0
456,232,176929,1,0
408,296,177160,1,8
248,312,177621,6,0,B|235:289|251:233,1,80
304,176,178083,2,0,B|334:181|382:165,1,80,8|0
456,136,178544,2,0,B|461:104|446:57,1,80
368,48,179006,2,0,B|337:42|289:58,1,80,8|0
216,96,179467,2,0,B|200:144|208:192,1,80
208,256,179929,2,0,B|178:261|130:245,1,80,8|0
128,328,180390,2,0,B|158:333|206:317,1,80
280,288,180852,1,8
440,272,181313,6,0,B|464:248|474:201,1,80
400,160,181775,2,0,B|360:176|320:152,1,80,8|0
256,104,182236,2,0,B|219:81|179:97,1,80
96,104,182698,2,0,B|73:140|89:180,1,80,8|0
168,208,183160,2,0,B|184:248|160:288,1,80
80,280,183621,2,0,B|57:316|73:356,1,80,8|0
152,344,184083,5,0
184,272,184313,1,0
256,304,184544,1,8
280,224,184775,1,0
352,248,185006,1,0
368,168,185236,1,0
448,176,185467,2,0,B|480:136|472:96,1,80,8|0
408,56,185929,2,0,B|320:32|216:56,1,160,0|8
168,40,186621,1,0
120,104,186852,2,0,B|96:144|120:192,1,80
192,184,187313,2,0,B|216:224|192:272,1,80,8|0
200,344,187775,6,0,B|240:360|296:344,1,80
352,312,188236,2,0,B|384:232|352:136,2,160,8|0|8
304,248,189390,1,0
256,312,189621,2,0,B|224:232|256:136,3,160,0|8|0|8
328,136,191236,6,0,B|368:144|408:168,1,80
384,240,191698,2,0,B|349:260|309:268,1,80,0|8
240,232,192160,2,0,B|247:192|267:157,1,80,0|4
96,72,207160,6,0,B|48:160|104:256,2,160,0|0|8
256,72,208544,2,0,B|256:136|256:240,2,160
416,72,209929,2,0,B|464:160|408:256,1,160,8|0
256,192,210852,12,0,214083
368,192,214544,5,0
128,192,215006,1,0
360,128,215467,5,8
240,128,215698,1,0
240,368,216160,5,0
360,368,216390,1,0
296,136,216852,1,0
296,376,217313,5,8
296,256,217544,1,0
296,16,218006,5,0
176,16,218236,1,0
16,192,218698,1,0
256,192,219160,5,8
376,192,219390,1,0
176,320,219852,5,0
176,200,220083,1,0
256,192,220544,12,4,221929
