osu file format v9

[General]
AudioFilename: Usher ft Will.I.Am - OMG.mp3
AudioLeadIn: 0
PreviewTime: 14251
Countdown: 0
SampleSet: Soft
StackLeniency: 0.6
Mode: 0
LetterboxInBreaks: 0

[Editor]
DistanceSpacing: 1
BeatDivisor: 4
GridSize: 8

[Metadata]
Title:OMG
Artist:Usher ft. Will.I.Am
Creator:The 08 team_Bourdon
Version:Easy
Source:
Tags:Roddie

[Difficulty]
HPDrainRate:2
CircleSize:3
OverallDifficulty:2
ApproachRate:2
SliderMultiplier:0.8
SliderTickRate:1

[Events]
//Background and Video events
0,0,"BG1.jpg"
//Break Periods
2,103975,116984
2,192590,204676
//Storyboard Layer 0 (Background)
//Storyboard Layer 1 (Fail)
//Storyboard Layer 2 (Pass)
//Storyboard Layer 3 (Foreground)
//Storyboard Sound Samples
//Background Colour Transformations
3,100,226,226,226

[TimingPoints]
15160,461.538461538462,4,2,1,51,1,0
16444,-100,4,2,2,51,0,0
16675,-100,4,2,1,51,0,0
17367,-100,4,2,2,51,0,0
17598,-100,4,2,1,51,0,0
23828,-100,4,2,2,51,0,0
24059,-100,4,2,1,51,0,0
26598,-100,4,2,2,51,0,0
26828,-100,4,2,1,51,0,0
30290,-100,4,2,2,51,0,0
30521,-100,4,2,1,51,0,0
32136,-100,4,2,2,51,0,0
32367,-100,4,2,1,51,0,0
33059,-100,4,2,2,51,0,0
33290,-100,4,2,1,51,0,0
34905,-100,4,2,2,51,0,0
35136,-100,4,2,1,51,0,0
37313,-100,4,2,1,61,0,1
37675,-100,4,2,2,61,0,1
37905,-100,4,2,1,61,0,1
39521,-100,4,2,2,61,0,1
39751,-100,4,2,1,61,0,1
40905,-100,4,2,2,61,0,1
41251,-100,4,2,1,61,0,1
41828,-100,4,2,2,61,0,1
42059,-100,4,2,1,61,0,1
51521,-100,4,2,2,61,0,1
51751,-100,4,2,1,61,0,1
56136,-100,4,2,2,61,0,1
56367,-100,4,2,1,61,0,1
57982,-100,4,2,2,61,0,1
58213,-100,4,2,1,61,0,1
59006,-100,4,2,1,61,0,0
59828,-100,4,2,2,61,0,0
60059,-100,4,2,1,61,0,0
61675,-100,4,2,2,61,0,0
61905,-100,4,2,1,61,0,0
63521,-100,4,2,2,61,0,0
63751,-100,4,2,1,61,0,0
67213,-100,4,2,2,61,0,0
67444,-100,4,2,1,61,0,0
69059,-100,4,2,2,61,0,0
69290,-100,4,2,1,61,0,0
72751,-100,4,2,2,61,0,0
72982,-100,4,2,1,61,0,0
74598,-100,4,2,2,61,0,0
74828,-100,4,2,1,61,0,0
75521,-100,4,2,2,61,0,0
75751,-100,4,2,1,61,0,0
76444,-100,4,2,2,61,0,0
76675,-100,4,2,1,61,0,0
77367,-100,4,2,2,61,0,0
77598,-100,4,2,1,61,0,0
79213,-100,4,2,2,61,0,0
79444,-100,4,2,1,61,0,0
80136,-100,4,2,2,61,0,0
80367,-100,4,2,1,61,0,0
81982,-100,4,2,2,61,0,0
82213,-100,4,2,1,61,0,0
84751,-100,4,2,2,61,0,0
84982,-100,4,2,1,61,0,0
89367,-100,4,2,2,61,0,0
89598,-100,4,2,1,61,0,0
90290,-100,4,2,2,61,0,0
90521,-100,4,2,1,61,0,0
91213,-100,4,2,2,61,0,0
91444,-100,4,2,1,61,0,0
93059,-100,4,2,2,61,0,0
93290,-100,4,2,1,61,0,0
93982,-100,4,2,2,61,0,0
94213,-100,4,2,1,61,0,0
97675,-100,4,2,2,61,0,0
97905,-100,4,2,1,61,0,0
100444,-100,4,2,2,61,0,0
100675,-100,4,2,1,61,0,0
102290,-100,4,2,2,61,0,0
102521,-100,4,2,1,61,0,0
103675,-100,4,2,2,20,0,0
103905,-100,4,2,1,61,0,0
118544,-100,4,2,2,60,0,1
132175,-100,4,2,1,50,0,1
132636,-100,4,2,1,36,0,1
133098,-100,4,2,2,61,0,1
133313,-100,4,2,2,61,0,0
133559,-100,4,2,1,61,0,0
134021,-100,4,2,2,61,0,0
137713,-100,4,2,2,61,0,0
144751,-100,4,2,2,61,0,0
144982,-100,4,2,1,61,0,0
145675,-100,4,2,2,61,0,0
145905,-100,4,2,1,61,0,0
148444,-100,4,2,2,61,0,0
148675,-100,4,2,1,61,0,0
150290,-100,4,2,2,61,0,0
150521,-100,4,2,1,61,0,0
152136,-100,4,2,2,61,0,0
152367,-100,4,2,1,61,0,0
156751,-100,4,2,2,61,0,0
156982,-100,4,2,1,61,0,0
157675,-100,4,2,2,61,0,0
157905,-100,4,2,1,61,0,0
160444,-100,4,2,2,61,0,0
160675,-100,4,2,1,61,0,0
162290,-100,4,2,2,61,0,0
162521,-100,4,2,1,61,0,0
165059,-100,4,2,2,61,0,0
165290,-100,4,2,1,61,0,0
166905,-100,4,2,2,61,0,0
167136,-100,4,2,1,61,0,0
168751,-100,4,2,2,61,0,0
168982,-100,4,2,1,61,0,0
170598,-100,4,2,2,61,0,0
170828,-100,4,2,1,61,0,0
172444,-100,4,2,2,61,0,0
172675,-100,4,2,1,61,0,0
174290,-100,4,2,2,61,0,0
174521,-100,4,2,1,61,0,0
176136,-100,4,2,2,61,0,0
176367,-100,4,2,1,61,0,0
181675,-100,4,2,2,61,0,0
181905,-100,4,2,1,61,0,0
182598,-100,4,2,2,61,0,0
182828,-100,4,2,1,61,0,0
184444,-100,4,2,2,61,0,0
184675,-100,4,2,1,61,0,0
185367,-100,4,2,2,61,0,0
185598,-100,4,2,1,61,0,0
207160,-100,4,2,1,61,0,1
207982,-100,4,2,2,61,0,1
208213,-100,4,2,1,61,0,1
209828,-100,4,2,2,61,0,1
210059,-100,4,2,1,61,0,1
213521,-100,4,2,2,61,0,1
213751,-100,4,2,2,61,0,1
214559,-100,4,2,2,61,0,1
221828,-100,4,1,1,60,0,1
222044,-100,4,2,0,60,0,0

[Colours]
Combo1 : 210,105,250
Combo2 : 240,167,15
Combo3 : 255,231,55
Combo4 : 0,128,255

[HitObjects]
256,192,15159,1,0
336,192,15621,2,8,B|328:128|256:64|176:136|176:200,2,240,8|2|8
336,352,19313,5,8
336,192,20236,2,0,B|384:152|448:224|496:192,1,160,8|8
352,112,22083,5,8
192,112,23006,2,8,B|192:280|192:280|368:280,1,320
352,120,25775,1,8
432,112,26236,6,0,B|400:24|296:0,1,160
288,80,27621,2,8,B|216:48|200:120|120:80,1,160
368,56,29929,6,0,B|289:24|213:54,1,160
184,128,31313,1,8
216,200,31775,2,0,B|293:230|373:198,2,160
136,200,34083,1,8
56,192,34544,2,0,B|56:272|144:328|232:264|216:192|216:192,1,240,0|8
376,232,36852,1,8
392,152,37313,6,0,B|384:48|288:16,1,160,0|0
152,32,39160,2,8,B|77:55|69:159,1,160,0|0
216,224,41006,6,0,B|256:256|296:216,3,80,2|8|2|8
144,144,43313,2,0,B|184:88|320:88|376:160,1,240
368,224,45160,5,8
368,304,45621,2,0,B|328:320|328:288|280:304,1,80,0|8
128,304,47006,5,8
128,224,47467,2,0,B|168:208|168:240|216:224,1,80,0|8
256,72,48852,5,8
256,72,49313,2,0,B|256:152,1,80,0|8
256,232,50236,1,0
256,232,50698,2,0,B|200:232|128:160|192:64|264:72,1,240,8|0
256,152,52544,5,8
328,192,53006,2,0,B|384:248|384:248,1,80,0|8
256,344,54390,5,8
256,344,54852,2,8,B|176:312,1,80,0|8
152,240,55775,6,0,B|72:256|16:192|104:80|168:112|184:200|184:200,1,240,0|8
248,152,57621,2,0,B|260:71|339:40|414:161|362:210|274:195|274:195,1,240,0|8
256,256,59467,6,0,B|168:224|144:136,1,160
72,168,60852,1,8
24,232,61313,2,0,B|55:319|133:339,1,160,0|0
192,280,62698,1,8
256,224,63160,6,0,B|234:146|147:115,1,160,0|0
176,40,64544,2,8,B|264:40|240:96|344:96,2,160
128,104,66852,6,0,B|80:208|128:360,1,240,0|8
200,336,68698,2,0,B|248:232|200:80,1,240,0|8
272,56,70544,5,0
336,104,71006,1,8
360,176,71467,2,8,B|367:215|319:239,1,80
248,272,72390,2,0,B|128:272|128:88,1,240,0|8
208,72,74236,6,0,B|320:40|360:160|232:200,1,240,0|10
168,224,76083,2,0,B|56:256|16:136|144:96,1,240,0|10
208,128,77929,5,0
256,192,78390,1,8
336,192,78852,1,0
384,128,79313,1,8
328,72,79775,2,0,B|250:90|250:90|200:72|176:128|176:128|104:168,1,240,0|8
144,240,81621,6,0,B|221:221|221:221|272:240|296:184|296:184|368:144,1,240,0|8
424,192,83467,2,0,B|424:288,1,80,0|8
360,320,84390,2,0,B|288:360|192:328,1,160
208,248,85775,1,8
256,192,86236,12,8,88544
440,208,89467,6,0,B|383:256|359:168|287:224,2,160,2|2|2
296,280,92236,5,8
336,208,92698,2,0,B|184:89|40:201,1,320
104,48,95467,5,0
176,80,95929,1,8
248,48,96390,1,0
320,80,96852,1,8
392,48,97313,2,0,B|464:80|464:200|400:256,1,240,0|8
248,216,99621,6,0,B|320:224|376:216|376:136|312:72,1,240,8|0
240,40,101467,2,0,B|168:32|112:40|112:120|176:184,1,240,8|0
256,200,103313,1,0
256,200,103775,1,6
80,184,118544,6,0,B|240:96|240:96|280:160,2,240,8|10|10
88,264,121775,1,8
160,240,122236,6,0,B|192:291|192:291|350:203,2,240,10|10|10
112,176,125467,2,0,B|192:128,1,80,10|8
264,128,126390,5,8
336,160,126852,2,0,B|400:160|440:200|440:272|400:312|320:312,2,240,10|2|10
256,160,130083,2,0,B|196:159|156:199|156:271|196:311|248:309,1,240,10|10
304,248,131929,2,0,B|304:160,2,80,8|0|0
152,232,133313,5,10
152,232,133775,1,8
152,152,134236,2,0,B|232:128|320:192|320:312|208:360,1,320,10|2
168,288,136544,1,10
168,208,137006,5,0
168,208,137467,1,10
168,208,137929,2,0,B|248:240|304:192|280:96|176:96,2,240,0|10|2
168,208,141159,6,0,B|202:297|274:321,1,160,10|2
328,264,142544,2,8,B|304:192|214:158,1,160,10|2
136,136,143929,1,10
72,184,144390,6,0,B|136:224|112:304|209:318,2,200,0|0|8
184,72,147621,1,8
256,48,148083,6,0,B|357:74|469:154,1,240,0|8
432,224,149929,2,0,B|330:197|218:117,1,240,0|8
200,192,151775,6,0,B|128:223|44:193,1,160
48,112,153159,2,0,B|118:80|203:111,1,160,8|8
200,192,154544,1,0
136,240,155006,1,8
200,288,155467,5,0
264,240,155929,2,8,B|264:85|120:85,2,240,8|0|8
256,320,159159,6,0,B|296:360|328:312,1,80,0|8
400,288,160083,2,0,B|296:200|168:296,1,240,0|8
168,208,161929,2,0,B|264:152|336:184,1,160
392,184,163313,5,8
360,112,163775,1,0
440,112,164236,1,8
472,184,164698,2,0,B|512:256|472:320|408:328|344:256,1,240,0|8
272,256,166544,6,0,B|288:168|360:128,1,160
440,128,167929,1,8
400,56,168390,2,0,B|320:40|240:112|216:192,1,240,0|8
224,264,170236,6,0,B|336:200|456:264,1,240,0|8
408,328,172083,2,0,B|336:392|264:328,1,160
200,280,173467,1,8
216,200,173929,6,0,B|352:224|400:72,1,240,0|8
320,64,175775,2,0,B|184:40|136:192,1,240,0|8
256,192,177621,12,0,179467
136,192,180390,6,0,B|216:192,1,80,0|8
296,192,181313,2,0,B|384:192|440:112,2,160
288,112,183621,1,8
224,160,184083,6,0,B|136:160|80:240,2,160
296,192,186390,2,0,B|360:288|440:280,1,160,8|8
432,200,187775,5,0
432,200,188236,1,8
256,192,188698,12,0,192390
256,296,206236,5,8
320,112,207160,2,0,B|256:136|256:136|200:104|168:160|168:160|104:184,1,240
128,256,209006,2,0,B|192:232|192:232|248:264|280:208|280:208|344:184,1,240
368,264,210852,6,0,B|464:264|464:144,1,160
376,24,212698,2,0,B|232:24|232:192,1,240
280,240,214544,6,0,B|356:251|417:186|360:121|269:129,1,240,2|10
192,128,216390,2,0,B|115:117|54:182|111:247|202:239,1,240,2|10
272,240,218236,5,0
288,160,218698,1,0
336,96,219160,2,0,B|368:128,1,40
416,184,219852,6,0,B|444:212,1,40
380,260,220544,1,0
300,276,221006,1,0
280,200,221467,1,0
264,120,221929,5,4
