osu file format v6

[General]
AudioFilename: Usher - Papers (CDQ).mp3
AudioLeadIn: 0
PreviewTime: -1
Countdown: 1
SampleSet: None
StackLeniency: 0.7
Mode: 0
LetterboxInBreaks: 1

[Editor]
DistanceSpacing: 0.800000011920929
BeatDivisor: 2
GridSize: 32

[Metadata]
Title:Papers
Artist:Usher
Creator:flozart
Version:Easy
Source:
Tags:

[Difficulty]
HPDrainRate:5
CircleSize:5
OverallDifficulty:5
SliderMultiplier:1.4
SliderTickRate:1

[Events]
//Background and Video events
0,0,"Picture-937-650x382.png"
//Break Periods
2,4181,16821
2,22720,24821
2,60721,64821
2,123221,126821
2,169221,172821
2,183221,184821
2,201221,202821
//Storyboard Layer 0 (Background)
//Storyboard Layer 1 (Fail)
//Storyboard Layer 2 (Pass)
//Storyboard Layer 3 (Foreground)
//Storyboard Sound Samples
//Background Colour Transformations
3,100,128,0,255

[TimingPoints]
3021,1000,4,0,0,100,1,0

[HitObjects]
160,96,18021,6,0,B|256:96,3,210
119,92,26021,5,0
206,88,27021,1,0
329,60,28021,1,0
429,110,29021,1,0
346,240,30021,1,0
268,187,30521,1,0
183,114,31021,1,0
82,216,32021,1,0
149,261,32521,1,0
259,272,33021,1,0
376,114,34021,1,0
112,63,35021,1,0
236,127,36021,1,0
355,102,37021,1,0
430,196,38021,1,0
308,141,40021,1,2
195,145,40521,1,2
77,167,41021,1,2
272,148,43021,1,10
54,222,45021,1,10
261,94,47021,1,10
463,77,48021,1,10
408,264,49021,1,10
248,264,50021,1,10
119,123,52021,1,10
240,137,53021,1,10
345,132,54021,1,10
256,192,55021,12,10,60521
96,96,66021,5,10
192,96,67021,1,10
256,160,68021,1,10
192,224,69021,1,10
128,256,70021,1,10
192,288,71021,1,10
256,192,73021,12,10,75021
96,96,78021,6,10,B|384:256|480:96|288:32|160:224,2,490
160,128,88021,1,10
288,96,88521,1,10
416,128,89021,1,10
352,224,89521,1,10
192,288,90021,1,10
160,96,92021,1,2
384,96,93021,1,2
160,192,94021,1,2
384,224,95021,1,2
96,96,97021,1,2
256,128,99021,5,2
352,160,101021,1,2
192,192,103021,1,2
224,64,104021,1,2
288,96,104521,1,2
384,160,105021,1,2
96,224,107021,1,2
384,96,109021,1,2
416,192,110021,1,2
384,224,110521,1,2
288,256,111021,1,2
224,256,111521,1,2
160,192,112021,1,2
192,96,112521,1,2
288,64,113021,1,2
384,96,113521,1,2
192,160,115021,1,2
128,32,116021,6,4,B|512:32|480:128|480:128|320:288|320:288|224:128|0:320|0:320,1,980
226,156,128021,5,0
269,112,128521,1,0
326,89,129021,1,0
367,130,130021,1,0
384,176,130521,1,0
320,224,131021,1,0
224,224,132021,1,0
160,160,132521,1,0
96,96,133021,1,0
203,67,134021,1,0
385,187,135021,1,0
424,148,136021,1,0
424,103,136521,1,0
381,84,137021,1,0
128,128,138521,5,8
192,128,139021,1,8
128,224,140521,1,8
192,224,141021,1,8
224,117,142021,5,0
406,101,143021,1,0
342,264,144021,1,0
115,79,145021,1,0
103,263,146021,1,0
260,95,147021,1,0
429,259,148021,1,0
49,70,149021,1,0
339,64,150021,1,0
199,208,151021,1,0
139,90,152021,1,0
221,75,154021,1,4
348,83,154521,1,4
438,67,155021,1,4
130,180,156021,1,4
209,166,156521,1,4
325,154,157021,1,4
144,304,158021,1,4
257,296,158521,1,4
368,272,159021,1,4
70,74,162021,1,6
470,92,163021,1,6
82,292,164021,1,6
449,291,165021,1,6
256,192,166021,12,0,169021
96,64,174021,5,0
160,64,175021,1,0
224,64,176021,1,0
96,160,178021,1,0
160,160,178521,1,0
224,160,179021,1,0
96,288,180021,1,0
160,288,180521,1,0
224,288,181021,1,0
160,160,182021,1,0
224,160,182521,1,0
288,160,183021,1,0
96,64,186021,5,0
160,64,186521,1,0
224,96,187021,1,0
105,62,188021,6,10,B|481:322|214:287|187:314,1,420
64,224,192021,1,10
160,160,192521,1,10
256,96,193021,1,10
320,256,193521,1,10
256,192,194021,12,10,197021
256,192,198021,5,0
256,64,198521,1,0
384,64,199021,1,0
416,192,200021,1,0
288,192,200521,1,0
160,192,201021,1,0
256,192,204021,12,10,207021
160,128,208021,5,10
182,108,210021,6,10,B|465:125|194:222,1,280
256,192,213021,1,10
224,128,215021,1,10
96,160,216521,1,10
128,64,217021,2,10,B|416:128,1,280
160,160,220021,1,10
96,288,221021,6,10,B|256:288,2,140
256,256,224021,1,10
274,183,225021,2,10,B|60:56|336:57,1,280
446,201,228021,2,10,B|91:252|225:74|443:72|458:98,1,420
233,140,234021,1,10
337,131,234521,1,10
182,224,235021,1,10
107,72,236021,1,10
285,73,236521,1,10
184,239,237021,1,10
438,81,238021,1,10
165,86,238521,1,10
42,157,239021,1,10
313,120,240021,1,10
438,151,240521,1,10
165,221,241021,1,10
87,48,242021,1,10
367,78,242521,1,10
199,147,243021,1,10
357,91,245021,1,10
121,119,246021,1,10
289,199,247021,1,10
116,237,248021,1,10
349,144,248521,1,10
164,164,250021,5,10
70,101,255021,2,10,B|515:102,1,420
