osu file format v9

[General]
AudioFilename: ban kogarashi.mp3
AudioLeadIn: 3000
PreviewTime: 167528
Countdown: 0
SampleSet: Soft
StackLeniency: 0.6
Mode: 0
LetterboxInBreaks: 0

[Editor]
DistanceSpacing: 1
BeatDivisor: 8
GridSize: 4

[Metadata]
Title:Tsugai Kogarashi
Artist:Usatsurai
Creator:Beren
Version:lolcubes
Source:
Tags:Usa Tolie A Pair of Wintry Winds Kiiwa S h i a shia vocaloid Sumowind lolcubes

[Difficulty]
HPDrainRate:3
CircleSize:4
OverallDifficulty:4
ApproachRate:5
SliderMultiplier:1.28
SliderTickRate:1

[Events]
//Background and Video events
0,0,"BG.jpg"
//Break Periods
2,153197,166328
//Storyboard Layer 0 (Background)
//Storyboard Layer 1 (Fail)
//Storyboard Layer 2 (Pass)
//Storyboard Layer 3 (Foreground)
//Storyboard Sound Samples
//Background Colour Transformations
3,100,163,162,255

[TimingPoints]
699,600,4,2,1,50,1,0
1899,-100,4,2,1,52,0,0
2499,-100,4,2,1,54,0,0
3099,-100,4,2,1,56,0,0
3699,-100,4,2,1,53,0,0
3999,-100,4,2,1,50,0,0
4299,-100,4,2,1,45,0,0
5199,-100,4,2,1,50,0,0
6699,-100,4,2,1,55,0,0
7899,-100,4,2,1,55,0,0
8199,-100,4,2,1,58,0,0
8499,-100,4,2,1,55,0,0
8799,-100,4,2,1,52,0,0
9099,-100,4,2,1,50,0,0
9699,-100,4,2,1,45,0,0
9999,-100,4,2,1,50,0,0
12699,-100,4,2,1,55,0,0
13299,-100,4,2,1,58,0,0
13899,-100,4,2,1,55,0,0
14499,-100,4,2,1,45,0,0
15099,-100,4,2,1,50,0,0
16899,-100,4,2,1,55,0,0
17499,-100,4,2,1,45,0,0
18099,-100,4,2,1,38,0,0
18699,-100,4,2,1,30,0,0
19299,-100,4,2,1,35,0,0
19899,-100,4,2,1,45,0,0
20049,-100,4,2,1,35,0,0
29499,-100,4,2,1,40,0,0
37899,-100,4,2,1,40,0,0
38499,-100,4,2,1,45,0,0
39099,-100,4,2,1,50,0,0
75705,666.666666666667,4,2,1,50,1,0
76371,681.818181818182,4,2,1,50,1,0
77434,681.818181818182,4,2,1,50,1,0
77997,468.75,4,2,1,50,1,0
77997,-111.111111111111,4,2,1,50,0,0
78114,-111.111111111111,4,2,1,70,0,0
152997,-111.111111111111,4,2,2,50,0,0
153114,-111.111111111111,4,2,2,70,0,0
167528,-111.111111111111,4,2,2,70,0,0
167997,-111.111111111111,4,1,2,45,0,1
168114,-111.111111111111,4,2,2,70,0,1
169168,-111.111111111111,4,1,2,50,0,1
169286,-111.111111111111,4,2,2,70,0,1
169872,-111.111111111111,4,1,2,50,0,1
169989,-111.111111111111,4,2,2,70,0,1
170809,-111.111111111111,4,2,2,45,0,1
171278,-111.111111111111,4,2,2,70,0,1
171747,-111.111111111111,4,1,2,50,0,1
171864,-111.111111111111,4,2,2,70,0,1
172684,-111.111111111111,4,1,2,50,0,1
172801,-111.111111111111,4,2,2,70,0,1
173622,-111.111111111111,4,1,2,50,0,1
173739,-111.111111111111,4,2,2,70,0,1
174559,-111.111111111111,4,2,2,45,0,1
174676,-111.111111111111,4,2,2,70,0,1
175497,-111.111111111111,4,1,2,45,0,1
175614,-111.111111111111,4,2,2,70,0,1
176200,-111.111111111111,4,1,2,50,0,1
176317,-111.111111111111,4,2,2,70,0,1
177372,-111.111111111111,4,1,2,50,0,1
177489,-111.111111111111,4,2,2,70,0,1
178309,-111.111111111111,4,2,2,50,0,1
178426,-111.111111111111,4,2,2,70,0,1
179247,-111.111111111111,4,1,2,50,0,1
179364,-111.111111111111,4,2,2,70,0,1
180184,-111.111111111111,4,1,2,50,0,1
180301,-111.111111111111,4,2,2,70,0,1
181122,-111.111111111111,4,1,2,50,0,1
181239,-111.111111111111,4,2,2,70,0,1
182059,-111.111111111111,4,2,2,50,0,0
182997,-111.111111111111,4,1,2,45,0,1
183114,-111.111111111111,4,2,2,70,0,1
183700,-111.111111111111,4,1,2,50,0,1
183817,-111.111111111111,4,2,2,70,0,1
184872,-111.111111111111,4,1,2,50,0,1
184989,-111.111111111111,4,2,2,70,0,1
185809,-111.111111111111,4,2,2,50,0,1
185926,-111.111111111111,4,2,2,70,0,1
186747,-111.111111111111,4,1,2,50,0,1
186864,-111.111111111111,4,2,2,70,0,1
187450,-111.111111111111,4,1,2,50,0,1
187567,-111.111111111111,4,2,2,70,0,1
188622,-111.111111111111,4,1,2,50,0,1
188739,-111.111111111111,4,2,2,70,0,1
189559,-111.111111111111,4,2,2,50,0,1
190028,-111.111111111111,4,2,2,70,0,1
190497,-111.111111111111,4,1,2,50,0,1
190614,-111.111111111111,4,2,2,70,0,1
191434,-111.111111111111,4,1,2,50,0,1
191551,-111.111111111111,4,2,2,70,0,1
192372,-111.111111111111,4,1,2,50,0,1
192489,-111.111111111111,4,2,2,70,0,1
193309,-111.111111111111,4,2,2,50,0,1
193426,-111.111111111111,4,2,2,70,0,1
194247,-111.111111111111,4,1,2,50,0,1
194364,-111.111111111111,4,2,2,70,0,1
195184,-111.111111111111,4,1,2,50,0,1
195301,-111.111111111111,4,2,2,70,0,1
196122,-111.111111111111,4,1,2,50,0,1
196239,-111.111111111111,4,2,2,70,0,1
197059,-200,4,2,2,70,0,1
197118,-200,4,2,2,5,0,1
197550,666.666666666667,4,2,2,5,1,0
198345,594.059405940594,4,2,2,70,1,0
198642,-100,4,2,2,5,0,0
215610,594.059405940594,4,2,2,5,1,0
216305,740.740740740741,4,2,2,5,1,0

[Colours]
Combo1 : 100,137,138
Combo2 : 255,128,128
Combo3 : 238,202,106
Combo4 : 165,199,167
SliderBorder : 255,255,255

[HitObjects]
160,352,99,54,0,B|157:318|136:294,1,64
144,216,699,2,0,B|89:172|96:104,1,128,4|0
151,49,1599,1,0
224,72,1899,2,0,B|284:35|344:72,2,128,0|8|0
280,216,3699,2,0,B|312:224|344:216,2,64,0|0|0
288,72,4899,38,0,B|256:64|224:72,1,64,8|0
152,56,5499,2,0,B|152:128|88:160,1,128,4|0
104,236,6399,1,0
168,280,6699,2,0,B|228:317|288:280,1,128,0|8
404,180,7899,5,0
484,172,8199,1,0
500,96,8499,1,0
432,60,8799,1,0
372,108,9099,1,0
228,156,9699,38,0,B|236:188|228:220,1,64,8|0
152,248,10299,2,0,B|115:188|152:128,1,128,4|0
216,80,11199,1,0
288,104,11499,6,0,B|348:67|408:104,2,128,0|8|0
348,244,13299,1,0
224,336,13899,2,0,B|164:373|104:336,2,128,0|8|4
168,192,15699,38,0,B|168:128,2,64
240,232,16599,1,0
240,156,16899,2,0,B|240:92,1,64,8|0
168,52,17499,5,2
80,192,18099,1,2
164,336,18699,1,2
256,192,19299,38,0,B|264:160|256:128,1,64,8|0
320,80,19899,2,0,B|336:128|392:152|392:152|392:200|360:232,1,192,2|0
288,264,21099,1,2
136,248,21699,1,8
56,120,22299,22,0,B|81:100|120:96,1,64,2|0
192,96,22899,2,0,B|224:96|256:112,1,64,2|0
320,152,23499,1,2
352,304,24099,38,0,B|333:329|296:336,1,64,8|0
224,320,24699,2,0,B|168:320|144:276|144:276|120:320|64:320,1,192,2|0
72,240,25899,1,2
144,104,26499,1,8
288,168,27099,6,0,B|312:144|320:112,1,64,2|0
384,152,27699,2,0,B|400:120|400:88,2,64,2|0|2
304,288,28899,22,0,B|285:323|291:352,1,64,8|0
368,336,29499,2,0,B|424:248|384:152,1,192,2|0
320,192,30699,2,0,B|247:180|232:112,1,128,2|8
112,208,31899,21,2
35,207,32199,1,0
11,281,32499,1,2
73,327,32799,1,0
136,281,33099,1,2
144,128,33699,6,0,B|167:107|168:72,1,64,8|0
240,40,34299,2,0,B|288:24|336:40,2,96,2|8|8
232,120,35499,1,2
216,272,36099,1,8
352,344,36699,2,0,B|370:344|370:344|375:336|375:336|382:341|382:341|389:330|389:330|398:335|398:335|399:324|399:324|411:324|411:324|414:314|414:314|423:309|423:309|428:301|428:301|454:278|480:220|478:169,1,256,2|0
408,32,38499,5,8
256,64,39099,2,0,B|240:112|272:144|256:192,1,128,6|0
240,264,39999,1,0
168,288,40299,1,0
112,236,40599,1,2
184,212,40899,2,0,B|182:189|188:168|183:153|183:153|149:141|136:104,1,128,8|2
264,24,42099,37,0
344,32,42399,1,0
296,96,42699,1,4
184,212,43299,38,0,B|152:220|120:212,1,64,8|0
48,240,43899,2,0,B|61:287|61:287|95:306|136:304,1,128,2|0
280,360,45099,2,0,B|322:362|356:343|356:343|369:296,1,128,0|8
224,256,46299,6,0,B|207:185|267:146,1,128,2|0
344,160,47199,2,0,B|376:168|408:160,1,64,0|4
336,24,48099,37,8
192,80,48699,2,0,B|184:152|112:168,1,128,2|0
40,200,49599,1,0
104,248,49899,2,0,B|116:316|192:328,1,128,2|8
256,280,50799,1,0
320,328,51099,2,0,B|360:296|360:296|401:294|424:259,2,128,2|0|4
336,176,52899,5,0
192,136,53499,2,0,B|176:145|176:145|165:149|165:149|156:156|156:156|147:150|147:150|136:162|136:162|126:152|126:152|111:165|111:165|103:151|103:151|86:162|86:162|79:148|79:148|65:152|65:152|56:140|56:140|42:138|42:138|30:125|30:125|18:118|18:118|8:96,1,256,2|0
80,72,54999,2,0,B|120:24,2,64,2|8|0
64,144,55899,2,0,B|47:164|47:164|44:180|44:180|34:191|34:191|37:205|37:205|29:218|29:218|38:229|38:229|27:241|27:241|40:252|40:252|31:264|31:264|46:277|46:277|43:290|43:290|56:297|56:297|56:311|56:311|67:317|67:317|74:330|74:330|87:341,1,256,6|0
192,224,57699,5,8
352,216,58299,2,0,B|416:240|480:216,1,128,6|0
504,144,59199,1,0
480,72,59499,2,0,B|416:48|352:72,1,128,2|8
200,88,60699,38,0,B|168:80|136:88,1,64,2|0
168,160,61299,1,0
200,232,61599,1,0
168,304,61899,1,4
88,152,62499,5,8
232,88,63099,2,0,B|230:160|296:192,1,128,2|0
296,272,63999,1,0
368,304,64299,2,0,B|424:345|488:319,1,128,2|8
448,168,65499,37,2
370,154,65799,1,0
359,77,66099,1,0
427,43,66399,1,0
482,97,66699,1,4
396,229,67299,5,8
272,280,67899,2,0,B|200:296|160:240,1,128,2|0
128,168,68799,1,0
208,176,69099,2,0,B|200:100|131:88,1,128,2|8
80,232,70299,38,0,B|60:260|24:264,1,64,2|0
72,328,70899,2,0,B|96:360|128:360,1,64,0|0
200,352,71499,1,4
256,208,72099,5,8
312,64,72699,2,0,B|381:77|400:152,2,128,2|0|2
160,80,74499,1,8
176,232,75099,38,0,B|189:264|216:280,1,64,2|0
288,304,75705,2,0,B|352:304,2,64,8|0|4
456,112,77997,22,0,B|368:72|320:152|232:112,1,230.39999296875,6|2
144,40,79403,1,8
120,152,79872,2,0,B|64:232|120:312,1,172.799994726563,2|2
168,344,80809,2,0,B|224:368|280:344,1,115.199996484375,0|10
360,264,81747,6,0,B|404:152|316:152|360:40,1,230.39999296875,6|2
464,96,83153,1,8
472,152,83387,1,0
480,208,83622,2,0,B|505:300|440:368,1,172.799994726563,2|0
440,367,84559,1,2
384,264,85028,1,10
280,304,85497,6,0,B|154:360|80:248,1,230.39999296875,6|2
160,168,86903,1,8
48,136,87372,2,0,B|89:47|186:52,2,172.799994726563,2|2|10
79,247,89247,6,0,B|128:336|224:320,1,172.799994726563,6|0
280,312,90184,1,2
332,288,90418,1,0
364,240,90653,1,8
392,128,91122,2,0,B|408:128|408:128|448:112|488:128|488:128|504:128,2,115.199996484375,6|2|2
184,32,92997,6,0,B|167:48|141:54|141:54|104:53|77:84|77:84|65:105|36:111,1,172.799994726563,2|8
35,111,93934,1,2
64,224,94403,1,8
168,176,94872,6,0,B|200:128,1,57.5999982421876,2|0
240,168,95340,2,0,B|272:120,1,57.5999982421876,0|0
312,160,95809,1,4
496,296,96747,22,0,B|456:352|400:352|400:352|344:352,1,172.799994726563,2|8
342,352,97684,1,2
400,248,98153,1,8
320,160,98622,22,0,B|288:112,1,57.5999982421876,2|0
248,152,99090,2,0,B|216:104,1,57.5999982421876
176,144,99559,1,4
32,320,100497,38,0,B|80:320|104:352|104:352|152:368|190:342,1,172.799994726563,2|8
248,320,101434,2,0,B|304:320,2,57.5999982421876,0|2|8
192,216,102372,5,2
137,198,102606,1,0
137,140,102840,1,0
192,122,103075,1,0
225,169,103309,1,4
432,64,104247,6,0,B|464:152|400:144|432:232,1,172.799994726563,2|8
416,288,105184,2,0,B|376:336|312:320,1,115.199996484375,2|8
224,248,106122,2,0,B|154:141|224:32,1,230.39999296875,6|0
320,96,107528,21,8
336,208,107997,2,0,B|288:248|224:248|224:248|208:272|208:304,1,172.799994726563,2|8
152,304,108934,2,0,B|128:312|96:304,2,57.5999982421876,0|2|8
256,360,109872,1,2
256,244,110340,2,0,B|256:180,2,57.5999982421876,0|0|4
360,304,111278,5,8
360,192,111747,2,0,B|384:136|360:80,1,115.199996484375,2|0
320,40,112450,1,8
264,48,112684,2,0,B|208:72|152:48,1,115.199996484375,2|8
96,40,113387,1,0
56,80,113622,1,2
84,192,114090,2,0,B|56:200|28:192,2,57.5999982421876,0|0|4
112,304,115028,5,8
200,224,115497,2,0,B|280:280|360:224,1,172.799994726563,2|8
392,176,116434,1,2
364,64,116903,2,0,B|392:56|420:64,2,57.5999982421876,8|0|2
256,104,117840,1,8
148,64,118309,1,4
120,176,118778,37,8
24,240,119247,2,0,B|26:275|26:275|32:285|32:285|30:293|30:293|41:300|41:300|39:308|39:308|49:308|49:308|47:320|47:320|61:320|61:320|63:334|63:334|74:332|74:332|79:343|79:343|90:341|90:341|99:351|99:351|109:348|109:348|119:354|119:354|152:351,1,230.39999296875,2|0
200,320,120418,2,0,B|248:368,2,57.5999982421876,2|8|0
232,272,121122,2,0,B|293:152|424:192,1,230.39999296875,2|4
200,160,122997,38,0,B|152:72|56:88,1,172.799994726563,2|0
24,136,123934,2,0,B|8:196|44:192|24:248,1,115.199996484375,2|8
112,320,124872,22,0,B|140:328|168:324,1,57.5999982421876,2|0
228,324,125340,2,0,B|256:328|284:320,2,57.5999982421876,0|0|4
244,204,126278,21,8
256,88,126747,2,0,B|336:32|416:88,1,172.799994726563,2|8
448,136,127684,2,0,B|472:192|448:248,1,115.199996484375,2|8
336,272,128622,21,2
278,272,128856,1,0
260,326,129091,1,0
307,360,129325,1,0
353,326,129559,1,4
352,208,130028,37,8
288,112,130497,2,0,B|232:136|264:168|208:192,1,115.199996484375,2|0
160,216,131200,1,0
112,192,131434,2,0,B|56:168|88:136|32:112,1,115.199996484375,2|8
116,32,132372,6,0,B|132:88,1,57.5999982421876,2|0
188,88,132840,2,0,B|204:32,2,57.5999982421876,0|0|4
160,200,133778,22,0,B|160:256,2,57.5999982421876,8|0|2
272,176,134715,2,0,B|312:216,1,57.5999982421876
352,256,135184,2,0,B|384:312|352:368,1,115.199996484375,2|8
256,312,136122,21,2
192,216,136590,1,2
256,120,137059,1,6
464,216,137997,38,0,B|480:192|480:160|480:160|480:128,2,86.3999973632813,2|0|2
448,272,138934,2,0,B|432:296|432:328|432:328|432:360,2,86.3999973632813,2|0|10
408,232,139872,1,2
408,232,140106,1,0
336,144,140575,2,0,B|280:156,1,57.5999982421876,10|2
192,232,141278,1,8
144,128,141747,6,0,B|160:104|160:80|160:80|160:40,2,86.3999973632813,2|2|8
112,176,142684,2,0,B|88:232|112:288,1,115.199996484375,2|8
216,328,143622,2,0,B|304:328,2,86.3999973632813,2|8|2
216,328,144559,1,2
376,160,145497,6,0,B|420:148|460:160,2,86.3999973632813,2|8|0
320,176,146434,2,0,B|264:200|208:176,1,115.199996484375,2|8
160,72,147372,1,2
208,40,147606,2,0,B|264:16|320:40,1,115.199996484375,2|10
368,72,148309,1,2
320,176,148778,1,8
256,192,149247,12,4,152997
320,112,167528,22,0,B|320:56,1,57.5999982421876,0|2
368,88,167997,2,0,B|416:128|408:192,1,115.199996484375,4|0
376,240,168700,1,2
320,256,168934,2,0,B|320:312,2,57.5999982421876,0|0|2
248,144,169872,6,0,B|248:88,2,57.5999982421876,0|0|2
224,200,170575,1,0
248,256,170809,1,4
184,352,171278,38,0,B|168:296,1,57.5999982421876,0|2
152,240,171747,2,0,B|96:264|40:240,1,115.199996484375
8,192,172450,1,2
40,144,172684,2,0,B|96:112|96:48,1,115.199996484375,0|2
208,80,173622,5,0
255,46,173856,1,0
302,80,174090,1,2
284,135,174325,1,0
227,133,174559,1,4
304,28,175028,38,0,B|360:28,1,57.5999982421876,0|2
408,64,175497,2,0,B|432:120|408:176,1,115.199996484375,4|2
360,208,176200,1,0
312,240,176434,2,0,B|288:296|312:352,1,115.199996484375,0|2
416,296,177372,5,0
456,256,177606,1,0
472,200,177840,2,0,B|472:144,2,57.5999982421876,2|0|4
384,120,178778,38,0,B|336:80,1,57.5999982421876,0|2
296,48,179247,2,0,B|184:0|72:48,1,230.39999296875
56,104,180418,1,0
88,152,180653,2,0,B|120:200,1,57.5999982421876,2|0
152,248,181122,5,0
256,304,181590,1,2
360,248,182059,1,4
256,40,182997,6,0,B|200:120|256:200,1,172.799994726563,4|0
312,176,183934,2,0,B|344:160|352:136|352:136|360:160|392:176,1,115.199996484375,0|2
432,288,184872,38,0,B|408:344,1,57.5999982421876
360,304,185340,2,0,B|336:360,1,57.5999982421876,2|0
288,320,185809,1,4
192,256,186278,21,2
96,192,186747,2,0,B|56:168|51:124|51:124|80:88|128:88,1,172.799994726563
184,72,187684,2,0,B|224:72|240:56|240:56|256:72|296:72,1,115.199996484375,0|2
240,176,188622,22,0,B|256:232,1,57.5999982421876
304,200,189090,2,0,B|360:200,1,57.5999982421876,2|0
416,200,189559,1,4
392,312,190028,37,2
280,312,190497,2,0,B|224:336|168:312,1,115.199996484375,4|0
120,280,191200,1,0
104,224,191434,2,0,B|80:168|104:112,1,115.199996484375,0|2
208,64,192372,6,0,B|224:120,1,57.5999982421876
288,120,192840,2,0,B|304:64,2,57.5999982421876,2|0|4
256,232,193778,38,0,B|256:292,1,57.5999982421876,0|2
312,264,194247,2,0,B|368:288|424:264,1,115.199996484375
464,224,194950,1,0
456,168,195184,2,0,B|480:112|456:56,1,115.199996484375,0|2
344,56,196122,5,0
286,54,196356,1,0
267,109,196591,1,2
313,144,196825,1,0
360,112,197059,2,0,B|416:192|364:280,1,175.488,4|4
