osu file format v9

[General]
AudioFilename: ban kogarashi.mp3
AudioLeadIn: 3000
PreviewTime: 167528
Countdown: 0
SampleSet: Soft
StackLeniency: 0.6
Mode: 0
LetterboxInBreaks: 0

[Editor]
DistanceSpacing: 1.35
BeatDivisor: 4
GridSize: 4

[Metadata]
Title:Tsugai Kogarashi
Artist:Usatsurai
Creator:Beren
Version:Kiiwa
Source:
Tags:Usa Tolie A Pair of Wintry Winds Kiiwa S h i a shia vocaloid Sumowind lolcubes

[Difficulty]
HPDrainRate:5
CircleSize:4
OverallDifficulty:5
ApproachRate:6
SliderMultiplier:1.2
SliderTickRate:1

[Events]
//Background and Video events
0,0,"BG.jpg"
//Break Periods
2,153197,162259
//Storyboard Layer 0 (Background)
//Storyboard Layer 1 (Fail)
//Storyboard Layer 2 (Pass)
//Storyboard Layer 3 (Foreground)
//Storyboard Sound Samples
//Background Colour Transformations
3,100,163,162,255

[TimingPoints]
699,600,4,2,1,50,1,0
37899,-100,4,1,1,30,0,0
38049,-100,4,2,1,50,0,0
38499,-100,4,1,1,35,0,0
38649,-100,4,2,1,50,0,0
39099,-100,4,1,1,45,0,0
39249,-100,4,2,1,50,0,0
75705,666.666666666667,4,2,1,40,1,0
76371,681.818181818182,4,2,1,50,1,0
77434,681.818181818182,4,2,1,30,1,0
77997,468.75,4,2,1,50,1,0
152997,-100,4,2,0,50,0,0
163309,-100,4,2,1,50,0,0
167528,-100,4,1,0,50,0,0
167997,-100,4,2,1,50,0,0
197550,666.666666666667,4,2,1,50,1,0
198345,594.059405940594,4,2,1,40,1,0
215610,594.059405940594,4,2,1,40,1,0
216305,740.740740740741,4,2,1,30,1,0

[Colours]
Combo1 : 100,137,138
Combo2 : 255,128,128
Combo3 : 238,202,106
Combo4 : 165,199,167
SliderBorder : 255,255,255

[HitObjects]
256,86,99,6,0,B|243:61|187:72|175:129|200:141,1,120,0|8
106,256,1299,6,0,B|167:278|223:190|198:140,1,180
240,208,2499,2,0,B|272:272|360:288|360:288|368:336,1,180,4|0
440,328,3699,1,0
366,318,3999,1,0
304,352,4299,1,0
152,312,4899,2,0,B|96:320|80:280,1,60,8|0
152,312,5499,6,0,B|104:288|104:208,1,120,4|0
240,128,6699,2,0,B|288:152|288:232,1,120,0|8
152,312,7899,1,8
288,232,8499,1,0
424,152,9099,1,0
424,152,9699,2,0,B|456:128|456:80,1,60,8|0
424,152,10299,6,0,B|456:112|432:48|368:32|328:64,1,180,4|0
272,104,11499,2,0,B|232:160|144:144,2,120,0|0|0
120,104,13299,2,0,B|176:136|160:216,1,120,0|8
128,280,14199,1,0
160,352,14499,1,4
312,336,15099,6,0,B|368:256|480:256|480:256|512:208,1,240,8|0
506,216,16899,1,4
352,224,17499,2,0,B|384:200|424:200,1,60,8|0
352,224,18099,2,0,B|312:240|288:264,1,60,8|0
248,312,18699,1,8
96,352,19299,5,8
120,280,19599,1,0
152,208,19899,2,0,B|168:128|224:88|264:128|248:200|192:160,1,180,4|0
272,120,21099,2,0,B|312:72|376:56,1,120,0|8
448,192,22299,6,0,B|416:141,1,60
448,192,22899,2,0,B|507:189,1,60
448,192,23499,2,0,B|419:244,1,60
384,312,24099,1,4
232,336,24699,6,0,B|184:304|192:232|192:232|112:256|64:208,1,240,8|8
8,168,26199,1,0
82,134,26499,2,0,B|112:165|168:173|192:152,1,120,0|8
248,135,27399,6,0,B|208:135|192:152,1,60
240,216,27999,2,0,B|211:244|209:277,1,60
288,280,28599,2,0,B|288:319|310:345,1,60,0|8
456,328,29499,6,0,B|408:319|371:280|375:222,1,120,4|0
384,168,30399,1,0
312,292,30999,1,0
252,340,31299,2,0,B|204:340|168:304|164:260,1,120,0|8
88,248,32199,5,0
104,168,32499,1,0
184,152,32799,1,0
224,216,33099,1,8
304,80,33699,2,0,B|344:56|376:88,1,60,8|0
304,80,34299,6,0,B|344:64|408:136|376:224,1,180,4|0
320,216,35499,2,0,B|397:210,1,60
456,200,36099,1,8
400,344,36699,1,4
88,296,37899,6,0,B|128:296|144:352,1,60,0|0
184,272,38499,2,0,B|212:300|184:351,1,60,0|0
272,320,39099,2,0,B|272:360|215:376,1,60,4|0
239,366,39699,5,4
256,288,39999,1,0
296,216,40299,2,0,B|344:152|432:160|432:160|456:120,1,180
472,64,41499,1,8
320,24,42099,1,0
280,96,42399,1,0
216,136,42699,2,0,B|196:160|144:168,1,60
88,160,43299,6,0,B|144:144|192:200|184:240,1,120,0|4
208,288,44199,2,0,B|224:320|224:360,1,60
304,328,44799,2,0,B|384:304|440:360|440:360|472:336,1,180
496,264,45999,1,0
432,216,46299,5,8
378,89,46899,1,0
294,198,47499,1,0
368,168,47799,1,4
312,224,48099,2,0,B|272:280|280:352,1,120,0|8
136,272,49299,5,0
159,349,49599,2,0,B|224:328|216:256,2,120,0|4|0
80,360,51099,2,0,B|67:385|11:374|-1:317|24:305,1,120,4|8
40,232,51999,2,0,B|64:200|64:152,1,60
200,96,52899,5,8
344,160,53499,2,0,B|384:176|392:216,2,60
108,96,54999,5,8
181,132,55299,2,0,B|217:150|230:194,1,60,4|0
256,192,55899,12,8,57699
320,256,58299,6,4,B|440:240,1,120,4|0
504,288,59199,1,0
440,240,59499,1,0
400,176,59799,2,0,B|368:120|400:40,1,120
464,24,60699,5,8
320,88,61299,1,0
168,56,61899,1,0
48,152,62499,2,0,B|80:160|96:192,1,60,8|0
48,152,63099,6,0,B|88:128|152:176|144:224,1,120,4|0
152,280,63999,2,0,B|200:296|200:296|336:296,1,180
392,256,65199,1,0
422,186,65499,6,0,B|408:128,1,60
350,111,66099,2,0,B|408:128,1,60
451,86,66699,2,0,B|408:128,1,60
168,48,67899,6,0,B|144:120|184:160|184:160|144:208|168:280,1,240,4|0
124,340,69399,2,0,B|164:372|212:356|228:316,1,120
264,248,70299,2,0,B|280:216|336:216,1,60,8|0
392,208,70899,2,0,B|512:208,2,120,0|8|0
288,88,72699,6,0,B|304:48|288:16,1,60,4|0
224,56,73299,2,0,B|200:112|96:128|56:88,1,180
120,152,74499,2,0,B|152:184|160:240|160:240|192:224,1,120,8|0
336,192,75705,1,0
408,352,76371,1,0
213,328,77052,1,0
213,328,77434,5,4
96,224,77997,6,0,B|96:120|-16:72|-16:72|24:40,1,240,10|0
136,88,79403,2,0,B|176:128|184:176|176:216,2,120
208,116,80575,1,0
280,136,80809,2,0,B|360:144|416:80|416:80|448:112,1,180
496,144,81747,5,6
240,280,82684,2,0,B|288:368,2,90
312,272,83622,2,0,B|264:232|168:248|160:312,1,180
112,360,84559,1,0
56,224,85028,2,0,B|32:192|40:160,1,60,8|0
56,224,85497,6,0,B|48:168|96:96|160:88,1,180,6|0
208,136,86434,2,0,B|240:88|208:24|176:24,2,120,0|8|0
144,264,87840,1,0
272,336,88309,2,0,B|368:336|368:336|408:368,1,120,0|8
424,208,89247,6,0,B|384:152|416:56|416:56|384:88|328:72,1,240,6|0
272,56,90418,2,0,B|224:48|208:16,2,60,0|8|0
320,112,91122,5,8
320,112,91590,1,8
320,112,92059,1,8
320,112,92528,2,0,B|344:144|336:184,1,60,4|0
320,112,92997,6,0,B|336:168|304:240|232:256,1,180,10|0
240,184,93934,2,0,B|224:216|184:208,1,60
208,136,94403,2,0,B|160:160|104:128|112:80,1,120
111,97,95340,1,0
111,97,95809,1,0
168,232,96278,2,0,B|208:232|208:272,1,60,8|0
168,232,96747,6,0,B|216:216|272:272|264:320|232:368,1,180,6|0
296,304,97684,2,0,B|360:264|432:296|432:296|472:264,1,180,8|0
504,208,98622,1,0
504,208,99090,1,0
504,208,99559,1,0
416,96,100028,2,0,B|392:64|352:72,1,60
416,96,100497,6,0,B|368:80|296:88|248:152,1,180,6|0
288,208,101434,2,0,B|224:192|192:112|240:40,1,180
152,72,102372,2,0,B|80:80,3,60
40,128,103309,1,0
120,248,103778,2,0,B|160:256|160:312,1,60,8|0
120,248,104247,6,0,B|168:224|248:288|224:368,1,180,6|0
288,312,105184,2,0,B|312:336|312:336|472:336,1,180
496,272,106122,1,4
248,72,107059,6,8,B|176:112,3,60,8|0|0|0
152,152,107997,6,0,B|120:168|104:240|160:264,1,120,6|0
216,280,108700,1,0
144,256,108934,2,0,B|0:256,2,120,8|8|0
216,280,110106,1,0
280,304,110340,2,0,B|320:328|312:368,1,60
313,351,110809,1,8
408,240,111278,2,0,B|424:208|464:192,1,60
512,160,111747,6,0,B|464:192|392:144|392:80|432:48,1,180,6|0
352,88,112684,2,0,B|304:104|296:128,1,60
280,184,113153,1,0
208,192,113387,1,0
184,124,113622,5,0
240,80,113856,1,0
200,16,114090,1,0
128,24,114325,2,0,B|112:48|112:96,1,60
176,224,115028,2,0,B|208:264|200:296,1,60,8|0
144,320,115497,6,0,B|288:320,1,120,6|0
336,320,116200,1,0
392,272,116434,2,0,B|400:232|456:200|512:208,1,120,0|8
392,96,117372,2,0,B|328:72,3,60
312,8,118309,1,0
200,104,118778,2,0,B|152:120|160:168,1,60,8|0
200,104,119247,6,0,B|144:96|96:184|152:240,1,180,6|0
312,280,120418,2,0,B|368:288|416:200|360:144,1,180,8|6
292,136,121356,2,0,B|196:160|148:48|208:32|220:56,1,180
96,176,122528,2,0,B|148:212|140:280,1,120,8|2
256,192,123465,6,0,B|360:176|368:64|368:64|400:112,1,240,8|0
424,176,124637,1,0
432,248,124872,2,0,B|456:280|448:368|392:320|424:296,1,120,8|0
352,320,125575,2,0,B|312:320|288:360,1,60
160,304,126278,2,0,B|120:296|104:336,1,60
160,304,126747,6,0,B|112:328|48:288|32:240|40:192,1,180,6|0
112,208,127684,2,0,B|112:248|168:232,1,60
224,224,128153,2,0,B|288:216|328:160,1,120,0|8
352,96,128856,1,0
336,240,129325,2,0,B|304:280|312:344|344:368,1,120
329,352,130028,1,8
432,248,130497,6,0,B|472:240|520:144|464:64|400:56,1,240,6|0
344,80,131668,2,0,B|280:104,1,60
144,128,132372,1,8
216,128,132606,1,0
280,168,132840,2,0,B|320:192|312:240,2,60,0|0|4
392,256,133778,2,0,B|320:248|272:296,1,120,0|6
416,324,134715,6,0,B|488:292|472:204|432:180|392:188,1,180,8|0
344,168,135653,2,0,B|288:160|288:112,1,60
352,96,136122,1,8
400,40,136356,1,0
472,24,136590,2,0,B|432:72|344:72|296:32,1,180,8|0
306,39,137528,1,8
180,48,137997,5,6
180,48,138465,2,0,B|156:120,1,60,8|0
92,88,138934,5,6
92,88,139403,2,0,B|68:160,1,60,8|0
140,144,139872,6,0,B|148:184|116:208,1,60,6|0
212,184,140340,2,0,B|204:220|184:240,1,60,8|0
260,272,140809,2,0,B|248:308|192:328|152:312,2,120,0|8|4
320,224,141981,5,0
352,160,142215,1,8
424,168,142450,1,0
432,240,142684,1,6
368,280,142918,1,0
320,224,143153,1,8
224,152,143622,5,6
88,120,144090,1,8
184,8,144559,1,6
184,8,145028,1,0
312,66,145497,6,0,B|376:82|384:152,1,120,6|0
493,132,146434,2,0,B|448:180|384:152,1,120,6|0
345,256,147372,2,0,B|327:193|384:152,1,120,6|0
384,151,148075,2,0,B|385:208|337:248|265:240|233:200,1,180,8|6
184,184,149012,1,0
104,200,149247,6,0,B|48:240,3,60,6|0|8|0
120,272,150184,2,0,B|88:328,3,60,6|0|6|0
168,320,151122,2,0,B|176:384,3,60,6|10|6|0
240,344,152059,1,6
368,296,152528,1,8
464,192,152997,5,4
256,192,163309,12,4,165184
88,268,166122,6,0,B|60:296|64:368|168:372|184:292|132:256|132:256|168:264|196:228|196:228|240:232|260:188,1,360,0|4
384,304,167997,6,0,B|408:240|480:240,1,120,4|0
464,312,168700,2,0,B|428:327|364:295|316:239|340:199,1,180,0|8
328,144,169637,1,0
392,120,169872,5,0
328,144,170106,1,0
280,96,170340,1,0
312,32,170575,1,0
384,48,170809,1,8
240,32,171278,2,0,B|208:40|192:64,1,60,8|0
240,32,171747,6,0,B|208:8|120:72|160:152,1,180,4|0
176,224,172684,2,0,B|256:232|272:336|272:336|304:320,1,180,8|0
360,304,173622,2,0,B|424:320,3,60
472,272,174559,1,0
432,136,175028,2,0,B|440:104|408:72,1,60,8|0
432,136,175497,6,0,B|416:96|312:72|272:128,1,180,4|0
312,184,176434,2,0,B|288:216|208:216|176:152|184:96|232:56,1,240,0|8
168,104,177606,1,0
96,112,177840,1,0
32,80,178075,1,0
8,16,178309,1,0
48,152,178778,2,0,B|56:208|80:224,1,60,8|0
88,280,179247,6,0,B|128:248|224:288|216:360,1,180,4|0
280,328,180184,2,0,B|416:328,1,120
472,328,180887,1,0
416,288,181122,2,0,B|392:248|392:216,1,60,0|0
384,160,181590,2,0,B|376:112|384:72,1,60
392,32,182059,1,0
272,112,182528,2,0,B|240:144|240:192,1,60,8|0
272,112,182997,6,0,B|216:120|192:240|248:296|320:288,1,240,4|0
376,280,184168,1,0
302,288,184403,2,0,B|174:288,1,120
112,288,185106,1,0
56,240,185340,1,0
192,192,185809,1,0
56,152,186278,1,8
192,104,186747,6,0,B|288:120|392:32|304:0|256:0|288:56,1,240,4|0
328,112,187918,2,0,B|360:160|432:176,1,120
480,224,188622,2,0,B|464:288,3,60,8|0|0|0
400,304,189559,1,0
256,304,190028,2,0,B|228:324|228:376,1,60,8|0
256,304,190497,6,0,B|232:344|136:336|88:264|128:184,1,240,4|0
144,128,191668,1,0
16,184,192137,2,0,B|32:136|-16:120,1,60
104,24,192840,1,0
240,80,193309,1,0
384,48,193778,2,0,B|400:88|456:80,1,60,8|0
384,48,194247,6,0,B|368:104|472:160|520:128,1,180,4|0
456,176,195184,2,0,B|384:184|352:272|352:272|320:264,1,180
304,336,196122,1,2
176,268,196590,1,2
292,184,197059,1,2
252,44,197550,2,2,B|244:12,2,30
252,44,198345,5,4
172,156,198939,2,0,B|140:212|44:228|-4:164,1,180
64,232,200127,2,0,B|96:256|112:312|104:360,1,120,0|8
240,296,201315,1,0
384,304,201909,2,0,B|424:304|448:320,1,60
496,368,202503,2,0,B|456:320|480:256,1,120,0|8
504,112,203691,5,0
368,64,204285,2,0,B|264:48|216:176|216:176|192:144,1,240,0|8
88,56,206067,1,0
56,120,206364,2,0,B|40:152|8:168,1,60
17,163,207255,2,0,B|98:184|114:264,1,120,0|4
200,344,208444,5,0
288,232,209038,2,0,B|328:176|400:168,1,120
472,288,210226,2,0,B|384:224|432:112,1,180,8|0
464,64,211414,2,0,B|440:96|384:72,1,60
336,80,212008,1,0
280,32,212305,1,0
208,24,212602,6,0,B|208:80|80:120|96:24|168:48,1,180,8|0
208,104,213790,2,0,B|240:128|248:224,1,120,0|8
256,360,214978,1,6
340,240,215610,5,6
164,240,216305,5,6
