osu file format v10

[General]
AudioFilename: haru usami-Rain of a tear.mp3
AudioLeadIn: 0
PreviewTime: 135910
Countdown: 0
SampleSet: Soft
StackLeniency: 0.7
Mode: 0
LetterboxInBreaks: 1

[Editor]
DistanceSpacing: 0.6
BeatDivisor: 4
GridSize: 4

[Metadata]
Title:Rain of Tears
TitleUnicode:
Artist:Usami Haru
ArtistUnicode:
Creator:DeathBlood
Version:Insane
Source:G-Senjou no Maou
Tags:frost-b-spec RoRo_Rosset hibarirailwayz
BeatmapID:174660
BeatmapSetID:58038

[Difficulty]
HPDrainRate:7
CircleSize:4
OverallDifficulty:7
ApproachRate:8
SliderMultiplier:1.8
SliderTickRate:1

[Events]
//Background and Video events
0,0,"BG.jpg"
//Break Periods
2,89487,98011
//Storyboard Layer 0 (Background)
//Storyboard Layer 1 (Fail)
//Storyboard Layer 2 (Pass)
//Storyboard Layer 3 (Foreground)
//Storyboard Sound Samples
//Background Colour Transformations
3,100,163,162,255

[TimingPoints]
25340,394.736842105263,4,2,1,60,1,0
64813,-100,4,2,1,90,0,1
64912,-100,4,2,1,80,0,1
77346,-100,4,2,1,60,0,0
77445,-100,4,2,1,90,0,1
77543,-100,4,2,1,80,0,1
89287,-100,4,2,1,40,0,0
98761,-100,4,2,1,60,0,0
137445,-100,4,2,1,90,0,1
137543,-100,4,2,1,80,0,1
149978,-100,4,2,1,60,0,0
150076,-100,4,2,1,90,0,1
150175,-100,4,2,1,80,0,1
161918,-100,4,2,1,40,0,0
162313,-100,4,2,1,60,0,0
176918,-200,4,2,1,50,0,0
187971,-200,4,2,1,70,0,1
188070,-200,4,2,1,45,0,0
189550,-133.333333333333,4,2,1,55,0,0
189945,-100,4,2,1,60,0,0
190208,-100,4,3,1,60,0,0
191129,-83.3333333333333,4,2,1,90,0,1
191228,-83.3333333333333,4,2,1,80,0,1
191721,-100,4,2,1,80,0,1
203662,-100,4,2,1,70,0,0
203761,-83.3333333333333,4,2,1,90,0,1
203859,-83.3333333333333,4,2,1,80,0,1
216293,-83.3333333333333,4,2,1,70,0,0
216392,-83.3333333333333,4,2,1,90,0,1
216491,-83.3333333333333,4,2,1,80,0,1
219451,-83.3333333333333,4,2,1,70,0,0
219550,-83.3333333333333,4,2,1,90,0,1
219649,-83.3333333333333,4,2,1,80,0,1
220833,-83.3333333333333,4,2,1,70,0,0
220932,-83.3333333333333,4,2,1,90,0,1
221030,-83.3333333333333,4,2,1,80,0,1
229024,-100,4,2,1,80,0,0
229122,-100,4,2,1,60,0,0
262083,-100,4,2,1,45,0,0
263168,-200,4,2,1,40,0,0
263761,-200,4,2,1,30,0,0
265339,-200,4,2,1,60,0,1
265438,-200,4,2,1,60,0,0
267708,-200,4,2,1,50,0,0
270076,-200,4,2,1,40,0,0
271655,-100,4,2,1,5,0,0

[Colours]
Combo1 : 128,128,128
Combo2 : 255,255,255
Combo3 : 198,255,255
Combo4 : 192,192,192
SliderBorder : 255,255,255

[HitObjects]
80,88,26129,2,0,B|116:52|188:60,1,90,2|0,0:0|0:0,0:0:0
264,120,26524,2,0,B|224:156|156:148,1,90,2|0,0:0|0:0,0:0:0
88,184,26918,2,0,B|80:252|140:304|204:304,1,180,2|0,0:0|0:0,0:0:0
300,296,27511,1,0,0:0:0
396,264,27708,2,0,B|472:220|472:220|483:167|453:124,2,180,2|0|2,0:0|0:0|0:0,0:0:0
300,296,28695,1,2,0:0:0
92,220,29089,6,0,B|103:186|198:138|275:169,1,180,2|2,0:0|0:0,0:0:0
344,176,29682,1,2,0:0:0
432,216,29879,2,0,B|460:264|440:312,1,90,0|2,0:0|0:0,0:0:0
360,344,30274,2,0,B|312:372|264:352,2,90,2|0|2,0:0|0:0|0:0,0:0:0
512,280,30866,6,0,B|520:232|488:148|432:128,1,180,2|2,0:0|0:0,0:0:0
344,100,31458,1,0,0:0:0
260,144,31655,2,0,B|240:188|240:188|252:240,2,90,2|0|2,0:0|0:0|0:0,0:0:0
404,32,32247,2,0,B|464:44|464:44|508:76|496:164,1,180,2|2,0:0|0:0,0:0:0
480,248,32839,1,2,0:0:0
404,300,33037,2,0,B|360:320|360:320|276:276|216:296,1,180,2|0,0:0|0:0,0:0:0
116,176,33629,2,0,B|160:156|160:156|244:200|304:180,1,180,2|0,0:0|0:0,0:0:0
368,152,34221,1,2,0:0:0
380,64,34418,6,0,B|320:56|292:104,1,90,2|0,0:0|0:0,0:0:0
356,244,34813,2,0,B|416:252|444:204,1,90,2|0,0:0|0:0,0:0:0
456,128,35208,1,2,0:0:0
284,36,35405,2,0,B|232:20|152:52|124:104,1,180,2|2,0:0|0:0,0:0:0
64,224,35997,1,0,0:0:0
192,268,36195,2,0,B|248:272|276:228,1,90,2|0,0:0|0:0,0:0:0
324,160,36589,5,2,0:0:0
268,88,36786,1,0,0:0:0
184,120,36984,1,2,0:0:0
188,204,37182,2,0,B|220:248|296:268|360:232,1,180,0|2,0:0|0:0,0:0:0
492,112,37971,6,0,B|516:64,2,45,2|0|2,0:0|0:0|0:0,0:0:0
460,196,38366,1,0,0:0:0
472,280,38563,1,0,0:0:0
404,336,38761,6,0,B|364:368|300:352,1,90,2|0,0:0|0:0,0:0:0
164,268,39155,2,0,B|204:236|268:252,1,90,2|0,0:0|0:0,0:0:0
356,240,39550,2,0,B|412:208|404:112|328:92,1,180,2|2,0:0|0:0,0:0:0
116,48,40339,6,0,B|64:72|36:148|64:216,1,180,2|2,0:0|0:0,0:0:0
112,292,40932,1,0,0:0:0
212,268,41129,2,0,B|256:264|256:264|288:220,1,90,2|0,0:0|0:0,0:0:0
332,136,41524,2,0,B|380:96|440:88|488:104|488:104|508:144,1,180,2|2,0:0|0:0,0:0:0
460,272,42116,2,0,B|400:304|361:281,1,90,2|0,0:0|0:0,0:0:0
120,164,42708,6,0,B|64:184|28:260|76:328,1,180,2|0,0:0|0:0,0:0:0
160,352,43300,1,2,0:0:0
260,344,43497,2,0,B|292:296|272:224,1,90,2|0,0:0|0:0,0:0:0
268,160,43892,1,2,0:0:0
180,220,44089,2,0,B|208:268|296:292|360:228,1,180,2|0,0:0|0:0,0:0:0
452,152,44682,1,2,0:0:0
452,152,44780,1,0,0:0:0
452,152,44879,1,0,0:0:0
452,272,45076,2,0,B|456:320|424:356,1,90,2|0,0:0|0:0,0:0:0
272,324,45471,6,0,B|268:276|300:240,1,90,2|0,0:0|0:0,0:0:0
352,160,45866,2,0,B|380:116|380:116|356:48|264:68,1,180,2|2,0:0|0:0,0:0:0
184,112,46458,2,0,B|152:148|156:204,2,90,2|0|2,0:0|0:0|0:0,0:0:0
276,64,47050,2,0,B|323:60|359:92,1,90,0|2,0:0|0:0,0:0:0
456,196,47445,6,0,B|460:308|344:352,1,180,2|2,0:0|0:0,0:0:0
204,336,48037,2,0,B|157:340|114:299,2,90,0|2|0,0:0|0:0|0:0,0:0:0
304,304,48629,2,0,B|337:268|333:221,1,90,2|0,0:0|0:0,0:0:0
336,124,49024,2,0,B|300:76|216:56|152:76,1,180,2|0,0:0|0:0,0:0:0
80,96,49616,1,2,0:0:0
80,96,49813,1,2,0:0:0
64,288,50208,5,0,0:0:0
156,332,50405,2,0,B|196:360|296:348|340:308,1,180,2|2,0:0|0:0,0:0:0
408,244,50997,1,0,0:0:0
432,216,51096,1,0,0:0:0
440,180,51195,1,0,0:0:0
428,80,51392,1,2,0:0:0
428,80,51787,5,2,0:0:0
312,168,51984,1,2,0:0:0
272,40,52182,2,0,B|200:28|200:28|100:64,1,180,4|0,0:0|0:0,0:0:0
60,228,52774,2,0,B|132:240|132:240|232:204,1,180,2|0,0:0|0:0,0:0:0
312,168,53366,1,0,0:0:0
344,92,53563,5,2,0:0:0
216,44,53761,2,0,B|176:96|176:96|184:136,1,90,2|0,0:0|0:0,0:0:0
232,208,54155,1,2,0:0:0
300,292,54353,2,0,B|344:340|344:340|400:316|464:344,1,180,2|0,0:0|0:0,0:0:0
456,340,54945,1,0,0:0:0
345,338,55142,6,0,B|257:338,1,90,2|0,0:0|0:0,0:0:0
120,336,55537,2,0,B|84:276|84:276|96:252,1,90,2|0,0:0|0:0,0:0:0
152,116,55932,2,0,B|168:88|190:75|228:72|228:72|246:100|248:140|211:166,1,180,2|0,0:0|0:0,0:0:0
204,244,56524,1,0,0:0:0
252,324,56721,2,0,B|292:364|292:364|376:372|416:312,1,180,2|0,0:0|0:0,0:0:0
492,216,57313,1,2,0:0:0
492,216,57412,1,0,0:0:0
492,216,57511,1,0,0:0:0
328,260,57708,2,0,B|304:212|332:168,2,90,2|0|0,0:0|0:0|0:0,0:0:0
404,216,58300,5,0,0:0:0
232,212,58497,2,0,B|160:212|160:212|120:256|52:256,1,180,2|0,0:0|0:0,0:0:0
64,100,59089,2,0,B|123:99|163:143|163:143|235:143,1,180,2|2,0:0|0:0,0:0:0
332,132,59682,1,0,0:0:0
404,72,59879,5,2,0:0:0
240,36,60076,2,0,B|208:76|212:168|296:208,1,180,2|2,0:0|0:0,0:0:0
396,260,60668,2,0,B|500:260,2,90,2|0|0,0:0|0:0|0:0,0:0:0
280,312,61261,6,0,B|244:348|160:360|88:328,1,180,2|4,0:0|0:0,0:0:0
232,72,62050,2,0,B|268:36|352:24|424:56,2,180,2|4|2,0:0|0:0|0:0,0:0:0
52,284,63234,6,0,B|116:284|116:284|152:268,1,90,4|0,0:0|0:0,0:0:0
460,112,63629,2,0,B|396:112|396:112|360:128,1,90,4|0,0:0|0:0,0:0:0
256,200,64024,1,4,0:0:0
256,216,64122,1,0,0:0:0
256,232,64221,1,0,0:0:0
256,248,64320,1,0,0:0:0
256,264,64418,1,4,0:0:0
256,280,64517,1,0,0:0:0
256,295,64616,1,0,0:0:0
256,312,64714,1,0,0:0:0
256,328,64813,6,0,B|292:360|404:360|436:316,1,180,12|0,0:0|0:0,0:0:0
500,224,65405,1,0,0:0:0
488,112,65603,2,0,B|424:112|388:160|380:208|380:208|332:208,1,180,8|0,0:0|0:0,0:0:0
224,208,66195,1,0,0:0:0
84,292,66392,6,0,B|132:308|204:276,1,90,8|0,0:0|0:0,0:0:0
220,120,66787,2,0,B|204:168|236:240,1,90
296,324,67182,2,0,B|332:356|393:353|393:353|400:304|448:280,1,180,8|0,0:0|0:0,0:0:0
508,196,67774,1,0,0:0:0
436,96,67971,2,0,B|388:60|296:64|256:108,1,180,12|0,0:0|0:0,0:0:0
116,196,68563,1,0,0:0:0
112,220,68662,1,0,0:0:0
116,244,68761,2,0,B|114:292|153:332,2,90,8|0|0,0:0|0:0|0:0,0:0:0
132,108,69550,6,0,B|184:76|184:76|232:80,1,90,8|0,0:0|0:0,0:0:0
348,192,69945,2,0,B|296:224|296:224|248:220,1,90
104,220,70339,2,0,B|60:256|60:300|60:300|104:320|160:304,1,180,8|0,0:0|0:0,0:0:0
252,264,70932,1,0,0:0:0
348,192,71129,2,0,B|388:132|280:80|244:144|244:144|240:148,1,180,8|0,0:0|0:0,0:0:0
176,248,71721,1,0,0:0:0
248,360,71918,1,8,0:0:0
248,360,72313,6,0,B|196:380|144:360,1,90
68,304,72708,1,8,0:0:0
24,192,72905,2,0,B|64:108|64:108|112:124|160:80,1,180,8|0,0:0|0:0,0:0:0
92,28,73497,1,8,0:0:0
24,192,73892,2,0,B|56:220|160:220|196:192,1,180,0|8,0:0|0:0,0:0:0
256,116,74484,1,0,0:0:0
312,40,74682,2,0,B|348:12|452:12|484:40,2,180,0|8|0,0:0|0:0|0:0,0:0:0
192,44,75866,6,0,B|192:112|192:112|212:140,1,90,12|0,0:0|0:0,0:0:0
316,344,76261,2,0,B|316:276|316:276|296:248,1,90,4|0,0:0|0:0,0:0:0
216,200,76655,1,12,0:0:0
192,200,76754,1,0,0:0:0
168,200,76853,1,0,0:0:0
144,200,76951,1,0,0:0:0
120,200,77050,1,4,0:0:0
96,200,77149,1,0,0:0:0
72,200,77247,1,0,0:0:0
48,200,77346,1,0,0:0:0
28,200,77445,6,0,B|4:248|28:336|80:368,1,180,12|0,0:0|0:0,0:0:0
176,356,78037,1,0,0:0:0
256,296,78234,2,0,B|220:252|164:256|164:256|120:244|120:200,1,180,8|0,0:0|0:0,0:0:0
120,96,78826,1,0,0:0:0
216,40,79024,2,0,B|280:40|280:40|328:56,1,90,8|0,0:0|0:0,0:0:0
480,168,79418,2,0,B|416:168|416:168|368:152,1,90
120,96,79813,5,8,0:0:0
120,112,80208,1,0,0:0:0
120,128,80603,2,0,B|70:157|72:252|120:288,1,180,12|0,0:0|0:0,0:0:0
256,364,81195,1,0,0:0:0
394,286,81392,2,0,B|439:251|440:156|391:127,1,180,12|0,0:0|0:0,0:0:0
256,24,81984,2,0,B|256:228,1,180,12|8,0:0|0:0,0:0:0
256,364,82576,1,12,0:0:0
256,364,82971,2,0,B|256:176,1,180,12|0,0:0|0:0,0:0:0
256,24,83761,6,0,B|256:114,1,90,12|0,0:0|0:0,0:0:0
256,112,84353,2,0,B|300:116|356:216|308:324|256:332,1,270,2|2,0:0|0:0,0:0:0
104,360,85339,2,0,B|32:328|0:216|36:72|120:52,1,360,2|2,0:0|0:0,0:0:0
256,192,86524,1,2,0:0:0
256,192,86918,1,6,0:0:0
256,192,87116,12,2,89287,0:0:0
28,116,98761,5,2,0:0:0
160,116,98958,1,0,0:0:0
52,200,99155,1,2,0:0:0
96,56,99353,1,2,0:0:0
140,200,99550,2,0,B|184:272|184:272|232:292|304:260,1,180,4|0,0:0|0:0,0:0:0
352,208,100142,1,0,0:0:0
368,116,100339,2,0,B|332:72|288:72|288:72|268:116|284:172,1,180,2|2,0:0|0:0,0:0:0
296,336,100932,1,2,0:0:0
340,268,101129,2,0,B|296:244|240:268,2,90,2|0|2,0:0|0:0|0:0,0:0:0
496,296,101721,6,0,B|504:236|504:236|480:200,1,90,2|0,0:0|0:0,0:0:0
356,60,102116,2,0,B|348:120|348:120|372:156,1,90,2|0,0:0|0:0,0:0:0
408,216,102511,1,0,0:0:0
340,268,102708,2,0,B|276:268|216:320|216:320|164:296,1,180,2|0,0:0|0:0,0:0:0
72,232,103300,1,2,0:0:0
160,140,103497,2,0,B|204:172|196:228,1,90,0|0,0:0|0:0,0:0:0
216,320,103892,6,0,B|276:356|276:356|320:344,1,90,2|0,0:0|0:0,0:0:0
416,296,104287,1,2,0:0:0
444,152,104484,2,0,B|408:104|280:156|304:212,1,180,2|0,0:0|0:0,0:0:0
272,296,105076,1,2,0:0:0
180,356,105274,2,0,B|132:336|128:272,1,90
152,128,105668,2,0,B|208:144|236:248|196:296,1,180,2|0,0:0|0:0,0:0:0
100,340,106261,2,0,B|68:288|68:288|88:248,1,90,2|0,0:0|0:0,0:0:0
152,128,106655,2,0,B|196:68|268:60|268:60|308:88,1,180,2|2,0:0|0:0,0:0:0
380,160,107247,5,0,0:0:0
384,272,107445,2,0,B|340:268|316:248|316:248|300:220,1,90,2|0,0:0|0:0,0:0:0
380,56,107839,2,0,B|424:60|448:80|448:80|464:108,2,90,2|0|2,0:0|0:0|0:0,0:0:0
276,56,108432,1,2,0:0:0
228,144,108629,1,0,0:0:0
224,240,108826,2,0,B|224:336,1,90,2|2,0:0|0:0,0:0:0
400,328,109221,2,0,B|400:232,1,90,0|2,0:0|0:0,0:0:0
340,152,109616,1,0,0:0:0
228,144,109813,2,0,B|188:140|132:176|116:220|116:220|144:276,2,180,2|0|2,0:0|0:0|0:0,0:0:0
384,112,110800,5,2,0:0:0
384,112,110899,1,0,0:0:0
384,112,110997,2,0,B|408:164|356:216,1,90,0|0,0:0|0:0,0:0:0
296,248,111392,2,0,B|272:300|324:352,1,90,2|0,0:0|0:0,0:0:0
468,328,111787,2,0,B|503:295|479:243,1,90,2|0,0:0|0:0,0:0:0
384,112,112182,2,0,B|356:56|356:56|312:32|252:48|252:48|216:84,1,180,4|0,0:0|0:0,0:0:0
276,156,112774,1,2,0:0:0
496,88,112971,2,0,B|528:128|524:216|496:264,2,180,2|0|2,0:0|0:0|0:0,0:0:0
408,32,113958,5,0,0:0:0
276,156,114155,1,2,0:0:0
408,32,114353,2,0,B|464:68|464:68|476:104,1,90,0|2,0:0|0:0,0:0:0
372,228,114747,2,0,B|370:161|370:161|393:131,1,90,0|2,0:0|0:0,0:0:0
480,28,115142,1,0,0:0:0
480,200,115339,2,0,B|432:216|372:232|372:232|304:204,1,180,2|2,0:0|0:0,0:0:0
256,96,115932,1,0,0:0:0
396,84,116129,2,0,B|408:144|388:228|352:264,1,180,2|2,0:0|0:0,0:0:0
256,328,116721,1,0,0:0:0
152,255,116918,2,0,B|124:228|104:144|116:84,2,180,2|0|2,0:0|0:0|0:0,0:0:0
152,256,118103,5,2,0:0:0
256,224,118300,1,0,0:0:0
256,328,118497,2,0,B|316:372|316:372|384:376|420:344,1,180,2|0,0:0|0:0,0:0:0
360,256,119089,1,2,0:0:0
256,328,119287,2,0,B|196:372|196:372|128:376|92:344,1,180,0|2,0:0|0:0,0:0:0
120,220,119879,5,0,0:0:0
204,108,120076,2,0,B|260:160|260:160|264:196,1,90,2|0,0:0|0:0,0:0:0
224,316,120471,2,0,B|264:348|264:348|344:352|384:300,1,180,2|2,0:0|0:0,0:0:0
428,200,121063,1,0,0:0:0
329,236,121261,6,0,B|353:292|353:292|389:308,1,90,2|0,0:0|0:0,0:0:0
512,144,121655,2,0,B|456:104|396:80|396:80|320:108,1,180,2|0,0:0|0:0,0:0:0
248,152,122247,1,0,0:0:0
304,258,122445,2,0,B|344:202|368:142|368:142|340:66,1,180,2|0,0:0|0:0,0:0:0
208,32,123037,6,0,B|176:84|176:84|188:124,1,90,2|0,0:0|0:0,0:0:0
304,258,123432,1,2,0:0:0
372,200,123629,1,2,0:0:0
352,112,123826,1,0,0:0:0
260,112,124024,1,2,0:0:0
236,200,124221,2,0,B|212:260|212:260|228:288,1,90,8|8,0:0|0:0,0:0:0
356,364,124616,5,2,0:0:0
372,200,124813,2,0,B|320:132|248:120|248:120|204:144,1,180,4|0,0:0|0:0,0:0:0
36,204,125405,2,0,B|0:144|0:144|4:112,1,90
64,52,125800,1,2,0:0:0
160,52,125997,1,2,0:0:0
224,124,126195,2,0,B|226:143|226:143|190:203,2,90,2|0|0,0:0|0:0|0:0,0:0:0
340,32,126787,6,0,B|388:80|388:80|393:114,1,90,2|0,0:0|0:0,0:0:0
372,224,127182,2,0,B|320:240|320:296,1,90,0|0,0:0|0:0,0:0:0
420,312,127576,1,2,0:0:0
456,180,127774,1,2,0:0:0
332,116,127971,2,0,B|276:120|212:180|216:240,1,180,4|0,0:0|0:0,0:0:0
342,338,128563,6,0,B|397:338|397:338|427:302,2,90,2|0|0,0:0|0:0|0:0,0:0:0
256,300,129155,1,0,0:0:0
184,240,129353,2,0,B|208:188|308:188|332:248,1,180,4|0,0:0|0:0,0:0:0
256,300,129945,2,0,B|256:192,1,90
188,148,130339,1,2,0:0:0
212,68,130537,1,2,0:0:0
300,68,130734,1,2,0:0:0
323,148,130932,6,0,B|375:188|375:188|411:172,1,90,2|0,0:0|0:0,0:0:0
468,24,131326,2,0,B|420:40|420:40|376:44,1,90,2|0,0:0|0:0,0:0:0
212,68,131721,1,2,0:0:0
132,192,131918,2,0,B|200:224|200:224|240:188|300:200,1,180,0|0,0:0|0:0,0:0:0
412,224,132511,5,2,0:0:0
352,320,132708,2,0,B|304:296|304:248,1,90,2|0,0:0|0:0,0:0:0
288,116,133103,1,2,0:0:0
408,32,133300,2,0,B|456:72|456:72|456:124,2,90,2|0|2,0:0|0:0|0:0,0:0:0
264,44,133892,6,0,B|196:64|196:164|264:188,1,180,2|4,0:0|0:0,0:0:0
448,216,134682,2,0,B|516:236|516:336|448:360,1,180,2|4,0:0|0:0,0:0:0
256,352,135471,1,2,0:0:0
100,136,135866,6,0,B|164:136|164:136|192:156,1,90,4|0,0:0|0:0,0:0:0
416,304,136261,2,0,B|352:304|352:304|324:284,1,90,4|0,0:0|0:0,0:0:0
256,128,136655,1,4,0:0:0
256,116,136754,1,0,0:0:0
256,104,136853,1,0,0:0:0
256,92,136951,1,0,0:0:0
256,80,137050,1,4,0:0:0
256,68,137149,1,0,0:0:0
256,56,137247,1,0,0:0:0
256,44,137346,1,0,0:0:0
256,32,137445,6,0,B|300:20|388:20|448:36,1,180,12|0,0:0|0:0,0:0:0
464,144,138037,1,0,0:0:0
380,276,138234,2,0,B|300:252|284:176|284:176|320:152,1,180,8|0,0:0|0:0,0:0:0
464,144,138826,1,0,0:0:0
468,296,139024,6,0,B|456:332|432:348|432:348|404:352,1,90,8|0,0:0|0:0,0:0:0
252,212,139418,2,0,B|264:176|288:160|288:160|316:156,1,90
500,120,139813,1,8,0:0:0
392,40,140011,1,0,0:0:0
360,36,140109,1,0,0:0:0
332,48,140208,1,0,0:0:0
244,148,140405,1,0,0:0:0
132,244,140603,2,0,B|188:276|264:204|241:143,1,180,12|0,0:0|0:0,0:0:0
244,148,141392,5,8,0:0:0
288,236,141589,1,0,0:0:0
356,304,141787,1,0,0:0:0
392,316,141886,1,0,0:0:0
428,304,141984,1,0,0:0:0
496,192,142182,2,0,B|436:192|436:192|404:208,1,90,8|0,0:0|0:0,0:0:0
196,324,142576,2,0,B|256:324|256:324|288:308,1,90
348,176,142971,5,8,0:0:0
320,152,143070,1,0,0:0:0
280,144,143168,1,0,0:0:0
140,168,143366,2,0,B|160:212|220:220,1,90
392,228,143761,2,0,B|432:272|364:364|304:340,1,180,12|0,0:0|0:0,0:0:0
196,324,144353,1,0,0:0:0
120,240,144550,2,0,B|80:196|148:104|208:128,1,180,8|0,0:0|0:0,0:0:0
364,152,145142,1,0,0:0:0
464,316,145339,2,0,B|452:352|388:364|360:344,1,90,8|8,0:0|0:0,0:0:0
256,348,145932,5,0,0:0:0
328,312,146129,2,0,B|313:269|256:240|196:272|188:308,1,180,8|0,0:0|0:0,0:0:0
256,348,146721,1,0,0:0:0
256,348,146918,2,0,B|256:168,1,180,8|0,0:0|0:0,0:0:0
256,44,147511,1,0,0:0:0
336,100,147708,2,0,B|308:152|204:152|180:100,1,180,12|0,0:0|0:0,0:0:0
416,64,148497,6,0,B|416:132|416:132|400:160,1,90,12|0,0:0|0:0,0:0:0
96,320,148892,2,0,B|96:252|96:252|112:224,1,90,4|0,0:0|0:0,0:0:0
256,192,149287,1,12,0:0:0
256,212,149386,1,0,0:0:0
256,228,149484,1,0,0:0:0
256,248,149583,1,0,0:0:0
256,268,149682,1,4,0:0:0
256,284,149780,1,0,0:0:0
256,304,149879,1,0,0:0:0
256,324,149978,1,0,0:0:0
256,340,150076,6,0,B|344:340|344:340|356:280|424:260,1,180,12|0,0:0|0:0,0:0:0
488,224,150668,1,0,0:0:0
340,336,150866,2,0,B|276:296|304:232|304:232|248:208,1,180,8|0,0:0|0:0,0:0:0
136,152,151458,1,0,0:0:0
184,20,151655,2,0,B|240:52|240:52|260:96,1,90,8|0,0:0|0:0,0:0:0
303,234,152050,2,0,B|359:234|391:190,1,90
400,40,152445,2,0,B|384:88|444:144,1,90,8|0,0:0|0:0,0:0:0
484,260,152839,1,0,0:0:0
484,260,153037,1,0,0:0:0
460,152,153234,6,0,B|412:148|344:220|380:292,1,180,12|0,0:0|0:0,0:0:0
448,360,153826,1,0,0:0:0
476,208,154024,2,0,B|428:172|348:168|300:196,1,180,12|0,0:0|0:0,0:0:0
80,264,154616,2,0,B|128:300|208:304|256:276,1,180,12|8,0:0|0:0,0:0:0
304,193,155208,1,12,0:0:0
304,193,155603,1,12,0:0:0
304,192,155997,6,0,B|244:168|244:68|308:48,1,180,2|12,0:0|0:0,0:0:0
408,52,156589,2,0,B|469:71|469:171|409:195,1,180,2|0,0:0|0:0,0:0:0
356,284,157182,1,10,0:0:0
160,328,157576,2,0,B|116:352|68:324,1,90,2|0,0:0|0:0,0:0:0
38,253,157971,2,0,P|163:145|287:254,1,360,2|10,0:0|0:0,0:0:0
287,254,159155,1,2,0:0:0
287,254,159550,1,12,0:0:0
256,192,159747,12,2,161918,0:0:0
312,264,162313,6,0,B|356:236|344:180,1,90,2|0,0:0|0:0,0:0:0
200,128,162708,2,0,B|156:156|168:212,2,90,4|0|2,0:0|0:0|0:0,0:0:0
404,32,163300,1,2,0:0:0
404,32,163695,1,2,0:0:0
404,32,164089,2,0,B|452:52|464:112,2,90,2|0|0,0:0|0:0|0:0,0:0:0
200,32,164682,1,2,0:0:0
200,32,165076,2,0,B|164:84|172:168|220:216,1,180,2|2,0:0|0:0,0:0:0
264,284,165668,5,0,0:0:0
364,264,165866,1,2,0:0:0
372,168,166063,1,2,0:0:0
276,124,166261,1,2,0:0:0
296,204,166458,1,2,0:0:0
444,324,166853,1,2,0:0:0
296,204,167247,2,0,B|248:212|216:312|260:360,1,180,2|2,0:0|0:0,0:0:0
256,356,167839,1,2,0:0:0
352,136,168234,2,0,B|344:88|244:56|196:100,1,180,4|0,0:0|0:0,0:0:0
124,144,168826,5,0,0:0:0
136,228,169024,2,0,B|144:276|244:308|292:264,1,180,2|0,0:0|0:0,0:0:0
360,212,169616,2,0,B|404:171|504:203|512:251,1,180,2|0,0:0|0:0,0:0:0
364,296,170208,1,2,0:0:0
336,128,170405,2,0,B|312:56|252:36|252:36|200:72,1,180,2|2,0:0|0:0,0:0:0
124,132,170997,1,0,0:0:0
196,200,171195,1,0,0:0:0
336,128,171392,6,0,B|392:100|392:100|440:112,1,90,2|0,0:0|0:0,0:0:0
512,180,171787,1,2,0:0:0
408,236,171984,1,2,0:0:0
336,128,172182,2,0,B|332:72|236:32|180:72,1,180,4|0,0:0|0:0,0:0:0
124,132,172774,1,0,0:0:0
48,192,172971,2,0,B|60:247|181:253|198:196,1,180,4|0,0:0|0:0,0:0:0
256,128,173563,1,0,0:0:0
320,60,173761,2,0,B|380:52|432:80|460:152,1,180,4|0,0:0|0:0,0:0:0
256,192,174550,12,2,176129,0:0:0
48,116,176918,6,0,B|96:140|148:116,1,90,2|2,0:0|0:0,0:0:0
204,64,177708,2,0,B|248:44|304:68,1,90,2|2,0:0|0:0,0:0:0
372,116,178497,2,0,B|408:152|408:256|380:292,1,180,6|0,0:0|0:0,0:0:0
300,336,179682,1,2,0:0:0
464,276,180076,6,0,B|484:232|472:180,1,90,2|0,0:0|0:0,0:0:0
400,92,180866,2,0,B|380:136|392:188,1,90,2|0,0:0|0:0,0:0:0
336,280,181655,2,0,B|296:316|208:316|156:280,1,180,6|0,0:0|0:0,0:0:0
80,216,182839,1,2,0:0:0
312,156,183234,5,2,0:0:0
180,72,183629,1,2,0:0:0
332,72,184024,1,2,0:0:0
204,156,184418,1,2,0:0:0
256,16,184813,2,0,B|256:208,1,180,6|0,0:0|0:0,0:0:0
256,328,185997,6,0,B|288:336|312:332,1,45,2|2,0:0|0:0,0:0:0
340,332,186392,1,2,0:0:0
388,320,186589,2,0,B|408:272|384:216,2,90,2|0|2,0:0|0:0|0:0,0:0:0
372,364,187576,1,2,0:0:0
372,364,187971,6,0,B|320:376|272:348,1,90,6|0,0:0|0:0,0:0:0
240,336,188563,2,0,B|200:268|232:192,1,135,2|0,0:0|0:0,0:0:0
300,44,189550,6,0,B|332:76|340:136|320:180,1,135.000005149842,2|2,0:0|0:0,0:0:0
280,292,190339,1,4,0:0:0
244,292,190471,1,0,0:0:0
208,292,190603,1,0,0:0:0
172,292,190734,1,4,0:0:0
136,292,190866,1,0,0:0:0
100,292,190997,1,0,0:0:0
68,292,191129,6,0,B|24:244|40:180|40:180|96:168|116:88,1,215.999993408203,12|0,0:0|0:0,0:0:0
40,12,191721,1,0,0:0:0
44,183,191918,2,0,B|88:211|180:206|232:176,1,180,12|0,0:0|0:0,0:0:0
324,112,192511,1,0,0:0:0
204,32,192708,6,0,B|196:84|260:120,1,90,8|0,0:0|0:0,0:0:0
384,236,193103,2,0,B|424:188|424:188|424:156,1,90
332,48,193497,2,0,B|264:52|236:112|236:112|256:180,1,180,8|0,0:0|0:0,0:0:0
280,268,194089,1,0,0:0:0
384,236,194287,6,0,B|431:230|431:230|484:269,1,90,12|0,0:0|0:0,0:0:0
268,368,194682,2,0,B|220:373|220:373|167:334,1,90,4|0,0:0|0:0,0:0:0
64,184,195076,2,0,B|112:168|188:228|176:296,1,180,12|4,0:0|0:0,0:0:0
72,280,195668,2,0,B|220:164,1,180,12|12,0:0|0:0,0:0:0
276,104,196261,1,12,0:0:0
276,104,196655,2,0,B|336:136|336:228|276:252,1,180,12|0,0:0|0:0,0:0:0
204,252,197445,5,12,0:0:0
204,252,197642,2,0,B|144:220|144:128|204:104,1,180,0|0,0:0|0:0,0:0:0
280,40,198234,1,8,0:0:0
376,76,198432,1,0,0:0:0
432,160,198629,2,0,B|408:212|360:220|360:220|336:256|348:316,1,180,0|8,0:0|0:0,0:0:0
472,308,199221,1,0,0:0:0
472,308,199320,1,0,0:0:0
472,308,199418,1,0,0:0:0
364,224,199616,1,0,0:0:0
224,192,199813,6,0,B|156:215|156:215|125:247,1,90,8|0,0:0|0:0,0:0:0
240,344,200208,2,0,B|308:321|308:321|339:289,1,90,0|0,0:0|0:0,0:0:0
420,156,200603,1,12,0:0:0
420,156,200701,1,0,0:0:0
420,156,200800,2,0,B|372:200|372:200|358:239,2,90
472,88,201392,5,8,0:0:0
472,88,201787,1,8,0:0:0
216,88,202182,2,0,B|164:100|144:164,1,90,12|0,0:0|0:0,0:0:0
296,296,202576,2,0,B|348:284|368:220,1,90,4|0,0:0|0:0,0:0:0
256,192,202971,5,12,0:0:0
256,212,203070,1,0,0:0:0
256,228,203168,1,0,0:0:0
256,248,203267,1,0,0:0:0
256,268,203366,1,4,0:0:0
256,284,203464,1,0,0:0:0
256,304,203563,1,0,0:0:0
256,324,203662,1,0,0:0:0
256,344,203761,6,0,B|212:372|88:372|32:336,1,215.999993408203,12|0,0:0|0:0,0:0:0
24,228,204353,1,0,0:0:0
44,108,204550,2,0,B|100:112|144:164|148:224|148:224|208:244,1,215.999993408203,12|0,0:0|0:0,0:0:0
324,264,205142,1,0,0:0:0
344,116,205339,6,0,B|284:152|284:152|272:188,1,107.999996704102,8|0,0:0|0:0,0:0:0
376,348,205734,2,0,B|436:312|436:312|448:276,1,107.999996704102
464,184,206129,1,8,0:0:0
504,352,206326,1,0,0:0:0
504,352,206425,1,0,0:0:0
504,352,206524,1,0,0:0:0
324,264,206721,1,0,0:0:0
188,312,206918,6,0,B|224:356|340:376|388:312,1,215.999993408203,12|0,0:0|0:0,0:0:0
372,171,207511,2,0,B|328:203|324:267,1,107.999996704102,0|8,0:0|0:0,0:0:0
495,264,207905,2,0,B|492:204|448:172,1,107.999996704102
324,108,208300,1,0,0:0:0
276,220,208497,6,0,B|324:264|324:264|376:268,1,107.999996704102,8|0,0:0|0:0,0:0:0
476,184,208892,2,0,B|440:96|356:64|356:64|308:76,1,215.999993408203,0|8,0:0|0:0,0:0:0
192,120,209484,1,0,0:0:0
116,216,209682,1,0,0:0:0
72,200,209780,1,0,0:0:0
48,160,209879,1,0,0:0:0
216,24,210076,6,0,B|272:32|328:112|316:216,1,215.999993408203,12|0,0:0|0:0,0:0:0
280,272,210668,1,0,0:0:0
196,260,210866,1,8,0:0:0
196,260,211261,5,0,0:0:0
280,272,211458,1,0,0:0:0
364,112,211655,2,0,B|304:132|300:200,1,107.999996704102,8|8,0:0|0:0,0:0:0
352,320,212050,1,0,0:0:0
488,192,212247,2,0,B|436:164|384:192,1,107.999996704102,0|8,0:0|0:0,0:0:0
280,272,212642,1,0,0:0:0
420,264,212839,6,0,B|432:184|384:104|316:84,1,215.999993408203,0|8,0:0|0:0,0:0:0
224,64,213432,1,0,0:0:0
132,108,213629,1,0,0:0:0
112,136,213728,1,0,0:0:0
108,180,213826,1,0,0:0:0
116,276,214024,1,12,0:0:0
116,276,214418,1,8,0:0:0
296,88,214813,6,0,B|348:100|368:164,1,90,12|0,0:0|0:0,0:0:0
216,296,215207,2,0,B|164:284|144:220,1,90,4|0,0:0|0:0,0:0:0
256,192,215602,1,12,0:0:0
256,212,215701,1,0,0:0:0
256,228,215799,1,0,0:0:0
256,248,215898,1,0,0:0:0
256,268,215997,1,4,0:0:0
256,284,216095,1,0,0:0:0
256,304,216194,1,0,0:0:0
256,324,216293,1,0,0:0:0
256,344,216392,6,0,B|300:372|424:372|480:336,1,215.999993408203,12|0,0:0|0:0,0:0:0
496,228,216984,1,0,0:0:0
476,124,217182,2,0,B|416:136|396:200|396:200|336:188|320:132,1,215.999993408203,8|0,0:0|0:0,0:0:0
288,56,217774,1,0,0:0:0
116,76,217971,6,0,B|156:116|220:104,1,107.999996704102,8|0,0:0|0:0,0:0:0
379,53,218366,2,0,B|371:117|319:141,1,107.999996704102,0|0,0:0|0:0,0:0:0
196,196,218761,1,8,0:0:0
168,220,218859,1,0,0:0:0
160,256,218958,1,0,0:0:0
208,360,219155,2,0,B|268:344|276:272,1,107.999996704102
152,96,219550,6,0,B|92:112|84:184,1,107.999996704102,12|0,0:0|0:0,0:0:0
104,300,219945,1,0,0:0:0
280,320,220142,1,0,0:0:0
384,188,220339,2,0,B|324:152|220:176|184:232,1,215.999993408203,12|0,0:0|0:0,0:0:0
280,320,220932,2,0,B|320:272|304:164|252:112,1,215.999993408203,12|8,0:0|0:0,0:0:0
176,48,221524,1,12,0:0:0
176,48,221918,1,12,0:0:0
64,96,222313,6,0,B|24:144|32:260|84:304,1,215.999993408203,8|4,0:0|0:0,0:0:0
172,276,222905,2,0,B|220:228|324:228|376:280,1,215.999993408203,8|0,0:0|0:0,0:0:0
448,352,223497,1,8,0:0:0
448,352,223892,2,0,B|404:304|404:196|448:140,1,215.999993408203,8|0,0:0|0:0,0:0:0
504,32,224484,1,8,0:0:0
442,148,224682,1,0,0:0:0
312,132,224879,2,0,B|256:100|256:36,1,107.999996704102,8|0,0:0|0:0,0:0:0
256,46,225471,1,12,0:0:0
256,46,225866,6,0,B|248:68|248:68|208:20|84:20|100:124|120:140,1,215.999993408203,4|0,0:0|0:0,0:0:0
108,116,226458,2,0,B|112:208|220:192|248:248|248:248|260:268,1,215.999993408203,4|0,0:0|0:0,0:0:0
256,348,227050,1,0,0:0:0
255,259,227247,2,0,B|261:247|261:247|289:191|397:207|401:115,1,215.999993408203,4|0,0:0|0:0,0:0:0
401,109,227839,2,0,B|409:118|425:14|301:14|261:62|261:62|253:40,1,215.999993408203,4|0,0:0|0:0,0:0:0
255,46,228629,1,4,0:0:0
255,46,229024,1,4,0:0:0
256,192,229122,12,4,235339,0:0:0
384,72,236129,6,0,B|420:136|420:136|424:192|348:208,1,180,4|0,0:0|0:0,0:0:0
256,136,236721,1,0,0:0:0
420,136,236918,2,0,B|480:136|516:220|480:288,1,180,2|0,0:0|0:0,0:0:0
404,344,237511,1,0,0:0:0
304,340,237708,2,0,B|296:284|352:256,1,90,2|0,0:0|0:0,0:0:0
420,136,238103,2,0,B|408:96|372:80|372:80|340:88,1,90,2|2,0:0|0:0,0:0:0
256,136,238497,2,0,B|200:144|152:228|188:288,2,180,2|0|2,0:0|0:0|0:0,0:0:0
348,112,239484,5,0,0:0:0
348,112,239583,1,0,0:0:0
348,112,239682,1,2,0:0:0
392,216,239879,1,0,0:0:0
324,308,240076,2,0,B|248:312|196:228|224:180,1,180,2|2,0:0|0:0,0:0:0
468,128,240866,1,2,0:0:0
392,216,241063,1,0,0:0:0
348,112,241261,1,2,0:0:0
348,112,241359,1,0,0:0:0
348,112,241458,1,2,0:0:0
256,44,241655,6,0,B|220:92|248:188|320:196,1,180,4|0,0:0|0:0,0:0:0
392,216,242247,1,0,0:0:0
472,260,242445,2,0,B|466:317|370:345|322:309,1,180,2|0,0:0|0:0,0:0:0
232,216,243037,1,0,0:0:0
128,144,243234,2,0,B|84:188|104:292|188:312,1,180,2|0,0:0|0:0,0:0:0
272,320,243826,1,0,0:0:0
376,276,244024,1,2,0:0:0
396,240,244122,1,0,0:0:0
392,200,244221,1,2,0:0:0
312,104,244418,2,0,B|280:112|256:152|256:152|276:192,1,90,2|2,0:0|0:0,0:0:0
404,356,244813,6,0,B|472:304|484:248|484:248|472:192,1,180,2|2,0:0|0:0,0:0:0
428,96,245405,1,0,0:0:0
260,56,245603,2,0,B|228:64|204:104|204:104|224:144,2,90,2|0|0,0:0|0:0|0:0,0:0:0
352,36,246195,1,0,0:0:0
428,96,246392,2,0,B|468:136|456:224|456:224|400:280,1,180,2|2,0:0|0:0,0:0:0
336,320,246984,1,0,0:0:0
299,216,247182,2,0,B|327:188|403:196|435:224|435:224|443:236|411:272,1,180,2|2,0:0|0:0,0:0:0
228,344,247774,1,2,0:0:0
228,344,247971,6,0,B|176:316|148:232|168:172,1,180,4|0,0:0|0:0,0:0:0
176,84,248563,1,0,0:0:0
260,144,248761,2,0,B|216:192|164:184|164:184|96:220,2,180,2|0|2,0:0|0:0|0:0,0:0:0
368,92,249747,2,0,B|420:104|444:156,1,90,0|2,0:0|0:0,0:0:0
436,312,250142,2,0,B|384:300|360:248,1,90,2|2,0:0|0:0,0:0:0
260,188,250537,1,2,0:0:0
260,188,250636,1,0,0:0:0
260,188,250734,2,0,B|208:200|184:252,1,90,0|2,0:0|0:0,0:0:0
68,320,251129,2,0,B|84:244|84:244|28:216|24:160,1,180,2|0,0:0|0:0,0:0:0
128,96,251721,5,0,0:0:0
229,168,251918,2,0,B|225:217|169:245|169:245|185:321,1,180,2|0,0:0|0:0,0:0:0
304,348,252511,1,0,0:0:0
416,304,252708,2,0,B|460:260|464:200|436:176|436:176|400:192,1,180,2|2,0:0|0:0,0:0:0
324,252,253300,1,2,0:0:0
436,180,253497,2,0,B|428:128|344:76|268:92,1,180,2|2,0:0|0:0,0:0:0
104,72,254089,1,0,0:0:0
104,72,254188,1,0,0:0:0
104,72,254287,2,0,B|68:100|44:176|80:244,2,180,4|0|0,0:0|0:0|0:0,0:0:0
204,44,255274,5,0,0:0:0
276,112,255471,2,0,B|280:148|256:176|256:176|224:184,1,90,2|0,0:0|0:0,0:0:0
77,237,255866,2,0,B|45:277|45:277|45:325|72:360|145:361,1,180,2|2,0:0|0:0,0:0:0
224,344,256458,1,0,0:0:0
308,288,256655,6,0,B|360:236|316:160|316:160|280:188,1,180,2|2,0:0|0:0,0:0:0
192,240,257247,1,0,0:0:0
316,164,257445,2,0,B|368:152|424:252|388:296,1,180,2|2,0:0|0:0,0:0:0
340,360,258037,1,2,0:0:0
492,240,258234,1,2,0:0:0
492,240,258333,1,0,0:0:0
492,240,258432,1,2,0:0:0
316,164,258629,2,0,B|280:168|240:184|240:184|232:204,1,90,2|0,0:0|0:0,0:0:0
168,360,259024,6,0,B|240:372|284:312|284:312|340:332,1,180,4|0,0:0|0:0,0:0:0
448,364,259616,1,0,0:0:0
492,240,259813,2,0,B|448:219|448:219|459:145|400:103,1,180,2|0,0:0|0:0,0:0:0
296,48,260405,1,0,0:0:0
228,140,260603,6,0,B|272:208|364:196|364:196|392:164,1,180,4|0,0:0|0:0,0:0:0
456,32,261195,1,0,0:0:0
296,48,261392,1,2,0:0:0
288,88,261491,1,0,0:0:0
304,124,261589,1,2,0:0:0
364,196,261787,2,0,B|396:252|268:344|212:280,1,225,2|4,0:0|0:0,0:0:0
212,280,263168,6,0,B|168:236|252:192|204:112,1,157.5,4|4,0:0|0:0,0:0:0
256,192,265339,12,0,271655,0:0:0
