osu file format v14

[General]
AudioFilename: Wataiko de Kankore Akiibe Taisanji Boss Sen BGM Tadaite mita.mp3
AudioLeadIn: 0
PreviewTime: 69087
Countdown: 1
SampleSet: Normal
StackLeniency: 0.7
Mode: 1
LetterboxInBreaks: 1
WidescreenStoryboard: 0

[Editor]
DistanceSpacing: 0.8
BeatDivisor: 4
GridSize: 4
TimelineZoom: 2.3

[Metadata]
Title:Kankore Akiibe Taisanji Boss Sen BGM
TitleUnicode:艦これ秋イベ第三次ボス戦BGM
Artist:Usagiinu
ArtistUnicode:うさぎいぬ
Creator:-[ ix Ishida xi ]-
Version:-[ ix Taiko xi ]-
Source:Kankore
Tags:S a n d mrdumpling64
BeatmapID:730451
BeatmapSetID:329457

[Difficulty]
HPDrainRate:5
CircleSize:5
OverallDifficulty:5
ApproachRate:5
SliderMultiplier:1.4
SliderTickRate:1

[Events]
//Background and Video events
0,0,"samurai_takeda_battles_total_war_shingen_sengoku_1280x800_51289.jpg",0,0
//Break Periods
//Storyboard Layer 0 (Background)
//Storyboard Layer 1 (Fail)
//Storyboard Layer 2 (Pass)
//Storyboard Layer 3 (Foreground)
//Storyboard Sound Samples

[TimingPoints]
1411,352.941176470588,4,1,6,50,1,0
10587,-100,4,1,2,100,0,0
11028,-100,4,1,6,50,0,0
12793,-100,4,1,4,100,0,0
13146,-100,4,1,6,50,0,0
13410,-100,4,1,2,100,0,0
13675,-100,4,1,6,25,0,0
13803,-100,4,1,6,50,0,0
17910,-100,4,1,6,100,0,0
18087,-100,4,1,6,50,0,0
18308,-83.3333333333333,4,1,6,100,0,1
18440,-83.3333333333333,4,1,6,60,0,1
23558,-83.3333333333333,4,1,6,100,0,1
23690,-83.3333333333333,4,1,6,60,0,1
23955,-83.3333333333333,4,1,6,100,0,1
24087,-83.3333333333333,4,1,6,70,0,1
40940,-83.3333333333333,4,1,6,70,0,0
41028,-86.9565217391304,4,1,2,100,0,0
41381,-86.9565217391304,4,1,6,50,0,0
41646,-90.9090909090909,4,1,2,100,0,0
42263,-90.9090909090909,4,1,4,100,0,0
42705,-95.2380952380952,4,1,2,100,0,0
42969,-95.2380952380952,4,1,4,100,0,0
43587,-100,4,1,4,100,0,0
46058,-100,4,1,4,100,0,0
48969,-100,4,1,6,100,0,0
49139,-100,4,1,4,100,0,0
54660,-100,4,1,6,100,0,0
54749,-100,4,1,4,100,0,0
55146,-100,4,1,6,50,0,0
55940,-100,4,1,4,50,0,0
56205,-100,4,1,6,50,0,0
57616,-100,4,1,4,50,0,0
57837,-100,4,1,6,50,0,0
58763,-100,4,1,4,50,0,0
59028,-100,4,1,6,50,0,0
60381,-100,4,1,4,25,0,0
60675,-100,4,1,6,50,0,0
63572,-100,4,1,3,100,0,0
64013,-100,4,1,6,50,0,0
64278,-100,4,1,3,100,0,0
64896,-100,4,1,6,50,0,0
65160,-100,4,1,3,100,0,0
65602,-100,4,1,6,50,0,0
67763,-100,4,1,2,100,0,0
68425,-100,4,1,6,50,0,0
69175,-83.3333333333333,4,1,6,60,0,1
91940,-100,4,1,3,30,0,1
94543,-100,4,1,6,60,0,0
94587,-25,4,1,6,60,0,1
94631,-100,4,1,6,60,0,0

[HitObjects]
256,192,1411,5,4,0:0:0:0:
312,204,1587,1,8,0:0:0:0:
340,212,1675,1,8,0:0:0:0:
340,212,1763,1,8,0:0:0:0:
288,192,1940,1,4,0:0:0:0:
316,160,2116,1,8,0:0:0:0:
296,108,2293,1,8,0:0:0:0:
308,132,2381,1,8,0:0:0:0:
308,132,2469,1,8,0:0:0:0:
308,132,2646,1,8,0:0:0:0:
280,132,2734,1,8,0:0:0:0:
252,132,2822,1,4,0:0:0:0:
196,128,2999,1,8,0:0:0:0:
168,124,3087,1,8,0:0:0:0:
140,124,3175,1,8,0:0:0:0:
84,120,3352,1,4,0:0:0:0:
84,120,3528,1,8,0:0:0:0:
84,120,3616,1,8,0:0:0:0:
84,120,3705,1,8,0:0:0:0:
84,120,3881,1,8,0:0:0:0:
84,120,3969,1,8,0:0:0:0:
84,120,4058,1,8,0:0:0:0:
84,120,4146,1,8,0:0:0:0:
84,120,4234,1,4,0:0:0:0:
84,120,4410,1,8,0:0:0:0:
84,120,4499,1,8,0:0:0:0:
84,120,4587,1,8,0:0:0:0:
140,128,4763,1,4,0:0:0:0:
168,132,4852,1,8,0:0:0:0:
196,136,4940,1,8,0:0:0:0:
252,148,5116,1,8,0:0:0:0:
252,148,5205,1,8,0:0:0:0:
252,148,5293,1,8,0:0:0:0:
252,148,5469,1,8,0:0:0:0:
252,148,5558,1,8,0:0:0:0:
252,148,5646,1,4,0:0:0:0:
252,148,5822,1,0,0:0:0:0:
252,148,5999,1,8,0:0:0:0:
252,148,6175,1,4,0:0:0:0:
252,148,6528,1,0,0:0:0:0:
252,148,6616,1,0,0:0:0:0:
252,148,6705,1,12,0:0:0:0:
252,148,6881,1,0,0:0:0:0:
252,148,7058,1,4,0:0:0:0:
252,148,7587,1,0,0:0:0:0:
476,152,8293,1,0,0:0:0:0:
308,148,8822,1,0,0:0:0:0:
308,148,9175,1,0,0:0:0:0:
308,148,9352,1,0,0:0:0:0:
252,132,9528,1,12,0:0:0:0:
308,148,9705,1,8,0:0:0:0:
308,148,9793,1,8,0:0:0:0:
308,148,9881,1,4,0:0:0:0:
172,48,10410,1,0,0:0:0:0:
144,156,10763,1,8,0:0:0:0:
192,128,10940,1,8,0:0:0:0:
268,252,11116,1,0,0:0:0:0:
268,252,11469,1,0,0:0:0:0:
268,252,11646,1,0,0:0:0:0:
268,252,11999,1,0,0:0:0:0:
268,252,12087,1,0,0:0:0:0:
268,252,12175,1,0,0:0:0:0:
300,300,12352,1,12,0:0:0:0:
268,252,12528,1,0,0:0:0:0:
324,240,12705,1,4,0:0:0:0:
424,104,12881,1,0,0:0:0:0:
424,104,12969,1,0,0:0:0:0:
424,104,13058,1,0,0:0:0:0:
424,104,13234,1,0,0:0:0:0:
340,176,13587,1,8,0:0:0:0:
284,164,13763,1,0,0:0:0:0:
248,244,13940,1,0,0:0:0:0:
352,200,14293,1,0,0:0:0:0:
372,148,14469,1,0,0:0:0:0:
320,248,14822,1,0,0:0:0:0:
344,200,14999,1,0,0:0:0:0:
372,152,15175,1,12,0:0:0:0:
312,248,15528,1,4,0:0:0:0:
340,200,15705,1,0,0:0:0:0:
356,176,15793,1,0,0:0:0:0:
356,176,15881,1,8,0:0:0:0:
408,156,16058,1,4,0:0:0:0:
408,156,16234,1,0,0:0:0:0:
408,156,16410,1,8,0:0:0:0:
408,156,16587,1,0,0:0:0:0:
408,156,16763,1,12,0:0:0:0:
408,156,17116,1,0,0:0:0:0:
408,156,17293,1,0,0:0:0:0:
408,156,17469,1,8,0:0:0:0:
408,212,17646,1,0,0:0:0:0:
408,232,17705,1,8,0:0:0:0:
408,232,17763,1,8,0:0:0:0:
408,232,17822,1,0,0:0:0:0:
356,208,17999,1,6,0:0:0:0:
408,232,18175,1,0,0:0:0:0:
388,212,18263,1,0,0:0:0:0:
368,192,18352,1,4,0:0:0:0:
344,140,18528,1,0,0:0:0:0:
332,116,18616,1,0,0:0:0:0:
320,88,18705,1,8,0:0:0:0:
320,88,18881,1,0,0:0:0:0:
320,88,19058,1,0,0:0:0:0:
228,24,19410,1,8,0:0:0:0:
408,156,19587,1,0,0:0:0:0:
408,156,19763,1,4,0:0:0:0:
408,156,19940,1,0,0:0:0:0:
408,156,20028,1,0,0:0:0:0:
408,156,20116,1,8,0:0:0:0:
408,156,20293,1,0,0:0:0:0:
408,156,20469,1,0,0:0:0:0:
408,156,20646,1,0,0:0:0:0:
360,132,20822,1,12,0:0:0:0:
408,156,20999,1,0,0:0:0:0:
360,132,21175,1,4,0:0:0:0:
308,108,21352,1,0,0:0:0:0:
284,96,21440,1,0,0:0:0:0:
260,80,21528,1,8,0:0:0:0:
304,112,21705,1,0,0:0:0:0:
348,144,21881,1,0,0:0:0:0:
360,132,22234,1,8,0:0:0:0:
388,84,22410,1,0,0:0:0:0:
332,84,22587,1,4,0:0:0:0:
280,100,22763,1,0,0:0:0:0:
252,108,22852,1,0,0:0:0:0:
224,116,22940,1,8,0:0:0:0:
220,172,23116,1,0,0:0:0:0:
220,172,23293,1,0,0:0:0:0:
224,116,23469,1,8,0:0:0:0:
224,116,23646,1,12,0:0:0:0:
224,116,23734,1,8,0:0:0:0:
224,116,23822,1,8,0:0:0:0:
224,116,23910,1,8,0:0:0:0:
224,116,23999,1,4,0:0:0:0:
280,104,24175,1,0,0:0:0:0:
308,96,24263,1,0,0:0:0:0:
332,84,24352,1,8,0:0:0:0:
332,84,24528,1,0,0:0:0:0:
332,84,24705,1,0,0:0:0:0:
256,52,24969,1,8,0:0:0:0:
332,84,25058,1,8,0:0:0:0:
372,124,25234,1,0,0:0:0:0:
412,164,25410,1,4,0:0:0:0:
452,200,25587,1,0,0:0:0:0:
452,200,25675,1,0,0:0:0:0:
452,200,25763,1,8,0:0:0:0:
452,200,25940,1,0,0:0:0:0:
452,200,26116,1,0,0:0:0:0:
452,200,26293,1,0,0:0:0:0:
452,200,26469,1,8,0:0:0:0:
452,200,26558,1,8,0:0:0:0:
452,200,26646,1,0,0:0:0:0:
412,164,26822,1,4,0:0:0:0:
412,164,26999,1,0,0:0:0:0:
412,164,27087,1,0,0:0:0:0:
412,164,27175,1,8,0:0:0:0:
412,164,27352,1,0,0:0:0:0:
412,164,27528,1,0,0:0:0:0:
412,164,27705,1,0,0:0:0:0:
412,164,27881,1,8,0:0:0:0:
412,164,28058,1,0,0:0:0:0:
412,164,28234,1,4,0:0:0:0:
412,164,28410,1,0,0:0:0:0:
412,164,28499,1,0,0:0:0:0:
412,164,28587,1,8,0:0:0:0:
404,108,28763,1,8,0:0:0:0:
404,108,28852,1,8,0:0:0:0:
412,164,28940,1,4,0:0:0:0:
412,164,29028,1,0,0:0:0:0:
412,164,29116,1,0,0:0:0:0:
412,164,29205,1,0,0:0:0:0:
412,164,29293,1,8,0:0:0:0:
404,108,29381,1,8,0:0:0:0:
404,108,29469,1,8,0:0:0:0:
404,108,29558,1,8,0:0:0:0:
404,108,29646,1,4,0:0:0:0:
404,108,29822,1,0,0:0:0:0:
404,136,29910,1,0,0:0:0:0:
380,152,29999,1,0,0:0:0:0:
336,188,30175,1,8,0:0:0:0:
336,188,30352,1,0,0:0:0:0:
336,188,30528,1,0,0:0:0:0:
336,188,30705,1,8,0:0:0:0:
336,188,30881,1,0,0:0:0:0:
336,188,31058,1,4,0:0:0:0:
336,188,31234,1,0,0:0:0:0:
336,188,31410,1,4,0:0:0:0:
336,188,31587,1,0,0:0:0:0:
336,188,31763,1,4,0:0:0:0:
336,188,31940,1,0,0:0:0:0:
336,188,32116,1,12,0:0:0:0:
336,188,32293,1,0,0:0:0:0:
336,188,32469,1,4,0:0:0:0:
336,188,32646,1,0,0:0:0:0:
336,188,32734,1,0,0:0:0:0:
336,188,32822,1,0,0:0:0:0:
336,188,32999,1,0,0:0:0:0:
360,136,33352,1,0,0:0:0:0:
360,136,33528,1,8,0:0:0:0:
336,124,33616,1,8,0:0:0:0:
312,112,33705,1,0,0:0:0:0:
232,92,33881,1,0,0:0:0:0:
232,92,34058,1,12,0:0:0:0:
232,92,34234,1,0,0:0:0:0:
232,92,34410,1,12,0:0:0:0:
312,112,34587,1,0,0:0:0:0:
312,112,34763,1,8,0:0:0:0:
312,112,34940,1,12,0:0:0:0:
312,112,35116,1,8,0:0:0:0:
312,112,35205,1,8,0:0:0:0:
312,112,35293,1,4,0:0:0:0:
328,164,35469,1,0,0:0:0:0:
336,192,35558,1,0,0:0:0:0:
336,192,35646,1,0,0:0:0:0:
336,192,35822,1,4,0:0:0:0:
364,144,35999,1,0,0:0:0:0:
336,192,36175,1,0,0:0:0:0:
364,144,36352,1,8,0:0:0:0:
348,168,36440,1,8,0:0:0:0:
348,168,36528,1,0,0:0:0:0:
328,164,36705,1,4,0:0:0:0:
328,164,36881,1,0,0:0:0:0:
328,164,36969,1,0,0:0:0:0:
328,164,37058,1,0,0:0:0:0:
348,168,37234,1,4,0:0:0:0:
328,164,37410,1,0,0:0:0:0:
312,140,37499,1,0,0:0:0:0:
312,140,37587,1,0,0:0:0:0:
328,164,37763,1,12,0:0:0:0:
328,164,37940,1,0,0:0:0:0:
312,140,38116,1,4,0:0:0:0:
312,140,38822,1,4,0:0:0:0:
312,140,39352,1,0,0:0:0:0:
312,140,39528,1,4,0:0:0:0:
312,140,39705,1,0,0:0:0:0:
256,148,39881,1,4,0:0:0:0:
232,68,40058,1,0,0:0:0:0:
224,124,40234,1,4,0:0:0:0:
280,100,40410,1,0,0:0:0:0:
240,140,40587,1,12,0:0:0:0:
332,116,40763,1,0,0:0:0:0:
332,116,40940,1,4,0:0:0:0:
356,168,41116,1,0,0:0:0:0:
356,168,41205,1,0,0:0:0:0:
380,216,41293,1,8,0:0:0:0:
404,268,41469,1,0,0:0:0:0:
356,168,41822,1,8,0:0:0:0:
356,168,41999,1,8,0:0:0:0:
308,68,42175,1,0,0:0:0:0:
332,120,42352,1,0,0:0:0:0:
356,168,42881,1,8,0:0:0:0:
432,320,43058,1,0,0:0:0:0:
380,220,43410,1,0,0:0:0:0:
332,120,43763,1,4,0:0:0:0:
200,224,44293,1,0,0:0:0:0:
420,52,45175,1,4,0:0:0:0:
280,148,45705,1,0,0:0:0:0:
392,160,46058,1,0,0:0:0:0:
444,180,46234,1,8,0:0:0:0:
476,72,46587,1,4,0:0:0:0:
476,72,47116,1,0,0:0:0:0:
392,144,47469,1,0,0:0:0:0:
488,296,47646,1,0,0:0:0:0:
448,256,47822,1,0,0:0:0:0:
428,236,47910,1,0,0:0:0:0:
408,216,47999,1,4,0:0:0:0:
284,104,48528,1,0,0:0:0:0:
324,144,48705,1,0,0:0:0:0:
324,144,48881,1,0,0:0:0:0:
324,144,49058,1,12,0:0:0:0:
380,136,49234,1,0,0:0:0:0:
436,132,49410,1,4,0:0:0:0:
380,136,49587,1,0,0:0:0:0:
380,136,49675,1,0,0:0:0:0:
380,136,49763,1,0,0:0:0:0:
380,136,49940,1,4,0:0:0:0:
380,136,50116,1,0,0:0:0:0:
380,136,50205,1,0,0:0:0:0:
380,136,50293,1,0,0:0:0:0:
356,84,50469,1,0,0:0:0:0:
336,64,50558,1,0,0:0:0:0:
336,64,50646,1,0,0:0:0:0:
336,120,50822,1,4,0:0:0:0:
320,68,50999,1,0,0:0:0:0:
328,96,51087,1,0,0:0:0:0:
328,96,51175,1,0,0:0:0:0:
328,96,51352,1,4,0:0:0:0:
272,104,51528,1,0,0:0:0:0:
244,112,51705,1,0,0:0:0:0:
296,132,51881,1,12,0:0:0:0:
348,156,52058,1,0,0:0:0:0:
348,156,52234,1,4,0:0:0:0:
328,96,52410,1,0,0:0:0:0:
328,96,52499,1,0,0:0:0:0:
328,96,52587,1,0,0:0:0:0:
328,96,52763,1,4,0:0:0:0:
328,96,52940,1,0,0:0:0:0:
328,96,53028,1,0,0:0:0:0:
328,96,53116,1,0,0:0:0:0:
328,96,53293,1,0,0:0:0:0:
328,96,53381,1,0,0:0:0:0:
328,96,53469,1,0,0:0:0:0:
348,156,53646,1,4,0:0:0:0:
348,156,53822,1,4,0:0:0:0:
292,148,53999,1,0,0:0:0:0:
236,136,54175,1,4,0:0:0:0:
180,128,54352,1,0,0:0:0:0:
152,120,54440,1,0,0:0:0:0:
152,120,54528,1,0,0:0:0:0:
152,120,54616,1,0,0:0:0:0:
176,132,54705,1,8,0:0:0:0:
152,120,54793,1,0,0:0:0:0:
152,120,54881,1,0,0:0:0:0:
152,120,54969,1,0,0:0:0:0:
152,120,55058,1,4,0:0:0:0:
152,120,55234,1,0,0:0:0:0:
152,120,55322,1,0,0:0:0:0:
152,120,55410,1,0,0:0:0:0:
208,100,55587,1,0,0:0:0:0:
260,80,55763,1,8,0:0:0:0:
276,164,56028,1,8,0:0:0:0:
364,36,56116,1,8,0:0:0:0:
416,16,56293,1,0,0:0:0:0:
364,36,56469,1,4,0:0:0:0:
276,164,56646,1,0,0:0:0:0:
276,164,56734,1,0,0:0:0:0:
276,164,56822,1,0,0:0:0:0:
276,164,56999,1,0,0:0:0:0:
324,192,57175,1,12,0:0:0:0:
276,164,57352,1,0,0:0:0:0:
220,148,57528,1,8,0:0:0:0:
268,120,57705,1,8,0:0:0:0:
280,144,57793,1,8,0:0:0:0:
292,168,57881,1,4,0:0:0:0:
220,148,58058,1,0,0:0:0:0:
220,148,58146,1,0,0:0:0:0:
220,148,58234,1,0,0:0:0:0:
220,148,58410,1,0,0:0:0:0:
220,148,58587,1,8,0:0:0:0:
300,168,58852,1,8,0:0:0:0:
328,172,58940,1,8,0:0:0:0:
328,172,59116,1,0,0:0:0:0:
328,172,59293,1,4,0:0:0:0:
328,172,59469,1,0,0:0:0:0:
328,172,59558,1,0,0:0:0:0:
328,172,59646,1,8,0:0:0:0:
328,172,59822,1,0,0:0:0:0:
328,172,59999,1,12,0:0:0:0:
328,172,60175,1,0,0:0:0:0:
328,172,60352,1,0,0:0:0:0:
316,156,60410,1,8,0:0:0:0:
300,144,60469,1,8,0:0:0:0:
296,124,60528,1,8,0:0:0:0:
280,112,60587,1,8,0:0:0:0:
264,100,60646,1,8,0:0:0:0:
248,88,60705,1,4,0:0:0:0:
416,80,61234,1,0,0:0:0:0:
472,76,61410,1,8,0:0:0:0:
256,136,62116,1,4,0:0:0:0:
304,168,62293,1,0,0:0:0:0:
400,228,62646,1,0,0:0:0:0:
400,228,62822,1,8,0:0:0:0:
400,228,62999,1,0,0:0:0:0:
400,228,63087,1,0,0:0:0:0:
400,228,63175,1,8,0:0:0:0:
240,136,63528,1,0,0:0:0:0:
240,136,63616,1,8,0:0:0:0:
240,136,63705,1,8,0:0:0:0:
240,136,63793,1,8,0:0:0:0:
236,108,63881,1,8,0:0:0:0:
236,108,63969,1,8,0:0:0:0:
256,128,64058,1,0,0:0:0:0:
312,116,64234,1,0,0:0:0:0:
340,112,64322,1,8,0:0:0:0:
368,108,64410,1,8,0:0:0:0:
396,100,64499,1,8,0:0:0:0:
424,92,64587,1,8,0:0:0:0:
452,88,64675,1,8,0:0:0:0:
480,80,64763,1,8,0:0:0:0:
480,80,64852,1,8,0:0:0:0:
480,80,64940,1,4,0:0:0:0:
480,80,65116,1,0,0:0:0:0:
480,80,65205,1,8,0:0:0:0:
480,80,65293,1,8,0:0:0:0:
480,80,65381,1,8,0:0:0:0:
480,80,65469,1,8,0:0:0:0:
480,80,65558,1,8,0:0:0:0:
480,80,65646,1,0,0:0:0:0:
480,80,65734,1,0,0:0:0:0:
480,80,65822,1,0,0:0:0:0:
480,80,65910,1,0,0:0:0:0:
452,92,65999,1,12,0:0:0:0:
452,88,66352,1,4,0:0:0:0:
368,92,66616,1,0,0:0:0:0:
340,92,66705,1,8,0:0:0:0:
324,144,66881,1,4,0:0:0:0:
324,144,67234,1,4,0:0:0:0:
340,92,67410,1,0,0:0:0:0:
340,92,67587,1,4,0:0:0:0:
240,192,67940,1,0,0:0:0:0:
240,192,68028,1,0,0:0:0:0:
324,144,68116,1,0,0:0:0:0:
324,144,68205,1,0,0:0:0:0:
324,144,68293,1,0,0:0:0:0:
324,144,68381,1,0,0:0:0:0:
344,172,68469,1,8,0:0:0:0:
344,172,68558,1,8,0:0:0:0:
344,172,68646,1,8,0:0:0:0:
344,172,68734,1,8,0:0:0:0:
344,172,68822,1,8,0:0:0:0:
344,172,68910,1,8,0:0:0:0:
344,172,68999,1,8,0:0:0:0:
344,172,69087,1,8,0:0:0:0:
344,172,69175,1,4,0:0:0:0:
292,156,69352,1,0,0:0:0:0:
272,136,69440,1,0,0:0:0:0:
252,120,69528,1,8,0:0:0:0:
284,76,69705,1,0,0:0:0:0:
304,128,69881,1,4,0:0:0:0:
264,88,70058,1,0,0:0:0:0:
284,108,70234,1,8,0:0:0:0:
252,120,70410,1,0,0:0:0:0:
252,120,70587,1,4,0:0:0:0:
284,76,70763,1,0,0:0:0:0:
284,76,70852,1,0,0:0:0:0:
284,76,70940,1,8,0:0:0:0:
272,136,71116,1,0,0:0:0:0:
272,136,71293,1,4,0:0:0:0:
272,136,71469,1,0,0:0:0:0:
272,136,71646,1,12,0:0:0:0:
272,136,71822,1,0,0:0:0:0:
272,136,71999,1,4,0:0:0:0:
316,104,72175,1,0,0:0:0:0:
316,104,72263,1,0,0:0:0:0:
316,104,72352,1,8,0:0:0:0:
348,152,72528,1,0,0:0:0:0:
380,196,72705,1,4,0:0:0:0:
380,196,72881,1,0,0:0:0:0:
380,196,72969,1,0,0:0:0:0:
380,196,73058,1,8,0:0:0:0:
396,144,73234,1,0,0:0:0:0:
396,144,73322,1,0,0:0:0:0:
396,144,73410,1,4,0:0:0:0:
396,144,73587,1,8,0:0:0:0:
396,144,73675,1,8,0:0:0:0:
396,144,73763,1,0,0:0:0:0:
396,144,73940,1,12,0:0:0:0:
396,144,74116,1,0,0:0:0:0:
400,88,74293,1,8,0:0:0:0:
396,144,74469,1,12,0:0:0:0:
400,88,74646,1,0,0:0:0:0:
356,124,74822,1,4,0:0:0:0:
412,124,74999,1,0,0:0:0:0:
412,124,75087,1,0,0:0:0:0:
412,124,75175,1,8,0:0:0:0:
412,124,75352,1,0,0:0:0:0:
412,124,75528,1,4,0:0:0:0:
360,140,75705,1,0,0:0:0:0:
308,156,75881,1,12,0:0:0:0:
308,156,76058,1,0,0:0:0:0:
308,156,76234,1,4,0:0:0:0:
308,156,76410,1,0,0:0:0:0:
308,156,76499,1,0,0:0:0:0:
308,156,76587,1,12,0:0:0:0:
308,156,76763,1,0,0:0:0:0:
308,156,76852,1,0,0:0:0:0:
308,156,76940,1,4,0:0:0:0:
308,156,77116,1,0,0:0:0:0:
308,156,77293,1,12,0:0:0:0:
308,156,77469,1,0,0:0:0:0:
308,156,77646,1,4,0:0:0:0:
308,156,77822,1,0,0:0:0:0:
308,156,77910,1,0,0:0:0:0:
308,156,77999,1,8,0:0:0:0:
308,156,78175,1,0,0:0:0:0:
308,156,78352,1,4,0:0:0:0:
308,156,78528,1,0,0:0:0:0:
308,156,78705,1,12,0:0:0:0:
308,156,78881,1,0,0:0:0:0:
308,156,78969,1,0,0:0:0:0:
308,156,79058,1,4,0:0:0:0:
308,156,79146,1,0,0:0:0:0:
308,156,79234,1,0,0:0:0:0:
308,156,79322,1,0,0:0:0:0:
288,176,79410,1,8,0:0:0:0:
308,156,79499,1,8,0:0:0:0:
308,156,79587,1,8,0:0:0:0:
308,156,79675,1,8,0:0:0:0:
288,176,79763,1,0,0:0:0:0:
288,176,79852,1,0,0:0:0:0:
288,176,79940,1,8,0:0:0:0:
288,176,80028,1,8,0:0:0:0:
288,176,80116,1,0,0:0:0:0:
304,168,80175,1,8,0:0:0:0:
320,160,80234,1,8,0:0:0:0:
336,156,80293,1,8,0:0:0:0:
352,148,80352,1,8,0:0:0:0:
368,144,80410,1,8,0:0:0:0:
356,132,80469,1,4,0:0:0:0:
304,148,80646,1,0,0:0:0:0:
276,156,80734,1,0,0:0:0:0:
276,156,80822,1,8,0:0:0:0:
276,156,80999,1,4,0:0:0:0:
276,156,81175,1,0,0:0:0:0:
276,156,81352,1,4,0:0:0:0:
276,156,81528,1,12,0:0:0:0:
276,156,81705,1,0,0:0:0:0:
276,156,81881,1,4,0:0:0:0:
280,100,82058,1,0,0:0:0:0:
280,100,82146,1,0,0:0:0:0:
280,100,82234,1,8,0:0:0:0:
280,100,82410,1,0,0:0:0:0:
280,100,82499,1,0,0:0:0:0:
280,100,82587,1,4,0:0:0:0:
280,100,82763,1,0,0:0:0:0:
280,100,82852,1,0,0:0:0:0:
296,76,82940,1,12,0:0:0:0:
304,132,83116,1,8,0:0:0:0:
296,76,83205,1,0,0:0:0:0:
296,76,83293,1,4,0:0:0:0:
304,132,83469,1,0,0:0:0:0:
304,132,83558,1,0,0:0:0:0:
304,132,83646,1,8,0:0:0:0:
328,84,83822,1,4,0:0:0:0:
328,84,83999,1,0,0:0:0:0:
328,84,84175,1,0,0:0:0:0:
328,84,84352,1,12,0:0:0:0:
328,84,84528,1,0,0:0:0:0:
280,116,84705,1,0,0:0:0:0:
328,84,84881,1,12,0:0:0:0:
280,116,85058,1,0,0:0:0:0:
328,84,85234,1,12,0:0:0:0:
292,128,85410,1,0,0:0:0:0:
328,84,85587,1,12,0:0:0:0:
328,84,85763,1,12,0:0:0:0:
292,128,85940,1,0,0:0:0:0:
256,168,86116,1,4,0:0:0:0:
276,116,86293,1,0,0:0:0:0:
268,144,86381,1,0,0:0:0:0:
268,144,86469,1,0,0:0:0:0:
236,96,86646,1,4,0:0:0:0:
268,144,86822,1,0,0:0:0:0:
236,96,86999,1,0,0:0:0:0:
268,144,87175,1,12,0:0:0:0:
236,96,87352,1,0,0:0:0:0:
252,120,87440,1,0,0:0:0:0:
268,144,87528,1,4,0:0:0:0:
252,120,87705,1,0,0:0:0:0:
252,120,87881,1,4,0:0:0:0:
252,120,88058,1,0,0:0:0:0:
252,120,88234,1,4,0:0:0:0:
252,120,88410,1,4,0:0:0:0:
252,120,88587,1,12,0:0:0:0:
252,120,88763,1,0,0:0:0:0:
252,120,88852,1,0,0:0:0:0:
252,120,88940,1,4,0:0:0:0:
472,164,89646,1,4,0:0:0:0:
436,120,89822,1,0,0:0:0:0:
436,120,89999,1,0,0:0:0:0:
436,120,90175,1,0,0:0:0:0:
436,120,90352,1,4,0:0:0:0:
436,120,90528,1,0,0:0:0:0:
436,120,90705,1,4,0:0:0:0:
436,120,90881,1,0,0:0:0:0:
436,120,91058,1,4,0:0:0:0:
380,128,91234,1,0,0:0:0:0:
352,132,91322,1,0,0:0:0:0:
352,132,91410,1,12,0:0:0:0:
352,132,91587,1,0,0:0:0:0:
352,132,91763,1,4,0:0:0:0:
256,192,92469,12,4,94410,0:0:0:0:
256,188,94587,5,4,0:0:0:0:
