osu file format v14

[General]
AudioFilename: 07.shirayuki.ogg
AudioLeadIn: 0
PreviewTime: 65021
Countdown: 1
SampleSet: Soft
StackLeniency: 0.2
Mode: 0
LetterboxInBreaks: 1
WidescreenStoryboard: 1

[Editor]
Bookmarks: 9066,22550,33336,44123,64347,65696,87269,108842,130415,131426,131594,133111,133448,133785,134123,134291,141201,141538,141875,142212,142381,143898,144235,144572,144909,145078,149291,149628,149965,150302,150639,151314,151988,152325,162100,172212,172550,182999,183673,192437,193111,195134,216707,226819,236932,239628,247718,248392
DistanceSpacing: 1.9
BeatDivisor: 4
GridSize: 4
TimelineZoom: 3.099999

[Metadata]
Title:shirayuki
TitleUnicode:白雪~shirayuki~
Artist:Usa
ArtistUnicode:うさ
Creator:Jycool
Version:yuki
Source:
Tags:Misure Pop Jpop Japanese J-pop japanese pop はな Hana utaite cover Kurousa-P Vocaloid Hatsune Miku Kimi no Iru Keshiki nicovideo NicoNicoDouga Whiteflame presents Beren
BeatmapID:818606
BeatmapSetID:373658

[Difficulty]
HPDrainRate:7
CircleSize:5
OverallDifficulty:8
ApproachRate:8
SliderMultiplier:1.6
SliderTickRate:1

[Events]
//Background and Video events
0,0,"48738560_p0.jpg",0,0
//Break Periods
2,87269,108070
2,195134,205148
//Storyboard Layer 0 (Background)
//Storyboard Layer 1 (Fail)
//Storyboard Layer 2 (Pass)
//Storyboard Layer 3 (Foreground)
//Storyboard Sound Samples

[TimingPoints]
955,674.157303370787,4,2,2,30,1,0
2303,-133.333333333333,4,2,2,30,0,0
3651,-133.333333333333,4,2,1,15,0,0
4325,-133.333333333333,4,2,2,30,0,0
5674,-100,4,2,2,30,0,0
8539,-100,4,2,1,5,0,0
8707,-80,4,2,1,30,0,0
8792,-80,4,2,1,40,0,0
8876,-80,4,2,1,30,0,0
9044,-57.1428571428571,4,2,1,20,0,0
9213,-57.1428571428571,4,2,1,10,0,0
9381,-57.1428571428571,4,2,1,5,0,0
9719,-133.333333333333,4,2,1,50,0,0
10561,-80,4,2,1,80,0,0
11404,-80,4,2,1,100,0,0
11572,-80,4,2,1,80,0,0
12078,-80,4,2,1,80,0,0
14775,-80,4,2,1,60,0,0
15617,-80,4,2,1,70,0,0
17134,-100,4,2,1,70,0,0
20337,-100,4,2,1,60,0,0
21179,-100,4,2,1,50,0,0
21404,-100,4,2,1,30,0,0
21853,-100,4,2,1,20,0,0
22528,-100,4,2,2,40,0,0
24466,-100,4,2,1,5,0,0
24719,-100,4,2,2,40,0,0
26235,-133.333333333333,4,2,2,40,0,0
26741,-100,4,2,2,40,0,0
29859,-100,4,2,1,5,0,0
30112,-100,4,2,2,40,0,0
31966,-133.333333333333,4,2,2,40,0,0
32134,-200,4,2,1,5,0,0
33314,-100,4,2,1,50,0,0
42752,-133.333333333333,4,2,1,50,0,0
43089,-80,4,2,1,5,0,0
43258,-80,4,2,1,70,0,0
43763,-80,4,2,1,40,0,0
44101,-80,4,2,1,60,0,0
48820,-100,4,2,1,60,0,0
49494,-80,4,2,1,60,0,0
62977,-80,4,2,1,70,0,0
63146,-80,4,2,1,75,0,0
63820,-80,4,2,1,80,0,0
64157,-80,4,2,1,90,0,0
64999,-80,4,2,0,20,0,0
65337,-80,4,2,0,35,0,0
65674,-80,4,2,1,80,0,0
85898,-100,4,2,1,50,0,0
86572,-80,4,2,1,50,0,0
108820,-100,4,2,1,50,0,0
130056,-80,4,2,1,40,0,0
130393,-80,4,2,1,60,0,0
135112,-100,4,2,1,60,0,0
135786,-80,4,2,1,60,0,0
149269,-80,4,2,1,70,0,0
149438,-80,4,2,1,75,0,0
150112,-80,4,2,1,80,0,0
150449,-80,4,2,1,90,0,0
151292,-80,4,2,1,20,0,0
151629,-80,4,2,1,35,0,0
151966,-80,4,2,1,80,0,0
172190,-100,4,2,1,70,0,0
172443,-100,4,2,1,50,0,0
173033,-100,4,2,1,60,0,0
173792,-100,4,2,1,70,0,0
174466,-100,4,2,1,60,0,0
174803,-100,4,2,1,60,0,0
174971,-100,4,2,1,60,0,0
175477,-100,4,2,1,70,0,0
175814,-100,4,2,1,60,0,0
176151,-100,4,2,1,70,0,0
177499,-100,4,2,1,50,0,0
177837,-100,4,2,1,60,0,0
178426,-100,4,2,1,60,0,0
179185,-100,4,2,1,70,0,0
179859,-100,4,2,1,50,0,0
180280,-80,4,2,1,50,0,0
180786,-71.4285714285714,4,2,1,60,0,0
181292,-64.5161290322581,4,2,1,70,0,0
181797,-58.8235294117647,4,2,1,80,0,0
182303,-58.8235294117647,4,2,0,30,0,0
182359,-58.8235294117647,4,2,0,40,0,0
182471,-58.8235294117647,4,2,0,55,0,0
182640,-58.8235294117647,4,2,0,15,0,0
182977,-58.8235294117647,4,2,1,50,0,0
185337,-58.8235294117647,4,2,1,30,0,0
187022,-133.333333333333,4,2,0,30,0,0
187696,-100,4,2,1,50,0,0
189044,-80,4,2,1,50,0,0
189719,-71.4285714285714,4,2,1,50,0,0
190393,-64.5161290322581,4,2,1,50,0,0
205898,-133.333333333333,4,2,1,20,0,0
208595,-200,4,2,1,20,0,0
210617,-200,4,2,1,10,0,0
211292,-64.5161290322581,4,2,1,15,0,0
213651,-200,4,2,0,30,0,0
214325,-133.333333333333,4,2,1,50,0,0
216685,-80,4,2,1,70,0,1
226123,-80,4,2,1,50,0,1
226460,-80,4,2,1,60,0,1
226797,-80,4,2,1,70,0,1
233455,-80,4,2,1,60,0,1
234213,-80,4,2,1,70,0,1
234803,-80,4,2,1,60,0,1
235308,-80,4,2,1,70,0,1
236067,-80,4,2,1,60,0,1
236910,-100,4,2,1,50,0,1
240280,-100,4,2,1,40,0,0
240786,-100,4,2,1,50,0,0
241629,-100,4,2,1,60,0,0

[Colours]
Combo1 : 241,14,82
Combo2 : 191,191,191
Combo3 : 134,200,249
Combo4 : 255,128,255

[HitObjects]
108,192,955,5,2,0:0:0:0:
116,220,1629,1,0,0:0:0:0:
124,248,2303,2,0,L|64:232,1,60.0000022888184,0|2,0:0|0:0,0:0:0:0:
368,192,3314,1,0,0:0:0:0:
408,80,3651,5,4,0:2:0:0:
400,108,4325,1,2,0:0:0:0:
392,136,4999,2,0,L|452:120,1,60.0000022888184,0|2,0:0|0:0,0:0:0:0:
392,136,5674,2,0,B|364:220,1,80
336,300,6348,5,0,0:0:0:0:
268,312,7022,1,2,0:0:0:0:
200,324,7696,1,0,0:0:0:0:
256,244,8033,2,0,B|286:182|256:124|256:124,1,120,2|0,0:0|0:0,0:0:0:0:
228,40,8707,6,0,L|204:0,2,33.3333333333333
292,68,9044,2,0,L|310:42,10,23.3333335558573
257,127,9719,6,0,B|232:186|258:251|258:251,1,120.000004577637,0|4,0:0|0:0,3:0:0:0:
279,305,10561,5,8,0:0:0:0:
330,265,10730,2,0,B|352:248|384:252|384:252,1,50,2|0,0:0|0:0,0:0:0:0:
339,329,11067,1,8,0:0:0:0:
279,305,11235,1,8,0:0:0:0:
330,265,11404,1,8,0:0:0:0:
456,232,11741,5,4,0:0:0:0:
284,144,12247,1,8,0:0:0:0:
320,92,12415,1,2,0:0:0:0:
336,224,13089,1,8,0:0:0:0:
216,168,13426,1,8,0:0:0:0:
320,92,13763,1,2,0:0:0:0:
160,204,14269,1,2,0:0:0:0:
136,144,14438,5,8,0:0:0:0:
20,296,14943,1,8,0:0:0:0:
212,324,15449,1,2,0:0:0:0:
96,264,15786,6,0,L|84:228,2,25,8|0|0,0:0|0:0|0:0,0:0:0:0:
125,205,16123,2,0,P|144:184|152:148,1,50,8|0,0:0|0:0,0:0:0:0:
148,98,16460,1,2,0:0:0:0:
94,134,16629,1,2,0:0:0:0:
151,163,16797,1,2,0:0:0:0:
240,36,17134,6,0,B|268:108|328:116|386:91,1,160,8|2,0:0|0:0,0:0:0:0:
427,71,17977,2,0,B|385:98|400:153|400:153,1,80,8|0,0:0|0:0,0:0:0:0:
424,186,18483,2,0,L|446:227,2,40,0|2|8,0:0|0:0|0:0,0:0:0:0:
324,216,19157,1,2,0:0:0:0:
424,186,19494,1,2,0:0:0:0:
332,64,19831,5,4,0:0:0:0:
184,192,20505,5,4,0:0:0:0:
256,308,21179,6,0,L|276:364,2,53.3333333333333,4|0|0,0:0|0:0|0:0,0:0:0:0:
256,308,21853,1,4,0:0:0:0:
392,280,22528,6,0,L|468:126,1,160,2|0,0:0|0:0,0:0:0:0:
324,224,23876,2,0,L|353:54,1,160,2|0,0:0|0:0,0:0:0:0:
408,184,24887,5,0,0:0:0:0:
338,147,25224,1,2,0:0:0:0:
265,180,25561,1,0,0:0:0:0:
140,213,25898,1,2,0:0:0:0:
164,76,26235,2,0,L|154:47,2,30.0000011444092,0|0|2,0:0|0:0|0:0,0:0:0:0:
189,145,26910,5,0,0:0:0:0:
103,244,27415,1,0,0:0:0:0:
107,331,27752,1,0,0:0:0:0:
125,290,27921,6,0,L|48:135,1,160,2|0,0:0|0:0,0:0:0:0:
193,234,29269,2,0,L|163:64,1,160,2|0,0:0|0:0,0:0:0:0:
107,181,30281,5,0,0:0:0:0:
177,144,30618,1,2,0:0:0:0:
250,177,30955,1,0,0:0:0:0:
288,309,31292,1,2,0:0:0:0:
396,224,31629,1,0,0:0:0:0:
312,234,31966,6,0,B|308:180|347:167|347:119,1,120.000004577637,2|0,0:0|0:0,0:0:0:0:
377,293,33314,5,8,0:0:0:0:
312,234,33651,1,0,0:0:0:0:
221,246,33988,1,0,0:0:0:0:
312,234,34663,5,8,0:0:0:0:
268,156,35000,1,0,0:0:0:0:
268,68,35337,1,0,0:0:0:0:
268,156,36011,5,8,0:0:0:0:
186,122,36348,1,0,0:0:0:0:
100,141,36685,1,0,0:0:0:0:
52,215,37022,1,8,0:0:0:0:
125,263,37359,2,0,B|193:277|217:353|217:353,2,120,8|0|0,0:0|0:0|0:0,0:0:0:0:
45,300,38707,5,8,0:0:0:0:
52,215,39044,1,0,0:0:0:0:
132,179,39381,1,0,0:0:0:0:
230,32,40056,5,8,0:0:0:0:
170,96,40393,1,0,0:0:0:0:
86,119,40730,1,0,0:0:0:0:
261,115,41404,5,8,0:0:0:0:
331,167,41741,1,0,0:0:0:0:
365,247,42078,1,0,0:0:0:0:
476,184,42415,1,8,0:0:0:0:
385,71,42752,2,0,P|379:102|392:138,1,60.0000022888184,8|0,0:0|0:0,0:0:0:0:
414,195,43258,5,2,0:0:0:0:
414,195,43343,1,2,0:0:0:0:
414,195,43427,1,8,0:0:0:0:
316,296,43763,2,0,L|303:337,3,25,8|0|0|0,0:0|0:0|0:0|0:0,0:0:0:0:
296,232,44101,5,4,0:0:0:0:
484,168,44438,1,6,0:0:0:0:
328,36,44775,1,6,0:0:0:0:
312,123,45280,5,2,0:0:0:0:
312,123,45365,1,2,0:0:0:0:
312,123,45449,1,8,0:0:0:0:
308,199,45617,1,2,0:0:0:0:
246,156,45786,1,8,0:0:0:0:
237,55,46123,1,2,0:0:0:0:
407,169,46460,1,2,0:0:0:0:
228,252,46797,5,4,0:0:0:0:
156,264,47134,1,6,0:0:0:0:
84,276,47471,1,6,0:0:0:0:
32,120,47977,5,2,0:0:0:0:
32,120,48061,1,2,0:0:0:0:
32,120,48146,1,8,0:0:0:0:
104,132,48314,1,2,0:0:0:0:
176,144,48483,1,8,0:0:0:0:
228,252,48820,2,0,B|177:246|156:295|156:295,1,80,2|8,0:0|0:0,0:0:0:0:
225,328,49325,1,2,0:0:0:0:
284,192,49494,6,0,B|343:133|326:50|326:50,1,150,4|0,0:0|0:0,0:0:0:0:
384,116,50168,2,0,B|418:171|486:155|486:155,1,100,2|0,0:0|0:0,0:0:0:0:
372,32,50842,1,8,0:0:0:0:
384,116,51011,1,2,0:0:0:0:
348,188,51179,1,8,0:0:0:0:
428,328,51516,5,8,0:0:0:0:
292,248,51853,1,8,0:0:0:0:
368,272,52022,1,2,0:0:0:0:
428,216,52190,2,0,B|426:153|477:127|477:127,1,100,8|0,0:0|0:0,0:0:0:0:
300,318,52865,6,0,B|248:330|248:330,2,50,2|0|0,0:0|0:0|0:0,0:0:0:0:
300,318,53370,1,0,0:0:0:0:
356,240,53539,2,0,L|405:248,1,50,8|8,0:0|0:0,0:0:0:0:
312,156,53876,2,0,L|300:104,1,50,2|8,0:0|0:0,0:0:0:0:
196,32,54213,2,0,L|220:136,1,100,2|2,0:0|0:0,0:0:0:0:
28,260,54887,5,4,0:0:0:0:
28,260,55224,1,6,0:0:0:0:
28,260,55561,1,6,0:0:0:0:
128,328,56067,5,2,0:0:0:0:
128,328,56235,1,8,0:0:0:0:
108,244,56404,1,2,0:0:0:0:
108,244,56572,1,8,0:0:0:0:
168,80,56910,1,2,0:0:0:0:
36,196,57247,1,2,0:0:0:0:
112,160,57584,5,4,0:0:0:0:
276,316,57921,1,6,0:0:0:0:
336,100,58258,1,6,0:0:0:0:
428,240,58763,5,2,0:0:0:0:
428,240,58848,1,2,0:0:0:0:
428,240,58932,1,8,0:0:0:0:
400,160,59101,1,2,0:0:0:0:
483,174,59269,1,8,0:0:0:0:
336,100,59606,2,0,P|285:97|243:132,1,100,2|0,0:0|0:0,0:0:0:0:
247,124,60112,1,8,0:0:0:0:
216,288,60280,6,0,P|179:313|120:306,1,100,4|0,0:0|0:0,0:0:0:0:
72,157,60955,1,2,0:0:0:0:
125,308,61292,1,8,0:0:0:0:
138,229,61460,1,2,0:0:0:0:
57,231,61629,1,8,0:0:0:0:
31,155,61797,1,2,0:0:0:0:
57,231,61966,1,8,0:0:0:0:
129,124,62134,5,8,0:0:0:0:
129,124,62219,1,8,0:0:0:0:
129,124,62303,1,2,0:0:0:0:
214,179,62471,1,2,0:0:0:0:
306,103,62640,1,8,0:0:0:0:
221,158,62808,1,2,0:0:0:0:
147,48,62977,5,4,0:0:0:0:
306,103,63314,1,6,0:0:0:0:
299,262,63651,1,6,0:0:0:0:
144,304,63988,1,6,0:0:0:0:
54,171,64325,1,6,0:0:0:0:
130,141,64999,5,0,0:0:0:0:
139,152,65084,1,0,0:0:0:0:
144,164,65168,1,0,0:0:0:0:
145,177,65252,1,0,0:0:0:0:
138,199,65337,1,0,0:0:0:0:
155,213,65421,1,0,0:0:0:0:
175,203,65505,1,0,0:0:0:0:
173,180,65589,1,0,0:0:0:0:
185,161,65674,6,0,B|199:101|272:97|272:97,1,100,4|0,0:0|0:0,0:0:0:0:
256,99,66348,1,2,0:0:0:0:
196,290,66685,1,8,0:0:0:0:
140,350,66853,1,2,0:0:0:0:
99,277,67022,2,0,B|76:221|20:220|20:220,1,100,8|8,0:0|0:0,0:0:0:0:
22,220,67696,1,2,0:0:0:0:
132,98,68033,5,8,0:0:0:0:
196,50,68202,1,2,0:0:0:0:
257,100,68370,2,0,B|290:154|361:136|361:136,1,100,8|0,0:0|0:0,0:0:0:0:
471,37,69044,2,0,B|410:31|390:105|390:105,1,100,2|0,0:0|0:0,0:0:0:0:
417,168,69550,1,2,0:0:0:0:
473,111,69719,1,8,0:0:0:0:
336,193,70056,2,0,L|317:228,2,33.3333333333333
353,261,70393,2,0,B|365:302|395:319|438:313,1,100,2|2,0:0|0:0,0:0:0:0:
427,314,70898,1,2,0:0:0:0:
489,250,71067,5,4,0:0:0:0:
393,88,71404,1,8,0:0:0:0:
353,261,71741,2,0,B|317:308|254:289|254:289,1,100,2|0,0:0|0:0,0:0:0:0:
262,290,72247,1,2,0:0:0:0:
177,249,72415,5,8,0:0:0:0:
325,69,72752,1,8,0:0:0:0:
162,137,73089,2,0,B|187:197|259:179|259:179,1,100,2|2,0:0|0:0,0:0:0:0:
244,181,73595,1,2,0:0:0:0:
280,100,73763,6,0,B|248:44|184:68|184:68,1,100,8|0,0:0|0:0,0:0:0:0:
43,126,74438,2,0,B|61:70|122:72|122:72,1,100,6|4,0:0|3:0,0:0:0:0:
162,137,74943,5,2,0:0:0:0:
162,137,75028,1,2,0:0:0:0:
162,137,75112,1,8,0:0:0:0:
175,215,75280,1,8,0:0:0:0:
244,181,75449,1,6,0:0:0:0:
293,253,75617,1,8,0:0:0:0:
390,196,75786,1,6,0:0:0:0:
390,196,76123,1,6,0:0:0:0:
368,280,76460,6,0,B|388:332|350:375|350:375,1,100,4|8,0:0|0:0,0:0:0:0:
350,373,77134,1,2,0:0:0:0:
220,280,77471,1,2,0:0:0:0:
293,253,77640,1,8,0:0:0:0:
293,253,77724,1,8,0:0:0:0:
293,253,77808,1,8,0:0:0:0:
307,174,77977,1,2,0:0:0:0:
245,122,78146,2,0,B|209:74|241:18|241:18,1,100,8|2,0:0|0:0,0:0:0:0:
234,202,78820,5,2,0:0:0:0:
169,154,78988,1,2,0:0:0:0:
124,224,79157,2,0,B|86:268|26:259|26:259,1,100,8|8,0:0|0:0,0:0:0:0:
192,275,79831,2,0,B|243:284|270:340|270:340,1,100,2|2,0:0|0:0,0:0:0:0:
267,335,80337,1,2,0:0:0:0:
202,190,80505,2,0,P|193:169|191:140,1,50,8|2,0:0|0:0,0:0:0:0:
190,142,80842,2,0,B|130:140|101:75|101:75,1,100,8|2,0:0|0:0,0:0:0:0:
92,11,81348,1,8,0:0:0:0:
109,89,81516,1,2,0:0:0:0:
190,142,81685,1,2,0:0:0:0:
320,136,81853,5,4,0:0:0:0:
123,236,82190,1,4,0:0:0:0:
282,300,82528,2,0,B|281:265|255:251|228:237|230:203,1,100,4|8,3:0|0:0,0:0:0:0:
190,142,83033,1,2,0:0:0:0:
190,142,83117,1,2,0:0:0:0:
190,142,83202,5,4,0:0:0:0:
386,245,83539,1,4,0:0:0:0:
368,51,83876,2,0,B|367:85|341:99|314:113|320:147,1,100,4|8,3:0|0:0,0:0:0:0:
285,209,84381,1,2,0:0:0:0:
198,138,84550,5,4,0:0:0:0:
157,256,84887,1,8,0:0:0:0:
319,149,85224,1,2,0:0:0:0:
356,265,85561,1,8,0:0:0:0:
262,337,85898,2,0,B|214:281|257:222|257:222,1,120,4|2,0:0|0:0,0:0:0:0:
254,225,86572,5,2,0:0:0:0:
59,190,108820,6,0,B|155:159|205:234|205:234,1,160,8|0,0:0|0:0,0:0:0:0:
154,130,109662,2,0,B|192:153|198:198|198:198,1,80
202,231,110168,1,8,0:0:0:0:
175,306,110505,1,8,0:0:0:0:
99,332,110842,1,2,0:0:0:0:
235,363,111179,5,0,0:0:0:0:
285,241,111516,2,0,B|316:209|371:217|371:217,1,80,8|0,0:0|0:0,0:0:0:0:
446,276,112190,2,0,P|420:271|394:253,1,40
358,216,112528,2,0,B|329:175|349:132|349:132,2,80,0|8|8,0:0|0:0|0:0,0:0:0:0:
358,216,113539,1,2,0:0:0:0:
398,98,113876,2,0,P|405:74|405:50,1,40,0|2,0:0|0:0,0:0:0:0:
336,61,114213,6,0,B|260:53|229:114|229:114,1,120,8|0,0:0|0:0,0:0:0:0:
256,36,114887,1,0,0:0:0:0:
256,36,115056,2,0,B|201:76|219:142|219:142,1,120,0|8,0:0|0:0,0:0:0:0:
254,214,115898,1,8,0:0:0:0:
330,236,116235,1,2,0:0:0:0:
355,94,116572,5,0,0:0:0:0:
257,194,116910,2,0,B|175:202,1,80,8|0,0:0|0:0,0:0:0:0:
283,87,117584,2,0,B|362:77|362:77,1,80
467,86,118258,1,8,0:0:0:0:
374,29,118595,1,8,0:0:0:0:
368,155,118932,2,0,B|361:213,1,40,2|8,0:0|0:0,0:0:0:0:
389,230,119269,2,0,B|403:278,1,40,8|2,0:0|0:0,0:0:0:0:
452,196,119606,6,0,B|367:231|308:151|308:151,1,160,8|0,0:0|0:0,0:0:0:0:
358,254,120448,2,0,B|320:231|314:186|314:186,1,80
310,153,120954,1,8,0:0:0:0:
334,76,121291,1,8,0:0:0:0:
406,42,121628,1,2,0:0:0:0:
259,12,121965,5,0,0:0:0:0:
227,143,122302,2,0,B|196:175|141:167|141:167,1,80,8|0,0:0|0:0,0:0:0:0:
66,108,122977,2,0,P|92:113|118:131,1,40
154,168,123314,2,0,B|183:209|163:252|163:252,2,80,0|8|8,0:0|0:0|0:0,0:0:0:0:
154,168,124325,1,2,0:0:0:0:
114,286,124662,2,0,P|107:310|107:334,1,40,0|2,0:0|0:0,0:0:0:0:
176,323,124999,6,0,B|252:331|283:270|283:270,1,120,8|0,0:0|0:0,0:0:0:0:
256,348,125673,1,0,0:0:0:0:
256,348,125842,2,0,B|311:308|293:242|293:242,1,120,0|8,0:0|0:0,0:0:0:0:
258,170,126684,1,8,0:0:0:0:
285,94,127021,1,2,0:0:0:0:
183,36,127358,5,0,0:0:0:0:
180,152,127696,2,0,L|158:240,1,80,8|0,0:0|0:0,0:0:0:0:
132,84,128370,2,0,L|152:-1,1,80
48,116,129044,1,8,0:0:0:0:
48,116,129381,1,8,0:0:0:0:
136,228,129719,1,2,0:0:0:0:
68,276,130056,2,0,L|48:316,3,25
48,208,130394,5,4,0:0:0:0:
208,176,130730,1,6,0:0:0:0:
354,262,131068,1,6,0:0:0:0:
200,342,131573,5,2,0:0:0:0:
200,342,131658,1,2,0:0:0:0:
200,342,131742,1,8,0:0:0:0:
202,266,131910,1,2,0:0:0:0:
266,307,132079,1,8,0:0:0:0:
354,262,132416,1,2,0:0:0:0:
306,69,132752,1,2,0:0:0:0:
492,130,133090,5,4,0:0:0:0:
419,106,133427,1,6,0:0:0:0:
348,129,133763,1,6,0:0:0:0:
163,53,134270,5,2,0:0:0:0:
163,53,134354,1,2,0:0:0:0:
163,53,134439,1,8,0:0:0:0:
236,37,134607,1,2,0:0:0:0:
306,69,134776,1,8,0:0:0:0:
183,140,135113,2,0,B|172:184|121:193|121:193,1,80,2|8,0:0|0:0,0:0:0:0:
109,114,135618,1,2,0:0:0:0:
158,262,135787,6,0,B|205:342|292:322|292:322,1,150,4|0,0:0|0:0,0:0:0:0:
196,341,136461,2,0,B|154:375|100:357|100:357,1,100,2|0,0:0|0:0,0:0:0:0:
31,196,137135,1,8,0:0:0:0:
77,265,137304,1,2,0:0:0:0:
158,262,137472,1,8,0:0:0:0:
31,196,137809,5,8,0:0:0:0:
40,48,138146,1,8,0:0:0:0:
68,124,138314,1,2,0:0:0:0:
136,168,138483,2,0,B|180:201|236:180,1,100,8|0,0:0|0:0,0:0:0:0:
332,44,139158,6,0,B|309:114|309:114,2,50,2|0|0,0:0|0:0|0:0,0:0:0:0:
332,44,139663,1,0,0:0:0:0:
376,140,139832,2,0,L|359:200,1,50,8|8,0:0|0:0,0:0:0:0:
336,312,140169,2,0,L|268:324,1,50,2|8,0:0|0:0,0:0:0:0:
388,256,140506,2,0,L|496:236,1,100,2|2,0:0|0:0,0:0:0:0:
432,56,141180,5,4,0:0:0:0:
432,56,141517,1,6,0:0:0:0:
432,56,141854,1,6,0:0:0:0:
304,100,142360,5,2,0:0:0:0:
304,100,142528,1,8,0:0:0:0:
380,120,142697,1,2,0:0:0:0:
380,120,142865,1,8,0:0:0:0:
300,20,143202,1,2,0:0:0:0:
432,56,143540,1,2,0:0:0:0:
320,184,143877,5,4,0:0:0:0:
124,88,144214,1,6,0:0:0:0:
148,304,144550,1,6,0:0:0:0:
20,220,145056,5,2,0:0:0:0:
20,220,145141,1,2,0:0:0:0:
20,220,145225,1,8,0:0:0:0:
76,156,145393,1,2,0:0:0:0:
104,236,145562,1,8,0:0:0:0:
233,103,145899,2,0,B|214:158|159:165|159:165,1,100,2|0,0:0|0:0,0:0:0:0:
160,164,146405,1,8,0:0:0:0:
289,259,146572,6,0,B|308:314|370:322|370:322,1,100,4|0,0:0|0:0,0:0:0:0:
415,159,147248,1,2,0:0:0:0:
362,320,147584,1,8,0:0:0:0:
368,299,147753,1,2,0:0:0:0:
463,255,147922,1,8,0:0:0:0:
459,277,148089,1,2,0:0:0:0:
377,224,148259,1,8,0:0:0:0:
476,178,148427,5,8,0:0:0:0:
476,178,148512,1,8,0:0:0:0:
476,178,148596,1,2,0:0:0:0:
394,137,148764,1,2,0:0:0:0:
356,56,148932,1,8,0:0:0:0:
264,60,149101,1,2,0:0:0:0:
192,156,149270,5,4,0:0:0:0:
283,37,149607,1,6,0:0:0:0:
434,101,149944,1,6,0:0:0:0:
424,255,150281,1,6,0:0:0:0:
270,286,150618,1,6,0:0:0:0:
304,219,151292,5,0,0:0:0:0:
309,205,151377,1,0,0:0:0:0:
310,192,151461,1,0,0:0:0:0:
308,179,151545,1,0,0:0:0:0:
295,160,151630,1,0,0:0:0:0:
309,142,151714,1,0,0:0:0:0:
331,146,151798,1,0,0:0:0:0:
334,169,151882,1,0,0:0:0:0:
352,188,151967,6,0,B|392:236|460:220|460:220,1,100,4|0,0:0|0:0,0:0:0:0:
441,222,152641,1,2,0:0:0:0:
396,48,152978,1,8,0:0:0:0:
316,20,153146,1,2,0:0:0:0:
276,96,153315,2,0,B|244:140|180:128|180:128,1,100,8|8,0:0|0:0,0:0:0:0:
186,128,153988,1,2,0:0:0:0:
46,273,154326,5,8,0:0:0:0:
93,201,154495,1,2,0:0:0:0:
173,233,154663,2,0,B|192:291|246:295|246:295,1,100,8|0,0:0|0:0,0:0:0:0:
412,319,155337,2,0,B|393:263|327:270|327:270,1,100,2|0,0:0|0:0,0:0:0:0:
251,294,155843,1,2,0:0:0:0:
310,354,156012,1,8,0:0:0:0:
371,193,156349,2,0,L|390:158,2,33.3333333333333
336,147,156686,2,0,B|283:112|308:50|308:50,1,100,2|2,0:0|0:0,0:0:0:0:
305,59,157191,1,2,0:0:0:0:
386,30,157360,5,4,0:0:0:0:
212,100,157697,1,8,0:0:0:0:
376,174,158034,2,0,B|400:222|376:270|376:270,1,100,2|0,0:0|0:0,0:0:0:0:
375,270,158540,1,2,0:0:0:0:
296,312,158708,5,8,0:0:0:0:
212,100,159044,1,8,0:0:0:0:
144,240,159382,2,0,B|111:189|140:146|140:146,1,100,2|2,0:0|0:0,0:0:0:0:
140,145,159888,1,2,0:0:0:0:
212,100,160056,6,0,B|244:150|211:194|211:194,1,100,8|0,0:0|0:0,0:0:0:0:
53,211,160731,2,0,B|94:258|155:236|155:236,1,100,6|4,0:0|3:0,0:0:0:0:
220,277,161236,5,2,0:0:0:0:
220,277,161321,1,2,0:0:0:0:
220,277,161405,1,8,0:0:0:0:
210,194,161573,1,8,0:0:0:0:
289,181,161742,1,6,0:0:0:0:
308,88,161910,1,8,0:0:0:0:
406,37,162079,1,6,0:0:0:0:
406,37,162416,1,6,0:0:0:0:
390,133,162753,6,0,B|400:188|460:202|460:202,1,100,4|8,0:0|0:0,0:0:0:0:
456,200,163427,1,2,0:0:0:0:
312,92,163764,1,2,0:0:0:0:
282,166,163933,1,8,0:0:0:0:
282,166,164017,1,8,0:0:0:0:
282,166,164101,1,8,0:0:0:0:
201,165,164270,1,2,0:0:0:0:
235,240,164439,2,0,B|208:293|152:293|152:293,1,100,8|2,0:0|0:0,0:0:0:0:
307,244,165113,5,2,0:0:0:0:
282,166,165281,1,2,0:0:0:0:
240,96,165450,2,0,B|205:48|143:64|143:64,1,100,8|8,0:0|0:0,0:0:0:0:
313,57,166124,2,0,B|350:15|408:27|408:27,1,100,2|2,0:0|0:0,0:0:0:0:
404,26,166630,1,2,0:0:0:0:
317,133,166798,2,0,P|304:153|278:166,1,50,8|2,0:0|0:0,0:0:0:0:
281,165,167135,2,0,B|221:163|191:219|191:219,1,100,8|2,0:0|0:0,0:0:0:0:
179,288,167641,1,8,0:0:0:0:
196,210,167809,1,2,0:0:0:0:
177,107,167978,1,2,0:0:0:0:
83,48,168146,5,4,0:0:0:0:
16,225,168483,1,4,0:0:0:0:
196,210,168821,2,0,B|236:206|254:248|288:246|288:246,1,100,4|8,3:0|0:0,0:0:0:0:
292,162,169326,1,2,0:0:0:0:
292,162,169410,1,2,0:0:0:0:
292,162,169495,5,4,0:0:0:0:
130,98,169832,1,4,0:0:0:0:
163,276,170169,2,0,B|132:276|104:308|66:308,1,100,4|8,3:0|0:0,0:0:0:0:
72,226,170674,1,2,0:0:0:0:
151,189,170842,5,4,0:0:0:0:
384,264,171180,1,8,0:0:0:0:
272,48,171517,1,2,0:0:0:0:
272,224,171854,1,8,0:0:0:0:
421,135,172190,5,4,0:0:0:0:
421,135,172528,5,0,0:0:0:0:
419,214,172696,1,0,0:0:0:0:
466,278,172865,1,2,0:0:0:0:
421,135,173202,5,0,0:0:0:0:
326,137,173370,1,2,0:0:0:0:
257,201,173539,1,8,0:0:0:0:
421,135,173876,5,0,0:0:0:0:
348,49,174044,1,0,0:0:0:0:
243,30,174213,2,0,L|227:-1,2,20,2|0|0,0:0|0:0|0:0,0:0:0:0:
273,113,174550,5,0,0:0:0:0:
257,201,174719,1,0,0:0:0:0:
208,275,174887,6,0,B|179:311|126:300|126:300,1,80,8|0,0:0|0:0,0:0:0:0:
135,301,175308,1,0,0:0:0:0:
135,301,175393,1,0,0:0:0:0:
33,288,175561,1,2,0:0:0:0:
166,203,175730,1,0,0:0:0:0:
11,195,175898,1,0,0:0:0:0:
92,140,176067,1,0,0:0:0:0:
89,226,176235,5,8,0:0:0:0:
176,232,176572,1,8,0:0:0:0:
253,273,176910,1,2,0:0:0:0:
301,346,177247,1,8,0:0:0:0:
336,140,177584,5,4,0:0:0:0:
232,32,177921,5,0,0:0:0:0:
216,112,178089,1,0,0:0:0:0:
200,192,178258,1,2,0:0:0:0:
132,324,178595,5,0,0:0:0:0:
112,232,178763,1,2,0:0:0:0:
92,140,178932,1,8,0:0:0:0:
300,248,179269,5,8,0:0:0:0:
336,140,179438,1,0,0:0:0:0:
368,36,179606,1,2,0:0:0:0:
368,36,179775,1,2,0:0:0:0:
416,112,179943,1,8,3:0:0:0:
416,112,180112,1,4,3:0:0:0:
470,200,180280,5,8,0:0:0:0:
470,200,180449,2,0,L|454:260,1,50,4|0,0:0|0:0,0:0:0:0:
300,248,180786,5,8,0:0:0:0:
300,248,180955,2,0,L|324:344,1,55.9999982910157,4|0,0:0|0:0,0:0:0:0:
280,76,181292,5,8,0:0:0:0:
280,76,181460,2,0,L|384:100,1,62.0000004730225,4|0,0:0|0:0,0:0:0:0:
188,232,181797,5,2,0:0:0:0:
188,232,181966,2,0,L|56:252,1,102.000001945496,4|0,0:0|0:0,0:0:0:0:
64,308,182303,6,0,L|53:335,10,22.666667098999,2|0|0|0|0|0|0|0|0|0|0,0:0|0:0|0:0|0:0|0:0|0:0|0:0|0:0|0:0|0:0|0:0,0:0:0:0:
64,308,182977,5,4,0:0:0:0:
96,316,185674,1,4,0:0:0:0:
116,324,187022,2,0,P|144:344|176:348,1,60.0000022888184,4|0,0:0|0:0,0:0:0:0:
197,348,187528,1,0,0:0:0:0:
270,328,187696,6,0,L|282:360,2,26.6666666666667,2|8|2,0:0|0:0|0:0,0:0:0:0:
235,263,188033,1,2,0:0:0:0:
295,164,188202,1,2,0:0:0:0:
223,43,188370,6,0,B|177:37|150:78|150:78,1,80,4|0,0:0|0:0,0:0:0:0:
153,73,188876,1,0,0:0:0:0:
48,161,189044,6,0,B|107:186|144:140|144:140,1,100,2|0,0:0|0:0,0:0:0:0:
153,73,189550,1,0,0:0:0:0:
149,225,189719,6,0,B|142:295|198:328|198:328,1,111.999996582031,4|4,0:0|0:3,0:0:0:0:
266,357,190224,1,0,0:0:0:0:
286,203,190393,6,0,B|342:167|337:94|337:94,1,124.000000946045,4|2,0:3|0:0,0:0:0:0:
321,18,190898,1,8,0:0:0:0:
423,108,191067,5,4,0:0:0:0:
224,248,191404,1,2,0:0:0:0:
224,248,191516,1,2,0:0:0:0:
224,248,191629,1,2,0:0:0:0:
224,248,191741,5,12,0:0:0:0:
328,272,192078,1,8,0:0:0:0:
426,301,192415,1,8,0:0:0:0:
132,272,205898,6,0,P|100:290|72:288,1,60.0000022888184
144,236,206572,1,0,0:0:0:0:
370,145,207247,6,0,P|401:166|429:165,1,60.0000022888184
360,109,207921,1,0,0:0:0:0:
256,340,208595,6,0,B|216:232|308:216|256:100,1,240
248,40,211292,5,0,0:0:0:0:
244,76,211629,1,0,0:0:0:0:
258,106,211966,1,0,0:0:0:0:
272,136,212640,5,0,0:0:0:0:
276,172,212977,1,0,0:0:0:0:
264,204,213314,1,0,0:0:0:0:
204,264,213988,1,0,0:0:0:0:
256,68,214325,5,4,0:0:0:0:
308,264,214999,1,0,0:0:0:0:
256,168,215337,1,4,0:0:0:0:
256,168,215674,1,0,0:0:0:0:
168,44,216685,5,4,0:0:0:0:
340,40,217022,1,8,0:0:0:0:
256,180,217359,2,0,B|239:236|178:239|176:240,1,100,2|0,0:0|0:0,0:0:0:0:
100,236,217865,1,2,0:0:0:0:
100,236,217949,1,2,0:0:0:0:
100,236,218033,1,8,0:0:0:0:
72,156,218202,1,2,0:0:0:0:
92,72,218370,1,8,0:0:0:0:
182,238,218707,2,0,B|200:288|258:298|258:298,1,100,2|2,0:0|0:0,0:0:0:0:
256,297,219213,1,2,0:0:0:0:
140,312,219381,6,0,P|115:315|88:332,1,50,8|0,0:0|0:0,0:0:0:0:
100,236,219719,2,0,P|72:228|36:228,1,50,8|0,0:0|0:0,0:0:0:0:
182,238,220056,2,0,B|240:224|260:168|260:168,1,100,2|2,0:0|0:0,0:0:0:0:
272,92,220561,1,2,0:0:0:0:
272,92,220646,1,2,0:0:0:0:
272,92,220730,1,8,0:0:0:0:
336,40,220898,1,2,0:0:0:0:
420,36,221067,2,0,L|432:-8,2,33.3333333333333,8|0|0,0:0|0:0|0:0,0:0:0:0:
488,84,221404,5,2,0:0:0:0:
412,164,221572,1,8,0:0:0:0:
488,244,221741,1,2,0:0:0:0:
412,164,221910,1,2,0:0:0:0:
404,248,222078,6,0,B|366:292|308:284|308:284,1,100,4|8,0:0|0:0,0:0:0:0:
180,196,222752,1,2,0:0:0:0:
264,212,222921,1,0,0:0:0:0:
314,284,223089,1,8,0:0:0:0:
228,300,223258,1,2,0:0:0:0:
228,300,223342,1,2,0:0:0:0:
228,300,223426,2,0,B|172:300|138:342|138:342,1,100,8|8,0:0|0:0,0:0:0:0:
311,149,224101,2,0,B|371:148|405:95|405:95,1,100,2|2,0:0|0:0,0:0:0:0:
397,104,224606,1,2,0:0:0:0:
282,79,224775,6,0,P|252:78|225:86,1,50,8|0,0:0|0:0,0:0:0:0:
188,21,225112,2,0,P|162:35|148:55,1,50,8|0,0:0|0:0,0:0:0:0:
196,148,225449,2,0,B|210:202|181:244|181:244,1,100,6|4,0:0|0:3,0:0:0:0:
180,244,225955,1,2,0:0:0:0:
109,173,226123,5,12,0:0:0:0:
126,154,226207,1,0,0:0:0:0:
148,143,226292,1,8,0:0:0:0:
172,142,226376,1,8,0:0:0:0:
196,148,226460,1,2,0:0:0:0:
206,125,226544,1,0,0:0:0:0:
221,105,226629,1,8,0:0:0:0:
244,96,226713,1,0,0:0:0:0:
268,94,226797,1,6,0:0:0:0:
393,25,227134,1,6,0:0:0:0:
341,160,227471,5,4,0:0:0:0:
452,272,227808,2,0,B|457:216|418:179|418:179,1,100,8|2,0:0|0:0,0:0:0:0:
341,160,228314,1,0,0:0:0:0:
288,224,228483,1,8,0:0:0:0:
204,244,228651,1,2,0:0:0:0:
204,244,228735,1,2,0:0:0:0:
204,244,228820,1,8,0:0:0:0:
124,216,228988,1,2,0:0:0:0:
100,132,229157,2,0,B|94:69|150:42|150:42,1,100,8|2,0:0|0:0,0:0:0:0:
145,232,229831,5,0,0:0:0:0:
256,320,229999,1,2,0:0:0:0:
367,232,230168,2,0,B|379:172|439:164|439:164,1,100,8|8,0:0|0:0,0:0:0:0:
145,232,230842,2,0,B|129:172|73:164|73:164,1,100,2|2,0:0|0:0,0:0:0:0:
48,84,231348,1,2,0:0:0:0:
48,84,231432,1,2,0:0:0:0:
48,84,231516,1,8,0:0:0:0:
132,100,231685,1,2,0:0:0:0:
200,152,231853,6,0,B|249:179|241:243|241:243,1,100,8|2,0:0|0:0,0:0:0:0:
241,237,232359,1,8,0:0:0:0:
370,200,232528,1,2,0:0:0:0:
468,303,232696,1,2,0:0:0:0:
331,349,232865,5,4,0:0:0:0:
412,135,233202,1,4,0:0:0:0:
357,279,233539,1,2,0:0:0:0:
333,271,233623,1,0,0:0:0:0:
308,276,233707,1,2,0:0:0:0:
288,291,233792,1,2,0:0:0:0:
264,298,233876,1,4,0:3:0:0:
194,250,234044,1,2,0:0:0:0:
168,250,234129,1,2,0:0:0:0:
146,236,234213,5,12,0:0:0:0:
82,22,234550,1,4,0:0:0:0:
77,194,234887,1,4,0:3:0:0:
93,175,234971,1,0,0:0:0:0:
116,164,235056,1,8,0:0:0:0:
140,159,235140,1,8,0:0:0:0:
164,160,235224,1,8,0:0:0:0:
245,186,235393,1,2,0:0:0:0:
334,266,235561,5,4,0:0:0:0:
286,71,235898,1,8,0:0:0:0:
138,201,236235,1,2,0:0:0:0:
253,181,236572,1,8,0:0:0:0:
205,244,236910,6,0,B|210:275|220:292|220:292|246:283|269:252|269:252|301:269|335:266|335:266|333:228|316:201|316:201|342:191|373:158|373:158|337:134|304:132|304:132|302:99|288:64|288:64|258:87|236:112|236:112|206:99|168:92|168:92|174:135|186:161|186:161|158:179|136:200|136:200|164:221|209:218,1,800,4|6,0:0|0:0,0:0:0:0:
186,217,240955,6,0,L|172:248,2,20,8|0|0,0:0|0:0|0:0,0:0:0:0:
233,273,241292,1,8,0:0:0:0:
248,344,241460,1,0,0:0:0:0:
304,252,241629,5,2,0:0:0:0:
404,220,241797,1,0,0:0:0:0:
304,252,241966,1,2,0:0:0:0:
460,128,242303,5,4,0:0:0:0:
336,40,242640,2,0,L|348:88,1,40,8|0,0:0|0:0,0:0:0:0:
345,78,242977,1,2,0:0:0:0:
196,100,243314,2,0,L|184:148,1,40,8|0,0:0|0:0,0:0:0:0:
187,138,243651,1,2,0:0:0:0:
316,216,243988,2,0,L|328:264,1,40,8|0,0:0|0:0,0:0:0:0:
325,254,244325,1,2,0:0:0:0:
344,328,244494,1,0,0:0:0:0:
400,276,244662,1,2,0:0:0:0:
256,324,244999,6,0,P|224:340|168:340,1,80,8|0,0:0|0:0,0:0:0:0:
72,248,245505,1,0,0:0:0:0:
72,248,245674,2,0,P|104:264|160:264,1,80,6|4,0:0|0:3,0:0:0:0:
188,204,246179,1,2,0:0:0:0:
188,204,246263,1,2,0:0:0:0:
188,204,246348,1,8,0:0:0:0:
320,152,246685,5,4,0:3:0:0:
368,212,246853,1,4,0:3:0:0:
440,188,247022,1,2,0:0:0:0:
436,112,247190,1,2,0:0:0:0:
364,92,247359,2,0,P|372:132|400:180,1,80,8|4,0:0|0:0,0:0:0:0:
