osu file format v13

[General]
AudioFilename: usa_souzou_highres.mp3
AudioLeadIn: 0
PreviewTime: -1
Countdown: 1
SampleSet: Soft
StackLeniency: 0.7
Mode: 0
LetterboxInBreaks: 1
WidescreenStoryboard: 0

[Editor]
DistanceSpacing: 0.8
BeatDivisor: 2
GridSize: 16
TimelineZoom: 1.7

[Metadata]
Title:Souzou Forest
TitleUnicode:想像フォレスト
Artist:Usa
ArtistUnicode:うさ
Creator:AcidSnow1
Version:souzou
Source:Jin (Shizen no Teki P)
Tags:utattemita kagerou project vocaloid vocaloid3 ia nico nico douga niconicodouga niconico nicovideo imagination
BeatmapID:414419
BeatmapSetID:171296

[Difficulty]
HPDrainRate:6
CircleSize:5
OverallDifficulty:6
ApproachRate:6
SliderMultiplier:2
SliderTickRate:2

[Events]
//Background and Video events
0,0,"306937.jpg",0,0
//Break Periods
2,53442,61858
//Storyboard Layer 0 (Background)
//Storyboard Layer 1 (Fail)
//Storyboard Layer 2 (Pass)
//Storyboard Layer 3 (Foreground)
//Storyboard Sound Samples
//Background Colour Transformations
3,100,255,128,204

[TimingPoints]
1409,333.333333333333,4,2,0,100,1,0

[HitObjects]
160,96,1254,5,0,0:0:0:0:
224,96,1409,2,0,L|336:96,2,100
224,160,1908,2,0,B|304:160|320:224|416:144,2,200
160,208,2908,2,0,L|32:208,2,100,0|0|2,0:0|0:0|0:0,0:0:0:0:
256,208,3575,5,0,0:0:0:0:
256,208,3742,1,0,0:0:0:0:
256,208,3908,1,0,0:0:0:0:
352,208,4408,2,0,L|352:320,2,100
416,208,4908,2,0,L|416:80,1,100
400,80,5242,1,2,0:0:0:0:
256,80,6242,6,0,L|128:80,3,100
128,160,7075,1,0,0:0:0:0:
144,208,7242,1,0,0:0:0:0:
176,256,7408,1,0,0:0:0:0:
224,288,7575,2,0,L|336:288,1,100
432,256,8075,2,0,L|432:144,2,100
368,256,8575,1,0,0:0:0:0:
368,192,8742,2,0,L|256:192,1,100
208,128,9075,2,0,L|336:128,1,100
256,192,9408,12,2,11408,0:0:0:0:
256,192,11908,5,0,0:0:0:0:
304,144,12075,2,0,L|304:288,2,100
240,128,12575,2,0,B|173:126|112:192|112:256,2,200
192,208,13575,1,0,0:0:0:0:
176,256,13742,1,0,0:0:0:0:
128,288,13908,1,2,0:0:0:0:
272,208,14242,5,0,0:0:0:0:
288,256,14408,1,2,0:0:0:0:
336,288,14575,1,0,0:0:0:0:
384,288,14742,2,0,B|384:160|416:144|336:112,1,200
304,112,15242,1,0,0:0:0:0:
240,112,15408,2,0,L|128:112,3,100
144,176,16242,1,0,0:0:0:0:
192,208,16408,1,0,0:0:0:0:
144,224,16575,1,2,0:0:0:0:
336,176,16908,5,0,0:0:0:0:
288,208,17075,1,2,0:0:0:0:
336,224,17242,1,0,0:0:0:0:
288,256,17408,2,0,P|176:272|96:240,1,200
112,192,17908,1,0,0:0:0:0:
80,144,18075,2,0,B|128:112|188:95|272:80,1,200
304,112,18575,1,0,0:0:0:0:
384,160,18908,2,0,L|384:272,2,100
320,192,19408,2,0,L|320:304,2,100
256,224,19908,1,0,0:0:0:0:
256,192,20075,12,4,22408,0:0:0:0:
160,192,22575,5,0,0:0:0:0:
192,192,22742,2,0,L|320:192,2,100
176,144,23242,2,0,L|384:144,2,200
160,224,24242,1,0,0:0:0:0:
160,224,24408,1,0,0:0:0:0:
160,224,24575,1,8,0:0:0:0:
240,192,24908,5,0,0:0:0:0:
240,256,25075,1,8,0:0:0:0:
304,256,25242,1,0,0:0:0:0:
304,192,25408,2,0,L|416:192,2,100
272,144,25908,1,0,0:0:0:0:
208,144,26075,2,0,B|112:176|160:144|160:208,1,100
176,256,26408,2,0,L|288:304,1,100
336,304,26742,2,2,P|336:242|304:96,2,200
288,304,27575,5,0,0:0:0:0:
288,304,27742,1,8,0:0:0:0:
288,304,27908,1,0,0:0:0:0:
256,304,28075,2,0,B|198:291|112:256|96:192,1,200
96,176,28575,1,0,0:0:0:0:
128,128,28742,1,0,0:0:0:0:
128,128,28908,1,0,0:0:0:0:
128,128,29075,1,8,0:0:0:0:
128,128,29242,2,2,L|256:128,2,100
176,192,29742,2,2,L|48:192,2,100
128,256,30242,2,2,L|240:256,2,100
256,192,30742,12,4,32408,0:0:0:0:
144,160,32742,5,0,0:0:0:0:
208,112,32908,1,8,0:0:0:0:
288,112,33075,1,8,0:0:0:0:
352,160,33242,1,0,0:0:0:0:
352,240,33408,2,0,L|352:352,2,100
416,288,33908,2,0,L|208:288,1,200
144,272,34408,1,0,0:0:0:0:
80,240,34575,2,2,B|48:176|80:112|160:80,1,200
208,128,35075,1,0,0:0:0:0:
256,80,35242,1,2,0:0:0:0:
352,96,35575,5,0,0:0:0:0:
384,160,35741,1,2,0:0:0:0:
320,160,35908,1,0,0:0:0:0:
256,160,36075,2,0,B|256:224|304:224|304:272|400:272,1,200
400,208,36575,1,0,0:0:0:0:
400,144,36742,2,0,L|256:144,3,100
240,96,37408,2,0,L|144:144,1,100
112,96,37741,2,0,L|144:192,1,100
112,240,38075,2,0,L|224:192,1,100
240,240,38408,2,0,L|208:128,1,100
288,176,38742,6,0,L|400:176,2,100
224,176,39242,1,0,0:0:0:0:
160,176,39408,2,2,L|32:176,2,100
224,176,39908,1,2,0:0:0:0:
288,80,40242,1,0,0:0:0:0:
288,80,40409,1,0,0:0:0:0:
288,80,40575,2,0,L|352:160,1,100
352,160,40908,1,0,0:0:0:0:
352,160,41075,1,0,0:0:0:0:
352,160,41242,1,2,0:0:0:0:
352,224,41408,6,2,P|286:223|176:128,1,200,0|0,0:0|0:0,0:0:0:0:
272,144,42075,2,0,P|192:240|96:240,1,200,0|0,0:0|0:0,0:0:0:0:
128,176,42742,2,0,B|128:64|144:96|288:80,1,200
336,80,43408,2,2,B|384:176|304:192|336:288,1,200,0|0,0:0|0:0,0:0:0:0:
384,240,44075,5,0,0:0:0:0:
352,192,44242,1,0,0:0:0:0:
320,240,44408,1,0,0:0:0:0:
288,192,44575,1,0,0:0:0:0:
256,240,44742,1,0,0:0:0:0:
224,192,44908,1,0,0:0:0:0:
192,240,45075,1,0,0:0:0:0:
160,192,45242,1,0,0:0:0:0:
128,240,45408,1,0,0:0:0:0:
96,192,45575,1,0,0:0:0:0:
128,144,45742,1,0,0:0:0:0:
176,144,45908,1,0,0:0:0:0:
224,144,46075,1,0,0:0:0:0:
272,144,46242,1,2,0:0:0:0:
320,144,46408,1,2,0:0:0:0:
368,144,46575,1,2,0:0:0:0:
416,144,46742,6,0,L|416:256,2,100,0|0|0,0:0|0:0|0:0,0:0:0:0:
368,112,47242,1,0,0:0:0:0:
320,144,47408,1,0,0:0:0:0:
272,112,47575,1,0,0:0:0:0:
224,144,47742,1,0,0:0:0:0:
176,112,47908,1,0,0:0:0:0:
128,144,48075,1,0,0:0:0:0:
80,112,48242,1,0,0:0:0:0:
80,176,48408,1,0,0:0:0:0:
128,208,48575,1,0,0:0:0:0:
176,176,48742,1,0,0:0:0:0:
224,208,48908,1,2,0:0:0:0:
272,176,49075,1,2,0:0:0:0:
320,208,49242,1,2,0:0:0:0:
368,176,49408,6,0,B|432:176|432:176|464:240|368:272,1,200
320,256,49908,1,0,0:0:0:0:
272,272,50075,2,0,L|128:272,2,100,0|0|0,0:0|0:0|0:0,0:0:0:0:
224,240,50575,1,0,0:0:0:0:
272,208,50742,2,2,L|272:96,1,100
336,64,51075,2,2,L|336:176,1,100,2|2,0:0|0:0,0:0:0:0:
272,128,51408,2,0,L|272:16,1,100,2|2,0:0|0:0,0:0:0:0:
208,96,51742,2,0,L|208:208,1,100,2|2,0:0|0:0,0:0:0:0:
256,192,52075,12,0,53242,0:0:0:0:
256,192,62908,12,0,64408,0:0:0:0:
256,192,64908,5,0,0:0:0:0:
256,192,64992,1,0,0:0:0:0:
256,192,65075,1,0,0:0:0:0:
