osu file format v11

[General]
AudioFilename: _ ShiningSTREAM Halozy.mp3
AudioLeadIn: 0
PreviewTime: 77850
Countdown: 0
SampleSet: Soft
StackLeniency: 0.7
Mode: 0
LetterboxInBreaks: 1

[Editor]
Bookmarks: 12818
DistanceSpacing: 1
BeatDivisor: 2
GridSize: 4

[Metadata]
Title:Shining/STREAM
TitleUnicode:Shining/STREAM
Artist:Usa
ArtistUnicode:Usa
Creator:HelloSCV
Version:Normal
Source:Touhou
Tags:Sumijun Tonic Triangle Halozy Night Sakura of Dead Spirits Ten Desires eurobeat
BeatmapID:195947
BeatmapSetID:67444

[Difficulty]
HPDrainRate:3
CircleSize:3
OverallDifficulty:3
ApproachRate:4
SliderMultiplier:1
SliderTickRate:1

[Events]
//Background and Video events
0,0,"background.jpg"
//Break Periods
2,102842,113710
2,178713,191129
//Storyboard Layer 0 (Background)
//Storyboard Layer 1 (Fail)
//Storyboard Layer 2 (Pass)
//Storyboard Layer 3 (Foreground)
//Storyboard Sound Samples
//Background Colour Transformations
3,100,163,162,255

[TimingPoints]
450,387.096774193548,4,2,0,70,1,0
26773,-100,4,2,1,80,0,1
39159,-100,4,2,0,80,0,0
63933,-100,4,2,0,80,0,1
64030,-100,4,2,0,80,0,0
77869,-100,4,2,1,80,0,1
90159,-100,4,2,1,80,0,0
90256,-100,4,2,1,80,0,1
102643,-100,4,2,0,80,0,0
115030,-100,4,2,0,50,0,0
127417,-100,4,2,0,70,0,0
139804,-100,4,2,0,70,0,1
139901,-100,4,2,0,70,0,0
153740,-100,4,2,1,80,0,1
166030,-100,4,2,1,80,0,0
166127,-100,4,2,1,80,0,1
178514,-100,4,2,0,80,0,0
192449,-100,4,2,0,50,0,0
194966,-100,4,2,0,30,0,0
198643,-100,4,2,0,60,0,0
201159,-100,4,2,0,30,0,0
204837,-100,4,2,0,70,0,0
207353,-100,4,2,0,50,0,0
215675,-100,4,2,0,40,0,0
217224,-100,4,2,1,70,0,1
229514,-100,4,2,1,70,0,0
229611,-100,4,2,1,70,0,1
241998,-100,4,2,0,70,0,0

[Colours]
Combo1 : 255,255,255
Combo2 : 0,164,242
Combo3 : 168,226,255
Combo4 : 255,198,226
Combo5 : 255,128,192

[HitObjects]
116,264,12836,2,0,P|160:296|212:296|212:296,1,100,4|2,0:0|0:0,0:0:0
308,296,13610,2,0,P|305:296|357:296|401:264,1,100,0|2,0:0|0:0,0:0:0
472,192,14384,2,0,P|484:88|404:36,1,200
316,40,15546,1,2,0:0:0
372,124,15933,6,0,P|328:152|304:204|304:204,1,100,0|2,0:0|0:0,0:0:0
208,200,16708,2,0,P|211:206|187:154|143:126,1,100,0|2,0:0|0:0,0:0:0
44,116,17481,1,0,0:0:0
8,208,17868,1,2,0:0:0
20,308,18256,2,0,P|40:368,2,50,0|4|0,0:0|0:0|0:0,0:0:0
112,272,19030,6,0,P|156:296|216:296,1,100,4|2,0:0|0:0,0:0:0
304,300,19804,2,0,P|352:297|396:273,1,100,0|2,0:0|0:0,0:0:0
428,176,20578,2,0,P|416:128|432:80,1,100,0|2,0:0|0:0,0:0:0
332,64,21352,2,0,P|284:40,2,50,0|0|2,0:0|0:0|0:0,0:0:0
264,136,22126,6,0,P|216:124|160:128,1,100,0|2,0:0|0:0,0:0:0
192,224,22901,2,0,P|141:226|93:214,1,100,0|2,0:0|0:0,0:0:0
52,188,23481,1,4,0:0:0
72,92,23868,2,0,P|127:37|197:41,1,150,4|4,0:0|0:0,0:0:0
288,76,24837,1,0,0:0:0
356,148,25224,1,2,0:0:0
124,80,26772,6,0,P|168:100|196:144,1,100,4|10,0:0|0:0,0:0:0
196,244,27546,2,0,P|168:286|124:306,1,100,0|10,0:0|0:0,0:0:0
204,368,28320,2,0,P|256:352|304:368|304:368,1,100,0|10,0:0|0:0,0:0:0
404,360,29094,1,0,0:0:0
352,272,29481,6,0,P|328:168|400:108,1,200,10|10,0:0|0:0,0:0:0
484,80,30643,1,0,0:0:0
400,24,31030,1,10,0:0:0
300,24,31417,2,0,P|296:76|264:112,1,100,0|10,0:0|0:0,0:0:0
204,188,32191,2,0,P|174:154|170:102,1,100,0|10,0:0|0:0,0:0:0
80,56,32965,6,0,P|44:92|32:148|32:148,1,100,4|10,0:0|0:0,0:0:0
32,244,33739,2,0,P|30:239|42:295|78:331,1,100,0|10,0:0|0:0,0:0:0
176,312,34513,2,0,P|216:280|268:276,1,100,0|10,0:0|0:0,0:0:0
356,308,35288,1,0,0:0:0
448,268,35675,6,0,P|524:188|500:88,1,200,10|10,0:0|0:0,0:0:0
416,80,36836,2,0,P|368:112|316:84|316:84,1,100,0|10,0:0|0:0,0:0:0
272,88,37417,2,0,P|232:124|216:172,1,100,4|0,0:0|0:0,0:0:0
316,176,38191,2,0,P|360:248|364:324,1,150,4|0,0:0|0:0,0:0:0
276,360,39159,6,0,P|176:324|128:240,1,200,4|0,0:0|0:0,0:0:0
116,148,40320,1,2,0:0:0
148,52,40708,2,0,P|187:23|242:28,2,100,0|2|0,0:0|0:0|0:0,0:0:0
220,120,41869,1,2,0:0:0
320,132,42255,6,0,P|352:236|292:304,1,200,0|0,0:0|0:0,0:0:0
216,352,43417,1,2,0:0:0
192,256,43804,2,0,P|148:240|92:252,1,100,0|2,0:0|0:0,0:0:0
56,340,44578,2,0,P|0:284|12:212,1,150
16,168,45352,6,0,P|112:136|120:48,1,200,0|0,0:0|0:0,0:0:0
220,60,46513,1,2,0:0:0
320,56,46901,2,0,P|372:40|420:60,2,100,0|2|0,0:0|0:0|0:0,0:0:0
372,144,48062,1,2,0:0:0
444,216,48449,6,0,P|480:308|408:376,1,200
320,348,49610,1,2,0:0:0
240,292,49997,2,0,P|204:256|144:248,2,100,0|2|0,0:0|0:0|0:0,0:0:0
440,272,51546,6,0,P|424:212|460:172|484:136|468:72,1,200,4|0,0:0|0:0,0:0:0
380,36,52707,1,2,0:0:0
356,132,53095,2,0,P|332:176|324:232,2,100,0|2|0,0:0|0:0|0:0,0:0:0
260,112,54256,1,2,0:0:0
168,148,54642,6,0,P|76:192|60:284,1,200,0|0,0:0|0:0,0:0:0
104,372,55804,1,2,0:0:0
192,324,56191,2,0,P|236:300|284:304,1,100,0|2,0:0|0:0,0:0:0
384,308,56965,2,0,P|460:272|460:192,1,150
440,172,57739,6,0,P|324:164|276:96,1,200
196,44,58901,1,2,0:0:0
96,56,59288,2,0,P|48:76|24:124,2,100,0|2|0,0:0|0:0|0:0,0:0:0
124,152,60449,5,2,0:0:0
148,248,60836,2,0,P|188:312|264:312,2,150
180,152,62384,2,0,P|216:176|236:228,2,100,4|4|4,0:0|0:0|0:0,0:0:0
352,48,63933,5,4,0:0:0
400,136,64320,2,0,P|352:160|300:164,1,100,2|0,0:0|0:0,0:0:0
208,164,65094,2,0,P|162:159|114:135,1,100,2|0,0:0|0:0,0:0:0
36,196,65868,2,0,P|-4:300,1,100,2|0,0:0|0:0,0:0:0
36,384,66642,1,2,0:0:0
76,352,66836,6,0,P|144:320|236:308,1,150,0|2,0:0|0:0,0:0:0
316,312,67804,1,0,0:0:0
408,352,68191,1,2,0:0:0
448,260,68579,2,0,P|468:208|504:172,2,100,4|4|4,0:0|0:0|0:0,0:0:0
376,72,70126,5,4,0:0:0
280,92,70513,2,0,P|230:112|201:154,1,100,2|0,0:0|0:0,0:0:0
290,195,71288,2,0,P|261:231|212:252,1,100,2|0,0:0|0:0,0:0:0
112,260,72062,1,2,0:0:0
116,160,72449,2,0,P|116:108|96:64,1,100,0|2,0:0|0:0,0:0:0
132,28,73030,6,0,P|196:28|256:88,1,150,0|2,0:0|0:0,0:0:0
344,132,73997,2,0,P|387:106|407:62,1,100,0|2,0:0|0:0,0:0:0
484,124,74772,2,0,P|484:172|516:236,2,100,4|4|4,0:0|0:0|0:0,0:0:0
384,136,75933,1,0,0:0:0
296,88,76320,1,2,0:0:0
112,84,77868,6,0,P|160:104|186:142,1,100,4|10,0:0|0:0,0:0:0
188,244,78642,2,0,P|162:283|114:303,1,100,0|10,0:0|0:0,0:0:0
16,280,79417,1,0,0:0:0
48,376,79804,1,10,0:0:0
148,384,80191,1,0,0:0:0
240,344,80579,6,0,P|340:308|436:336,1,200,10|10,0:0|0:0,0:0:0
484,248,81739,2,0,P|512:200|512:144|512:144,1,100,0|10,0:0|0:0,0:0:0
428,96,82513,2,0,P|360:88,1,50,0|2,0:0|0:0,0:0:0
280,84,83094,1,2,0:0:0
32,92,84062,6,0,P|64:132|112:148,1,100,4|10,0:0|0:0,0:0:0
104,248,84836,2,0,P|60:264|28:304,1,100,0|10,0:0|0:0,0:0:0
124,336,85610,2,0,P|232:352|324:316,1,200
396,260,86772,5,10,0:0:0
400,160,87159,2,0,P|380:112|388:56,1,100,0|10,0:0|0:0,0:0:0
288,44,87933,2,0,P|241:47|197:75,1,100,0|10,0:0|0:0,0:0:0
188,176,88707,2,0,P|160:288|72:340,1,200
292,372,90255,6,0,P|336:340|356:292,1,100,4|10,0:0|0:0,0:0:0
256,276,91030,2,0,P|274:235|318:203,1,100,0|10,0:0|0:0,0:0:0
416,176,91804,2,0,P|488:128|472:20,1,200
376,24,92965,5,10,0:0:0
324,112,93352,2,0,P|280:88|220:88,1,100,0|10,0:0|0:0,0:0:0
136,120,94127,2,0,P|108:164|104:216,1,100,0|10,0:0|0:0,0:0:0
200,236,94901,2,0,P|172:284,1,50,0|2,0:0|0:0,0:0:0
128,368,95481,1,2,0:0:0
376,324,96449,6,0,P|416:288|424:236,1,100,4|10,0:0|0:0,0:0:0
425,144,97223,2,0,P|385:108|375:64,1,100,0|10,0:0|0:0,0:0:0
276,76,97997,2,0,P|212:152|104:136,1,200
20,124,99159,5,10,0:0:0
68,212,99546,2,0,P|79:258|63:306,1,100,0|10,0:0|0:0,0:0:0
148,360,100320,2,0,P|192:344|244:356,1,100,0|10,0:0|0:0,0:0:0
344,360,101095,2,0,P|460:336|480:256,1,200,4|0,0:0|0:0,0:0:0
456,172,102255,1,2,0:0:0
392,96,102642,1,6,0:0:0
256,288,115030,6,0,P|240:232|268:200|256:136,1,150,4|0,0:0|0:0,0:0:0
172,136,117739,5,2,0:0:0
184,236,118126,2,0,P|212:300|288:332,1,150,2|2,0:0|0:0,0:0:0
484,324,119481,1,0,0:0:0
456,132,120449,6,0,P|408:148|356:136,1,100,0|2,0:0|0:0,0:0:0
384,40,121223,2,0,P|312:36|256:104,1,150,2|2,0:0|0:0,0:0:0
360,256,123933,5,2,0:0:0
280,316,124320,2,0,P|212:340|136:316,2,150,2|2|2,0:0|0:0|0:0,0:0:0
208,248,125868,2,0,P|252:212|292:213,2,100,0|2|0,0:0|0:0|0:0,0:0:0
92,84,127417,6,0,P|180:120|276:84,1,200,4|0,0:0|0:0,0:0:0
372,64,128578,1,2,0:0:0
444,132,128965,2,0,P|472:92|468:40,2,100,0|2|0,0:0|0:0|0:0,0:0:0
360,184,130126,5,2,0:0:0
260,196,130513,2,0,P|196:224|164:344,1,200,0|0,0:0|0:0,0:0:0
72,380,131675,1,2,0:0:0
52,284,132062,2,0,P|76:240|64:184,1,100,0|2,0:0|0:0,0:0:0
148,132,132836,6,0,P|104:104|84:56,1,100,0|2,0:0|0:0,0:0:0
184,44,133610,2,0,P|288:40|340:120,1,200
332,212,134772,1,2,0:0:0
240,252,135159,2,0,P|268:292|316:308,2,100,0|2|0,0:0|0:0|0:0,0:0:0
172,176,136320,5,2,0:0:0
108,100,136707,2,0,P|76:44|-4:36,2,150
84,196,138255,2,0,P|108:240|160:260,2,100,4|4|4,0:0|0:0|0:0,0:0:0
256,80,139804,5,4,0:0:0
348,124,140191,2,0,P|396:140|444:140,1,100,2|0,0:0|0:0,0:0:0
440,240,140965,2,0,P|392:240|344:256,1,100,2|0,0:0|0:0,0:0:0
252,296,141739,2,0,P|148:276|92:184,1,200,2|2,0:0|0:0,0:0:0
92,152,142708,5,0,0:0:0
108,52,143095,2,0,P|152:28,2,50,0|2|0,0:0|0:0|0:0,0:0:0
60,68,143675,2,0,P|16:96|0:148,1,100,0|2,0:0|0:0,0:0:0
12,240,144449,2,0,P|36:288|28:340,2,100,4|4|4,0:0|0:0|0:0,0:0:0
184,344,145997,5,4,0:0:0
284,336,146384,2,0,P|332:312|360:264,1,100,2|0,0:0|0:0,0:0:0
272,220,147159,2,0,P|296:182|344:158,1,100,2|0,0:0|0:0,0:0:0
436,120,147933,1,2,0:0:0
360,60,148320,2,0,P|248:52,1,100,0|2,0:0|0:0,0:0:0
212,56,148901,6,0,P|164:68|92:156,1,150,0|2,0:0|0:0,0:0:0
64,232,149868,2,0,P|56:284|20:316,1,100,0|2,0:0|0:0,0:0:0
120,336,150642,2,0,P|168:356|216:352,2,100,4|4|4,0:0|0:0|0:0,0:0:0
160,244,151804,1,0,0:0:0
240,188,152191,1,2,0:0:0
344,224,153739,6,0,P|336:272|304:312,1,100,4|10,0:0|0:0,0:0:0
204,311,154513,2,0,P|172:271|164:223,1,100,0|10,0:0|0:0,0:0:0
144,124,155288,1,0,0:0:0
192,36,155675,1,10,0:0:0
280,80,156062,6,0,P|380:96|460:44,1,200
508,132,157223,1,10,0:0:0
416,172,157610,2,0,P|380:204|372:260,1,100,0|10,0:0|0:0,0:0:0
464,292,158384,2,0,P|416:324,1,50,0|2,0:0|0:0,0:0:0
332,368,158965,1,2,0:0:0
88,316,159933,6,0,P|48:288|32:236,1,100,4|10,0:0|0:0,0:0:0
32,140,160707,2,0,P|48:94|88:66,1,100,0|10,0:0|0:0,0:0:0
124,160,161481,2,0,P|240:188|296:120,1,200
368,76,162642,5,10,0:0:0
460,116,163030,2,0,P|420:152|400:204,1,100,0|10,0:0|0:0,0:0:0
496,220,163804,2,0,P|477:261|437:297,1,100,0|10,0:0|0:0,0:0:0
340,316,164578,2,0,P|240:300|140:316,1,200,0|0,0:0|0:0,0:0:0
4,172,166126,6,0,P|52:156|84:116,1,100,4|10,0:0|0:0,0:0:0
20,40,166901,2,0,P|128:32,1,100,0|10,0:0|0:0,0:0:0
220,28,167675,2,0,P|328:48|380:144,1,200
388,216,168836,5,10,0:0:0
372,316,169223,2,0,P|324:313|284:281,1,100,0|10,0:0|0:0,0:0:0
204,224,169997,2,0,P|164:192|117:189,1,100,0|10,0:0|0:0,0:0:0
16,188,170772,2,0,P|40:136,1,50,0|2,0:0|0:0,0:0:0
76,48,171352,1,2,0:0:0
324,56,172320,6,0,P|360:96|368:148,1,100,4|10,0:0|0:0,0:0:0
368,240,173094,2,0,P|360:285|324:325,1,100,0|10,0:0|0:0,0:0:0
264,248,173868,2,0,P|164:244|116:152,1,200
124,64,175030,5,10,0:0:0
212,108,175417,2,0,P|260:120|312:104,1,100,0|10,0:0|0:0,0:0:0
404,76,176191,2,0,P|451:62|499:74,1,100,0|10,0:0|0:0,0:0:0
452,164,176965,2,0,P|408:212|440:256|480:296|440:360,1,200,4|0,0:0|0:0,0:0:0
348,380,178126,1,2,0:0:0
256,340,178513,1,6,0:0:0
136,288,192449,6,0,P|176:324|228:324,1,100,4|2,0:0|0:0,0:0:0
308,276,193223,2,0,P|268:240|216:240,1,100,0|2,0:0|0:0,0:0:0
132,204,193997,2,0,P|44:156|24:44,1,200
64,44,194965,6,0,P|116:60|160:44,1,100,2|2,0:0|0:0,0:0:0
308,64,195933,2,0,P|356:84|384:128,2,100,2|2|2,0:0|0:0|0:0,0:0:0
304,164,197094,2,0,P|296:236|336:312,2,150,2|2|0,0:0|0:0|0:0,0:0:0
208,132,198642,6,0,P|160:144|136:188,1,100,0|2,0:0|0:0,0:0:0
148,284,199417,2,0,P|196:272|220:228,1,100,0|2,0:0|0:0,0:0:0
300,172,200191,2,0,P|388:112|492:144,1,200
480,180,201159,6,0,P|484:228|528:288,1,100,2|2,0:0|0:0,0:0:0
396,368,202126,2,0,P|344:372|304:348,2,100,2|2|2,0:0|0:0|0:0,0:0:0
360,272,203288,2,0,P|324:200|336:132,2,150,2|2|0,0:0|0:0|0:0,0:0:0
428,200,204836,6,0,P|448:152|452:100,1,100,4|2,0:0|0:0,0:0:0
380,36,205611,2,0,P|328:44,1,50,0|2,0:0|0:0,0:0:0
236,72,206192,2,0,P|216:180|132:208,1,200,2|2,0:0|0:0,0:0:0
48,240,207352,6,0,P|9:275|5:320,1,100,2|2,0:0|0:0,0:3:0
152,348,208320,2,0,P|204:348|248:376,2,100,2|2|2,0:0|0:0|0:0,0:0:0
152,248,209481,2,0,P|200:180|192:112,2,150,2|2|0,0:0|0:0|0:0,0:0:0
256,192,211030,12,4,215675,0:0:0
156,244,217223,6,0,P|188:284|208:328,1,100,4|10,0:0|0:0,0:0:0
308,328,217997,2,4,P|328:284|360:244,1,100,0|10,0:0|0:0,0:0:0
444,188,218772,1,0,0:0:0
500,104,219159,1,10,0:0:0
400,96,219546,5,10,0:0:0
300,92,219933,2,0,P|200:100|130:36,1,200,10|10,0:0|0:0,0:0:0
52,96,221094,2,0,P|12:132|0:184,1,100,0|10,0:0|0:0,0:0:0
16,276,221868,2,0,P|36:324,1,50,0|2,0:0|0:0,0:0:0
128,352,222449,1,2,0:0:0
376,328,223417,6,0,P|408:288|424:236,1,100,4|10,0:0|0:0,0:0:0
424,144,224191,2,0,P|408:98|376:58,1,100,0|10,0:0|0:0,0:0:0
328,148,224965,2,0,P|244:212|165:179,1,200
92,112,226126,5,10,0:0:0
24,184,226513,2,0,P|72:200|104:236,1,100,0|10,0:0|0:0,0:0:0
140,328,227288,2,0,P|172:368|219:378,1,100,0|10,0:0|0:0,0:0:0
292,308,228062,2,0,P|356:236|468:232,1,200
348,60,229610,6,0,P|316:92|256:100,1,100,4|10,0:0|0:0,0:0:0
164,120,230384,2,0,P|111:129|79:161,1,100,0|10,0:0|0:0,0:0:0
160,216,231159,2,0,P|144:304|232:360,1,200
328,360,232320,5,10,0:0:0
420,320,232707,2,0,P|460:288|484:240,1,100,0|10,0:0|0:0,0:0:0
484,144,233481,2,0,P|462:102|422:70,1,100,0|10,0:0|0:0,0:0:0
320,68,234255,2,0,P|248:64,1,50,0|2,0:0|0:0,0:0:0
168,64,234836,1,2,0:0:0
132,312,235804,6,0,P|176:324|208:368,1,100,4|10,0:0|0:0,0:0:0
308,364,236578,2,0,P|339:321|383:309,1,100,0|10,0:0|0:0,0:0:0
456,240,237352,2,0,P|504:148|464:68,1,200
364,52,238513,5,10,0:0:0
264,72,238901,2,0,P|216:88|180:124,1,100,4|10,0:0|0:0,0:0:0
256,188,239675,2,0,P|224:224|173:236,1,100,4|10,0:0|0:0,0:0:0
92,180,240449,2,0,P|88:284|164:336,1,200,4|0,0:0|0:0,0:0:0
260,332,241610,1,2,0:0:0
348,284,241997,1,6,0:0:0
