osu file format v11

[General]
AudioFilename: _ ShiningSTREAM Halozy.mp3
AudioLeadIn: 0
PreviewTime: 77850
Countdown: 0
SampleSet: Soft
StackLeniency: 0.7
Mode: 0
LetterboxInBreaks: 1

[Editor]
Bookmarks: 12818
DistanceSpacing: 1.1
BeatDivisor: 4
GridSize: 4

[Metadata]
Title:Shining/STREAM
TitleUnicode:Shining/STREAM
Artist:Usa
ArtistUnicode:Usa
Creator:HelloSCV
Version:Lunatic
Source:Touhou
Tags:Sumijun Tonic Triangle Halozy Night Sakura of Dead Spirits Ten Desires eurobeat
BeatmapID:195946
BeatmapSetID:67444

[Difficulty]
HPDrainRate:7
CircleSize:4
OverallDifficulty:7
ApproachRate:8
SliderMultiplier:1.7
SliderTickRate:1

[Events]
//Background and Video events
0,0,"background.jpg"
//Break Periods
2,178713,188602
//Storyboard Layer 0 (Background)
//Storyboard Layer 1 (Fail)
//Storyboard Layer 2 (Pass)
//Storyboard Layer 3 (Foreground)
//Storyboard Sound Samples
//Background Colour Transformations
3,100,163,162,255

[TimingPoints]
450,387.096774193548,4,2,0,70,1,0
26773,-83.3333333333333,4,2,1,80,0,1
39159,-100,4,2,0,80,0,0
63933,-100,4,2,0,80,0,1
64030,-100,4,2,0,80,0,0
77869,-83.3333333333333,4,2,1,80,0,1
90159,-83.3333333333333,4,2,1,80,0,0
90256,-83.3333333333333,4,2,1,80,0,1
102643,-100,4,2,0,80,0,0
115030,-125,4,2,0,50,0,0
127417,-100,4,2,0,70,0,0
139804,-100,4,2,0,70,0,1
139901,-100,4,2,0,70,0,0
153740,-83.3333333333333,4,2,1,80,0,1
166030,-83.3333333333333,4,2,1,80,0,0
166127,-83.3333333333333,4,2,1,80,0,1
178514,-100,4,2,0,80,0,0
192449,-125,4,2,0,50,0,0
194966,-125,4,2,0,30,0,0
198643,-125,4,2,0,60,0,0
201159,-125,4,2,0,30,0,0
204837,-100,4,2,0,70,0,0
207353,-100,4,2,0,50,0,0
215675,-100,4,2,0,40,0,0
217224,-83.3333333333333,4,2,1,70,0,1
229514,-83.3333333333333,4,2,1,70,0,0
229611,-83.3333333333333,4,2,1,70,0,1
241998,-100,4,2,0,70,0,0

[Colours]
Combo1 : 255,255,255
Combo2 : 0,164,242
Combo3 : 168,226,255
Combo4 : 255,198,226
Combo5 : 255,128,192

[HitObjects]
108,116,12642,1,0,0:0:0
108,116,12739,1,0,0:0:0
108,116,12836,2,0,P|140:204|240:208|240:208,1,170,4|2,0:1|0:0,0:0:0
260,128,13416,2,0,P|360:132|392:220|392:220,1,170,0|2,0:0|0:0,0:0:0
416,300,13997,1,2,0:0:0
416,300,14094,1,0,0:0:0
416,300,14191,1,0,0:0:0
352,356,14384,6,0,P|308:348|264:356,1,85,0|0,0:0|0:0,0:0:0
260,260,14771,2,0,P|217:275|183:304,1,85,2|0,0:0|0:0,0:0:0
124,232,15158,2,0,P|95:266|80:308,1,85
12,364,15545,1,2,0:0:0
8,276,15739,5,0,0:0:0
8,276,15836,1,0,0:0:0
8,276,15933,2,0,P|44:196|48:108,1,170,0|2,0:0|0:0,0:0:0
116,80,16513,2,0,P|200:108|288:100,1,170,0|2,0:0|0:0,0:0:0
356,92,17094,1,2,0:0:0
428,68,17287,6,0,P|472:40,2,42.5
416,152,17675,1,0,0:0:0
500,152,17868,2,0,P|484:240,1,85,2|0,0:0|0:0,0:0:0
444,312,18255,1,0,0:0:0
392,384,18449,1,4,0:0:0
300,360,18642,1,2,0:0:0
300,268,18836,1,0,0:0:0
388,240,19029,6,0,P|304:176|292:100|292:100,1,170,4|2,0:0|0:0,0:0:0
216,104,19610,2,0,P|204:180|120:248|120:248,1,170,0|2,0:0|0:0,0:0:0
56,280,20191,1,2,0:0:0
60,204,20384,2,0,P|40:152,2,42.5
124,240,20771,6,0,P|200:308,1,85,0|2,0:0|0:0,0:0:0
248,224,21158,2,0,P|324:292,1,85
388,336,21545,1,0,0:0:0
468,288,21739,1,2,0:0:0
448,196,21933,1,0,0:0:0
356,184,22126,6,0,P|368:96|312:48,1,170,0|2,0:0|0:0,0:0:0
284,136,22707,2,0,P|272:224|328:272,1,170,0|2,0:0|0:0,0:0:0
420,296,23287,5,2,0:0:0
344,348,23481,2,0,P|248:352|184:300|184:300,1,170,4|4,0:0|0:0,0:0:0
184,300,24449,1,4,0:0:0
60,160,24836,5,0,0:0:0
72,164,24933,1,0,0:0:0
84,164,25029,1,0,0:0:0
96,164,25126,1,0,0:0:0
108,160,25223,5,6,0:0:0
232,96,25513,1,2,0:0:0
92,80,25804,1,2,0:0:0
196,176,26094,1,2,0:0:0
168,40,26384,1,2,0:0:0
180,32,26481,1,0,0:0:0
192,28,26578,1,0,0:0:0
204,28,26675,1,0,0:0:0
216,28,26773,6,0,P|268:36|268:36|312:72,1,101.999996887207,4|0,0:0|0:0,0:0:0
380,148,27158,1,10,0:0:0
284,204,27352,2,0,P|336:212|336:212|380:248,1,101.999996887207,0|0,0:0|0:0,0:0:0
448,324,27739,1,0,0:0:0
344,364,27933,2,0,P|296:352|296:352|256:316,1,101.999996887207,10|0,0:0|0:0,0:0:0
168,244,28320,5,0,0:0:0
32,176,28513,1,0,0:0:0
100,312,28707,1,10,0:0:0
124,160,28900,1,0,0:0:0
12,264,29094,1,0,0:0:0
124,160,29287,5,0,0:0:0
124,160,29384,1,0,0:0:0
124,160,29481,1,10,0:0:0
220,100,29675,2,0,P|312:152|392:112,1,203.999993774414
456,20,30255,1,10,0:0:0
312,64,30449,1,0,0:0:0
264,224,30642,6,0,P|316:232|364:220,1,101.999996887207
464,176,31029,1,10,0:0:0
452,288,31223,2,0,P|360:296|296:384,1,203.999993774414,4|0,0:0|0:0,0:0:0
256,296,31804,1,10,0:0:0
215,380,31997,2,4,P|152:296|60:288,1,203.999993774414,4|4,0:0|0:0,0:0:0
44,288,32481,1,0,0:0:0
32,280,32578,1,2,0:0:0
24,268,32675,1,0,0:0:0
20,252,32771,1,0,0:0:0
24,236,32868,1,0,0:0:0
36,228,32965,6,0,P|68:183|68:183|68:135,1,101.999996887207,4|0,0:0|0:0,0:0:0
68,24,33352,1,10,0:0:0
180,32,33545,2,0,P|180:80|180:80|147:124,1,101.999996887207,0|0,0:0|0:0,0:0:0
152,236,33933,1,0,0:0:0
240,164,34126,2,0,P|308:80,1,101.999996887207,10|0,0:0|0:0,0:0:0
408,40,34513,5,0,0:0:0
408,192,34707,1,0,0:0:0
496,68,34900,1,10,0:0:0
352,120,35094,1,0,0:0:0
500,160,35287,5,0,0:0:0
500,160,35384,1,0,0:0:0
500,160,35481,1,0,0:0:0
484,272,35675,1,10,0:0:0
384,320,35868,2,0,P|280:320|216:240,1,203.999993774414
208,136,36449,1,10,0:0:0
320,240,36642,1,0,0:0:0
236,384,36836,6,0,P|189:351|164:312,1,101.999996887207
120,212,37223,1,10,0:0:0
44,128,37416,2,0,P|148:124|216:36,1,203.999993774414,4|0,0:0|0:0,0:0:0
256,136,37997,1,10,0:0:0
301,53,38191,2,0,P|364:124|468:128,1,203.999993774414,4|0,0:0|0:0,0:0:0
436,216,38771,6,0,P|400:260,1,50.9999984436036,0|0,0:0|0:0,0:0:0
328,240,38965,2,0,P|360:200,1,50.9999984436036,0|0,0:0|0:0,0:0:0
304,160,39160,6,0,P|252:236|168:248|168:248,1,170,4|2,0:0|0:0,0:0:0
184,164,39739,2,0,P|248:224|236:300,1,170
188,368,40320,1,2,0:0:0
104,368,40513,1,0,0:0:0
52,300,40707,2,0,P|40:256|52:216,1,85
126,175,41094,2,0,P|138:219|128:256,1,85,2|0,0:0|0:0,0:0:0
64,116,41481,2,0,P|108:96|148:96,1,85
228,84,41868,5,2,0:0:0
296,132,42062,1,0,0:0:0
352,68,42255,2,0,P|396:144|472:152,1,170,0|2,0:0|0:0,0:0:0
440,76,42836,2,0,P|392:148|428:224,1,170
484,276,43416,1,2,0:0:0
476,360,43610,1,0,0:0:0
396,324,43804,2,0,P|360:300|308:300,1,85
255,353,44191,2,0,P|291:377|332:380,1,85,2|0,0:0|0:0,0:0:0
188,300,44578,5,0,0:0:0
108,276,44771,1,0,0:0:0
128,192,44965,1,2,0:0:0
208,216,45158,1,0,0:0:0
292,212,45352,6,0,P|384:196|440:128|440:128,1,170,0|2,0:0|0:0,0:0:0
360,100,45933,2,0,P|368:192|452:220,1,170
508,260,46513,1,2,0:0:0
480,340,46707,1,0,0:0:0
396,340,46900,2,0,P|348:348|312:320|312:320,1,85
284,238,47287,2,0,P|280:240|330:226|366:254,1,85,2|0,0:0|0:0,0:0:0
216,284,47675,2,0,P|176:256|180:212|180:212,1,85
180,124,48062,5,2,0:0:0
248,76,48255,1,0,0:0:0
320,120,48449,2,0,P|412:128|472:68,1,170,0|2,0:0|0:0,0:0:0
388,48,49029,2,0,P|404:136|480:168,1,170
496,248,49610,2,0,P|432:312,1,85,2|0,0:0|0:0,0:0:0
356,332,49997,5,2,0:0:0
84,208,50384,1,2,0:0:0
328,36,50771,1,2,0:0:0
260,88,50965,1,2,0:0:0
336,124,51158,1,2,0:0:0
420,120,51352,5,0,0:0:0
420,120,51449,1,0,0:0:0
420,120,51545,2,0,P|468:192|444:280,1,170,4|2,0:0|0:0,0:0:0
388,212,52126,2,0,P|304:232|224:192,1,170
164,148,52707,1,2,0:0:0
140,68,52900,1,0,0:0:0
80,128,53094,2,0,P|104:212,1,85
43,305,53481,2,0,P|20:224,1,85,2|0,0:0|0:0,0:0:0
128,292,53868,2,0,P|152:376,1,85
236,364,54255,5,2,0:0:0
316,336,54449,1,0,0:0:0
308,252,54642,2,0,P|320:164|396:136,1,170,0|2,0:0|0:0,0:0:0
464,100,55223,2,0,P|452:188|376:216,1,170
308,252,55804,1,2,0:0:0
228,284,55997,2,0,P|204:196|264:112|264:112,1,170
340,96,56578,2,0,P|388:80|400:32|400:32,1,85,2|0,0:0|0:0,0:0:0
312,24,56965,5,0,0:0:0
152,84,57158,1,0,0:0:0
232,52,57352,1,2,0:0:0
76,48,57545,1,0,0:0:0
76,132,57739,6,0,P|64:220|144:272,1,170,0|2,0:0|0:0,0:0:0
144,188,58320,2,0,P|236:204|308:152|308:152,1,170
376,104,58900,1,2,0:0:0
444,52,59094,1,0,0:0:0
484,128,59287,2,0,P|468:212,1,85
368,272,59675,2,0,P|384:188,1,85,2|0,0:0|0:0,0:0:0
452,292,60062,2,0,P|436:376,1,85
352,356,60449,5,2,0:0:0
268,376,60642,1,0,0:0:0
192,340,60836,2,0,P|112:288|100:212,1,170,0|2,0:0|0:0,0:0:0
180,244,61416,2,0,P|120:304|36:296,1,170
8,220,61997,1,2,0:0:0
44,144,62191,1,0,0:0:0
128,124,62384,5,4,0:0:0
144,124,62771,1,4,0:0:0
160,124,63158,5,4,0:0:0
172,124,63255,1,0,0:0:0
184,124,63352,1,0,0:0:0
196,124,63449,1,0,0:0:0
208,124,63545,6,0,P|276:124,1,42.5,0|0,0:0|0:0,0:0:0
272,196,63739,2,0,P|229:196,1,42.5,0|0,0:0|0:0,0:0:0
156,196,63933,5,4,0:0:0
208,268,64126,2,0,P|248:288|268:328,2,85,0|2|0,0:0|0:0|0:0,0:0:0
184,348,64707,2,0,P|136:328|108:244,1,127.5
100,208,65095,1,2,0:0:0
80,116,65287,6,0,P|168:124|232:80,1,170
320,44,65868,1,2,0:0:0
408,68,66062,1,0,0:0:0
348,140,66255,2,0,P|336:196|364:260,2,127.5
348,140,67223,5,0,0:0:0
424,192,67416,1,2,0:0:0
360,260,67610,1,0,0:0:0
284,208,67804,2,0,P|200:168|128:204,1,170,0|2,0:0|0:0,0:0:0
100,380,68578,5,4,0:0:0
256,272,68965,1,4,0:0:0
412,380,69352,1,4,0:0:0
428,288,69545,2,0,P|448:184,1,85,0|2,0:0|0:0,0:0:0
456,112,69933,1,0,0:0:0
456,112,70029,1,0,0:0:0
456,112,70126,1,4,0:0:0
368,144,70320,6,0,P|360:100|380:60,2,85,0|2|0,0:0|0:0|0:0,0:0:0
276,124,70900,2,0,P|288:164|256:260,1,127.5
236,280,71287,1,2,0:0:0
152,328,71481,6,0,P|124:244|152:168,1,170
176,76,72062,1,2,0:0:0
260,36,72255,1,0,0:0:0
276,124,72449,2,0,P|304:184|368:216|368:216,2,127.5
276,124,73416,5,0,0:0:0
368,112,73610,1,2,0:0:0
440,172,73804,1,0,0:0:0
440,256,73997,2,0,P|424:324|356:360|356:360,1,127.5
256,272,74578,5,0,0:0:0
256,272,74771,1,4,0:0:0
164,108,75158,1,4,0:0:0
352,108,75545,1,4,0:0:0
352,108,76320,5,6,0:0:0
312,244,76610,1,2,0:0:0
260,112,76900,1,2,0:0:0
380,188,77191,1,2,0:0:0
240,192,77481,1,2,0:0:0
152,340,77870,6,0,P|104:320|88:264|88:264,1,101.999996887207,4|0,0:0|0:0,0:0:0
72,152,78255,1,10,0:0:0
112,48,78449,2,0,P|164:60|216:40|216:40,2,101.999996887207
184,136,79029,1,10,0:0:0
288,96,79223,6,0,P|285:192|194:225,1,203.999993774414
84,224,79804,2,0,P|48:260|44:324,1,101.999996887207,10|0,0:0|0:0,0:0:0
140,368,80191,1,0,0:0:0
248,332,80384,6,0,P|280:288|332:280|332:280,1,101.999996887207,0|10,0:0|0:0,0:0:0
404,368,80771,2,0,P|456:264|412:192,1,203.999993774414
352,104,81352,1,10,0:0:0
132,152,81739,1,0,0:0:0
284,320,82126,1,10,0:0:0
320,216,82320,1,0,0:0:0
428,180,82513,6,0,P|452:136|452:84,2,101.999996887207,0|0|10,0:0|0:0|0:0,0:0:0
332,124,83094,2,0,P|240:168|128:152|128:152,1,203.999993774414,0|4,0:0|0:0,0:0:0
112,44,83675,1,10,0:0:0
20,160,83868,1,0,0:0:0
20,160,83965,1,0,0:0:0
20,160,84062,5,4,0:0:0
146,315,84255,2,0,P|148:316|96:296|72:248,1,101.999996887207,0|10,0:0|0:0,0:0:0
220,244,84642,2,0,P|276:242|320:214|320:214,2,101.999996887207
140,180,85223,1,10,0:0:0
236,144,85416,6,0,P|340:132|416:56|416:56,1,203.999993774414
484,148,85997,1,10,0:0:0
488,284,86191,1,0,0:0:0
352,316,86384,1,0,0:0:0
157,224,86578,6,0,P|156:224|212:228|244:272,1,101.999996887207,0|10,0:0|0:0,0:0:0
124,316,86965,2,0,P|56:236|88:152,1,203.999993774414
160,104,87545,1,10,0:0:0
380,152,87933,1,0,0:0:0
228,320,88320,1,10,0:0:0
272,216,88513,1,0,0:0:0
308,108,88707,6,0,P|412:72|468:148,1,203.999993774414,0|10,0:0|0:0,0:0:0
380,152,89287,2,0,P|276:188|222:126,1,203.999993774414,0|4,0:0|0:0,0:0:0
160,32,89868,1,10,0:0:0
88,120,90062,1,0,0:0:0
88,120,90158,1,0,0:0:0
88,120,90255,6,0,P|112:168|112:224,1,101.999996887207,4|0,0:0|0:0,0:0:0
25,303,90642,2,0,P|1:255|0:208,1,101.999996887207,10|0,0:0|0:0,0:0:0
128,352,91029,1,0,0:0:0
240,360,91223,1,0,0:0:0
244,152,91416,1,10,0:0:0
264,256,91610,6,0,P|372:224|440:148|440:148,1,203.999993774414
405,68,92191,2,0,P|376:104|328:132,1,101.999996887207,10|0,0:0|0:0,0:0:0
300,28,92578,1,0,0:0:0
142,167,92771,6,0,P|172:132|220:104,1,101.999996887207,0|10,0:0|0:0,0:0:0
44,112,93158,2,0,P|36:220|100:308|100:308,1,203.999993774414
200,348,93739,1,10,0:0:0
420,164,94126,1,0,0:0:0
152,68,94513,1,10,0:0:0
164,180,94707,1,0,0:0:0
268,224,94900,5,0,0:0:0
308,120,95094,2,0,P|384:48|480:52,1,203.999993774414
496,160,95675,2,10,P|456:192|452:252|452:252,1,101.999996887207,0|4,0:0|0:0,0:0:0
456,360,96062,1,10,0:0:0
344,344,96255,1,0,0:0:0
344,344,96352,1,0,0:0:0
344,344,96449,5,4,0:0:0
260,152,96642,1,0,0:0:0
180,272,96836,1,10,0:0:0
260,153,97029,2,0,P|260:200|288:248,2,101.999996887207
400,268,97610,1,10,0:0:0
364,164,97804,6,0,P|328:76|216:56,1,203.999993774414
69,192,98384,2,0,P|72:192|124:180|152:136,1,101.999996887207,10|0,0:0|0:0,0:0:0
216,216,98771,1,0,0:0:0
224,308,98965,6,0,P|172:304|120:312,1,101.999996887207,0|10,0:0|0:0,0:0:0
336,312,99352,2,0,P|380:220|480:204,1,203.999993774414
448,312,99933,1,10,0:0:0
256,196,100320,1,0,0:0:0
64,312,100707,1,10,0:0:0
172,280,100900,1,0,0:0:0
256,196,101094,6,0,P|304:100|404:88,1,203.999993774414,0|2,0:0|0:0,0:0:0
496,120,101675,1,0,0:0:0
448,220,101868,1,0,0:0:0
432,224,101965,1,0,0:0:0
416,228,102062,1,0,0:0:0
400,232,102158,1,0,0:0:0
384,236,102255,5,0,0:0:0
376,248,102352,1,0,0:0:0
368,260,102449,1,0,0:0:0
360,272,102545,1,0,0:0:0
352,284,102644,6,0,P|272:316,1,85,4|0,0:0|0:0,0:0:0
184,348,103029,1,2,0:0:0
204,256,103223,2,0,P|124:288,1,85
20,328,103610,1,0,0:0:0
36,216,103804,1,2,0:0:0
124,288,103997,1,0,0:0:0
140,196,104191,6,0,P|148:152|148:152|181:129,1,85
305,109,104578,2,0,P|297:153|297:153|264:176,1,85,2|0,0:0|0:0,0:0:0
328,16,104965,1,0,0:0:0
416,48,105158,1,0,0:0:0
504,12,105352,1,2,0:0:0
480,104,105545,6,0,P|428:172|448:256,1,170
496,328,106126,1,2,0:0:0
412,368,106320,1,0,0:0:0
340,308,106513,2,0,P|316:272|316:220|316:220,2,85,0|0|2,0:0|0:0|0:0,0:0:0
256,352,107094,6,0,P|208:276|128:264,1,170,4|0,0:0|0:0,0:0:0
72,192,107675,1,2,0:0:0
136,124,107868,2,0,P|210:111|258:35,1,170,4|0,0:0|0:0,0:0:0
268,28,108352,1,0,0:0:0
280,24,108449,1,0,0:0:0
292,24,108545,1,0,0:0:0
304,28,108642,1,0,0:0:0
316,36,108739,1,0,0:0:0
320,48,108836,6,0,P|340:88|340:88|380:100,1,85,4|0,0:0|0:0,0:0:0
468,120,109223,1,2,0:0:0
500,208,109416,2,0,P|480:248|480:248|441:259,1,85,0|0,0:0|0:0,0:0:0
352,284,109804,1,0,0:0:0
260,284,109997,2,0,P|220:260|180:264|180:264,1,85,2|0,0:0|0:0,0:0:0
88,284,110384,5,0,0:0:0
24,216,110578,1,0,0:0:0
88,284,110771,1,2,0:0:0
64,132,110965,1,0,0:0:0
156,124,111158,2,0,P|160:172|120:204|120:204,2,85,0|0|2,0:0|0:0|0:0,0:0:0
220,56,111739,6,0,P|304:40|388:76,1,170,0|0,0:0|0:0,0:0:0
460,116,112320,1,2,0:0:0
456,208,112513,1,0,0:0:0
404,288,112707,2,0,P|388:328|392:368|392:368,2,85,0|0|2,0:0|0:0|0:0,0:0:0
328,236,113287,6,0,P|372:156|344:84,1,170,4|0,0:0|0:0,0:0:0
256,64,113868,1,2,0:0:0
165,87,114062,2,0,P|140:156|184:236,1,170,4|0,0:0|0:0,0:0:0
252,300,114642,6,0,P|288:328,1,42.5
232,372,114836,2,0,P|198:345,1,42.5
140,308,115031,6,0,P|72:268|56:200|56:200,1,136,6|0,0:0|0:0,0:0:0
88,136,115610,2,0,P|156:152|232:136|232:136,1,136,2|0,0:0|0:0,0:0:0
296,124,116191,1,0,0:0:0
444,92,116578,1,2,0:0:0
480,236,116965,1,0,0:0:0
336,268,117352,1,0,0:0:0
296,124,117739,5,2,0:0:0
252,184,117933,1,0,0:0:0
184,216,118126,2,0,P|116:216|56:176|56:176,1,136,2|0,0:0|0:0,0:0:0
72,104,118708,2,0,P|172:100|268:40,1,204,2|0,0:0|0:0,0:0:0
332,36,119482,1,2,0:0:0
332,36,120449,5,2,0:0:0
400,64,120642,1,0,0:0:0
392,140,120836,1,2,0:0:0
320,152,121029,1,0,0:0:0
276,92,121223,2,0,P|224:140|220:212|220:212,1,136,2|0,0:0|0:0,0:0:0
144,208,121804,2,0,P|136:280|188:340|188:340,1,136,2|0,0:0|0:0,0:0:0
252,368,122384,1,0,0:0:0
400,348,122771,1,2,0:0:0
376,200,123158,1,0,0:0:0
228,220,123545,1,0,0:0:0
252,368,123933,5,2,0:0:0
180,344,124126,1,0,0:0:0
108,356,124320,2,0,P|48:312|48:240|48:240,1,136,2|0,0:0|0:0,0:0:0
120,216,124900,2,0,P|120:144|56:101|56:101,1,136,2|0,0:0|0:0,0:0:0
0,48,125481,1,0,0:0:0
148,48,125868,5,2,0:0:0
292,88,126255,1,2,0:0:0
404,188,126642,2,0,P|384:268,1,68,0|2,0:0|0:0,0:0:0
376,328,127029,1,0,0:0:0
304,352,127223,1,0,0:0:0
292,352,127320,1,0,0:0:0
280,352,127418,6,0,P|192:344|148:256|148:256,1,170,4|2,0:0|0:0,0:0:0
240,240,127997,2,0,P|196:328|124:344,1,170,0|0,0:0|0:0,0:0:0
40,324,128578,1,2,0:0:0
0,240,128771,1,0,0:0:0
64,87,128965,2,0,P|4:148,1,85
157,110,129352,2,0,P|136:28,1,85,2|0,0:0|0:0,0:0:0
89,181,129739,2,0,P|172:204,1,85
252,224,130126,5,2,0:0:0
156,368,130320,1,0,0:0:0
92,264,130513,2,0,P|180:272|252:340|252:340,1,170,0|2,0:0|0:0,0:0:0
156,368,131094,2,0,P|176:272|244:240,1,170
328,232,131675,1,2,0:0:0
416,204,131868,2,0,P|476:144|468:60,1,170
388,16,132449,1,2,0:0:0
384,112,132642,1,0,0:0:0
300,152,132836,6,0,P|256:168|216:160,1,85
112,152,133223,2,0,P|120:192|152:224,1,85,2|0,0:0|0:0,0:0:0
20,132,133610,2,0,P|28:220|104:280|104:280,1,170,0|2,0:0|0:0,0:0:0
48,352,134191,2,0,P|136:376|220:340|220:340,1,170
300,300,134771,1,2,0:0:0
364,232,134965,1,0,0:0:0
344,73,135158,2,0,P|352:112|352:112|388:140,1,85
235,88,135545,2,0,P|265:61|265:61|272:16,1,85,2|0,0:0|0:0,0:0:0
300,175,135933,2,0,P|262:162|262:162|220:180,1,85
177,272,136320,6,0,P|176:272|220:280|220:280|260:260,1,85,2|0,0:0|0:0,0:0:0
88,236,136707,2,0,P|140:168|128:88,1,170,0|2,0:0|0:0,0:0:0
56,148,137287,2,0,P|4:216|16:296,1,170
84,360,137868,1,2,0:0:0
164,312,138062,1,0,0:0:0
256,324,138255,5,4,0:0:0
144,124,138642,1,4,0:0:0
368,124,139029,1,4,0:0:0
380,124,139126,1,0,0:0:0
392,124,139223,1,0,0:0:0
404,124,139320,1,0,0:0:0
416,124,139416,6,0,P|468:124,1,42.5
464,192,139610,2,0,P|421:192,1,42.5
348,192,139804,5,4,0:0:0
256,192,139997,2,0,P|212:192|176:164|176:164,2,85,0|2|0,0:0|0:0|0:0,0:0:0
244,100,140578,2,0,P|184:68|120:92|120:92,1,127.5
84,120,140965,1,2,0:0:0
64,212,141158,6,0,P|144:256|152:332,1,170
64,300,141739,1,2,0:0:0
252,320,141933,1,0,0:0:0
344,296,142126,2,0,P|368:240|436:212|436:212,1,127.5
480,200,142513,1,2,0:0:0
428,72,142707,6,0,P|384:144|300:144,1,170
240,80,143287,1,2,0:0:0
332,60,143481,1,0,0:0:0
136,72,143675,1,0,0:0:0
88,252,144062,1,2,0:0:0
256,344,144449,5,4,0:0:0
256,328,144836,1,4,0:0:0
256,312,145223,1,4,0:0:0
256,296,145610,2,0,P|256:208,1,85,2|0,0:0|0:0,0:0:0
256,116,145997,5,4,0:0:0
328,56,146191,2,0,P|368:68|396:104|396:104,2,85,0|2|0,0:0|0:0|0:0,0:0:0
328,148,146771,2,0,P|376:200|444:192|444:192,1,127.5
488,180,147158,1,2,0:0:0
460,268,147352,6,0,P|368:276|328:336,1,170
420,352,147933,1,2,0:0:0
244,312,148126,1,0,0:0:0
164,268,148320,2,0,P|112:228|88:164|88:164,1,127.5
72,120,148707,1,2,0:0:0
68,28,148900,6,0,P|132:88|228:92|228:92,1,170
320,96,149481,1,2,0:0:0
468,240,149675,1,0,0:0:0
432,136,149868,1,0,0:0:0
468,240,150062,2,0,P|452:284,1,42.5,0|2,0:0|0:0,0:0:0
324,336,150449,5,0,0:0:0
260,268,150642,1,4,0:0:0
320,96,151029,1,4,0:0:0
136,128,151416,1,4,0:0:0
136,128,152191,5,6,0:0:0
224,236,152481,1,2,0:0:0
216,96,152771,1,2,0:0:0
140,216,153062,1,2,0:0:0
272,164,153352,1,2,0:0:0
156,308,153739,5,4,0:0:0
156,308,153933,1,0,0:0:0
268,320,154126,2,0,P|304:280|360:276|360:276,1,101.999996887207,10|0,0:0|0:0,0:0:0
448,208,154513,2,0,P|468:160|464:104|464:104,2,101.999996887207,0|0|10,0:0|0:0|0:0,0:0:0
360,136,155094,2,0,P|296:148|208:56,1,203.999993774414
108,72,155675,2,0,P|112:124|148:168|148:168,1,101.999996887207,10|0,0:0|0:0,0:0:0
304,64,156062,1,0,0:0:0
324,260,156255,6,0,P|376:264|420:288,1,101.999996887207,0|10,0:0|0:0,0:0:0
332,356,156642,2,0,P|224:356|140:276|140:276,1,203.999993774414
84,188,157223,1,10,0:0:0
256,44,157610,1,0,0:0:0
428,188,157997,1,10,0:0:0
428,300,158191,1,0,0:0:0
332,356,158384,6,0,P|224:356,2,101.999996887207,0|0|10,0:0|0:0|0:0,0:0:0
272,260,158965,2,0,P|164:260|84:184|84:184,1,203.999993774414,0|4,0:0|0:0,0:0:0
28,284,159545,1,10,0:0:0
32,88,159739,1,0,0:0:0
32,88,159836,1,0,0:0:0
32,88,159933,5,4,0:0:0
140,116,160126,1,0,0:0:0
200,296,160320,1,10,0:0:0
264,196,160513,2,0,P|364:164,2,101.999996887207
248,96,161094,1,10,0:0:0
316,284,161287,6,0,P|412:240|504:292,1,203.999993774414
296,368,161868,1,10,0:0:0
408,348,162062,1,0,0:0:0
184,360,162255,1,0,0:0:0
96,292,162449,6,0,P|88:240|112:192|112:192,1,101.999996887207,0|10,0:0|0:0,0:0:0
196,268,162836,2,0,P|228:160|192:60|192:60,1,203.999993774414
84,40,163416,1,10,0:0:0
256,188,163804,1,0,0:0:0
428,40,164191,1,10,0:0:0
408,152,164384,1,0,0:0:0
364,256,164578,6,0,P|288:336|200:320,1,203.999993774414,0|10,0:0|0:0,0:0:0
96,300,165158,2,0,P|172:220|260:236,1,203.999993774414,0|4,0:0|0:0,0:0:0
364,256,165739,1,10,0:0:0
332,148,165933,1,0,0:0:0
332,148,166029,1,0,0:0:0
332,148,166126,6,0,P|292:116|240:100,1,101.999996887207,4|0,0:0|0:0,0:0:0
168,16,166513,2,0,P|112:36|72:68,1,101.999996887207,10|0,0:0|0:0,0:0:0
24,160,166900,1,0,0:0:0
44,272,167094,1,0,0:0:0
164,144,167287,1,10,0:0:0
148,232,167481,6,0,P|248:272|352:252|352:252,1,203.999993774414
292,156,168062,2,0,P|348:180|400:152|400:152,1,101.999996887207,10|0,0:0|0:0,0:0:0
504,136,168449,1,0,0:0:0
392,156,168642,6,0,P|448:248,1,101.999996887207,0|10,0:0|0:0,0:0:0
460,356,169029,2,0,P|372:308|280:352,1,203.999993774414
176,324,169610,1,10,0:0:0
184,56,169997,1,0,0:0:0
408,196,170384,1,10,0:0:0
392,84,170578,1,0,0:0:0
296,24,170771,5,0,0:0:0
256,128,170965,2,0,P|160:152|84:84,1,203.999993774414
0,16,171545,2,0,P|16:128,1,101.999996887207,0|4,0:0|0:0,0:0:0
28,228,171933,1,10,0:0:0
108,308,172126,1,0,0:0:0
108,308,172223,1,0,0:0:0
108,308,172320,6,0,P|160:324|212:308|212:308,1,101.999996887207,4|0,0:0|0:0,0:0:0
312,360,172707,2,0,P|364:328|372:268|372:268,1,101.999996887207,10|0,0:0|0:0,0:0:0
400,172,173094,1,0,0:0:0
272,268,173287,1,0,0:0:0
308,108,173481,1,10,0:0:0
228,176,173675,6,0,P|132:144|80:44,1,203.999993774414
44,164,174255,2,0,P|8:120|8:60|8:60,2,101.999996887207,10|0|0,0:0|0:0|0:0,0:0:0
116,252,174836,6,0,P|152:288|168:336|168:336,1,101.999996887207,0|10,0:0|0:0,0:0:0
264,284,175223,2,0,P|384:316|440:212|440:212,1,203.999993774414
464,104,175804,1,10,0:0:0
256,20,176191,1,0,0:0:0
48,104,176578,1,10,0:0:0
132,176,176771,1,0,0:0:0
180,280,176965,6,0,P|272:352|352:320,1,203.999993774414,0|2,0:0|0:0,0:0:0
428,252,177545,1,0,0:0:0
440,140,177739,5,0,0:0:0
432,128,177836,1,0,0:0:0
424,116,177933,1,0,0:0:0
416,104,178029,1,0,0:0:0
408,92,178126,5,0,0:0:0
396,84,178223,1,0,0:0:0
384,76,178320,1,0,0:0:0
372,68,178416,1,0,0:0:0
360,60,178513,1,4,0:0:0
256,192,189352,12,0,190513,0:0:0
200,116,190900,5,6,0:0:0
212,256,191191,1,2,0:0:0
288,136,191481,1,2,0:0:0
160,192,191771,1,2,0:0:0
296,220,192062,1,2,0:0:0
296,220,192449,6,0,P|364:244|436:224|436:224,1,136,4|2,0:0|0:0,0:0:0
211,212,193223,2,0,P|156:259|138:331|138:331,1,136,0|2,0:0|0:0,0:0:0
260,143,193997,2,0,P|247:72|193:20|193:20,1,136,0|2,0:0|0:0,0:0:0
48,44,194773,1,0,0:0:0
48,112,194965,5,2,0:0:0
72,176,195158,1,0,0:0:0
124,220,195352,2,0,P|196:248|228:304,1,136,2|0,0:0|0:0,0:0:0
160,316,195933,2,0,P|184:244|240:228,2,136,2|0|2,0:0|0:0|0:0,0:0:0
296,324,197094,6,0,P|328:308|344:272,1,68,0|2,0:0|0:0,0:0:0
380,152,197675,1,2,0:0:0
256,96,198062,2,0,P|304:40,2,68
192,56,198642,6,0,P|140:116,1,68
116,176,199029,2,0,P|112:252,1,68,2|0,0:0|0:0,0:0:0
112,320,199416,1,0,0:0:0
112,320,199610,1,0,0:0:0
252,272,199997,2,0,P|292:216|372:204,1,136,2|0,0:0|0:0,0:0:0
372,272,200578,2,0,P|408:264|436:288|436:288,1,68,0|2,0:0|0:0,0:0:0
504,156,201158,5,0,0:0:0
436,152,201352,1,2,0:0:0
376,116,201545,2,0,P|328:72|256:88,1,136
308,136,202126,2,0,P|328:72|288:16,2,136,2|0|2,0:0|0:0|0:0,0:0:0
212,232,203287,5,2,0:0:0
212,232,203868,1,2,0:0:0
212,232,204449,1,6,0:0:0
212,232,204837,6,0,P|112:212,1,85,4|0,0:0|0:0,0:0:0
104,124,205223,2,0,P|187:140,1,85,2|0,0:0|0:0,0:0:0
280,156,205610,1,0,0:0:0
360,204,205804,1,0,0:0:0
452,184,205997,1,2,0:0:0
484,272,206191,2,0,P|400:284|368:364,1,170
276,380,206771,1,2,0:0:0
196,332,206965,1,0,0:0:0
20,268,207352,5,0,0:0:0
104,248,207545,1,2,0:0:0
148,176,207739,2,0,P|176:100|280:92,1,170
340,64,208320,2,0,P|312:140|208:148,2,170,2|0|2,0:0|0:0|0:0,0:0:0
456,188,209481,5,0,0:0:0
456,188,209675,2,0,P|364:228|340:292,1,170,2|0,0:0|0:0,0:0:0
184,352,210449,2,0,P|172:304|196:256|196:256,1,85,0|2,0:0|0:0,0:0:0
280,124,211029,5,4,0:0:0
188,140,211223,1,0,0:0:0
116,84,211416,1,2,0:0:0
188,140,211610,1,0,0:0:0
132,216,211804,2,0,P|124:260|100:296|100:296,2,85,0|0|2,0:0|0:0|0:0,0:0:0
224,220,212384,2,0,P|308:196|392:224,1,170
316,284,212965,2,0,P|360:296|384:336,2,85,2|0|0,0:0|0:0|0:0,0:0:0
300,376,213545,6,0,P|260:352|216:364|216:364,1,85,0|2,0:0|0:0,0:0:0
128,336,213933,2,0,P|36:320|8:248,1,170
100,252,214513,2,0,P|116:160|179:131,2,170,2|0|2,0:0|0:0|0:0,0:0:0
188,224,215481,1,0,0:0:0
188,224,215675,6,0,P|240:296|328:280,1,170,0|2,0:0|0:0,0:0:0
384,240,216255,1,0,0:0:0
396,156,216449,1,0,0:0:0
396,136,216545,1,0,0:0:0
344,72,216739,1,0,0:0:0
325,65,216836,1,0,3:0:0
308,56,216933,1,0,0:0:0
288,48,217029,1,0,0:0:0
268,40,217126,1,0,0:0:0
244,32,217224,6,0,P|136:32,1,101.999996887207,4|0,0:0|0:0,0:0:0
52,144,217610,1,10,0:0:0
144,252,217804,1,0,0:0:0
184,172,217997,2,0,P|232:200|232:260|232:260,2,101.999996887207,0|0|10,0:0|0:0|0:0,0:0:0
296,148,218578,6,0,P|356:244|440:256,1,203.999993774414
416,148,219158,2,0,P|404:96|376:56,1,101.999996887207,10|0,0:0|0:0,0:0:0
268,32,219545,1,0,0:0:0
160,64,219739,6,0,P|144:112|92:144,1,101.999996887207,0|10,0:0|0:0,0:0:0
0,188,220126,2,0,P|20:296|108:312,1,203.999993774414,0|0,0:0|0:0,0:0:0
208,344,220707,2,0,P|188:236|100:220,1,203.999993774414,10|0,0:0|0:0,0:0:0
0,188,221287,1,0,0:0:0
48,84,221481,1,10,0:0:0
160,64,221675,1,0,0:0:0
244,136,221868,6,0,P|276:176|328:192|328:192,2,101.999996887207,0|0|10,0:0|0:0|0:0,0:0:0
260,248,222449,2,0,P|372:264|464:180|464:180,1,203.999993774414,0|4,0:0|0:0,0:0:0
492,88,223029,1,10,0:0:0
404,36,223223,1,0,0:0:0
404,36,223320,1,0,0:0:0
404,36,223416,5,4,0:0:0
272,56,223610,1,0,0:0:0
220,176,223804,1,10,0:0:0
312,240,223997,2,0,P|304:292|304:292|264:328,2,101.999996887207
300,128,224578,1,10,0:0:0
188,108,224771,6,0,P|92:152|4:108,1,203.999993774414
100,44,225352,1,10,0:0:0
212,28,225545,2,0,P|320:48,1,101.999996887207
480,98,225933,2,0,P|384:132,1,101.999996887207,0|10,0:0|0:0,0:0:0
460,204,226320,2,0,P|352:224|292:296,1,203.999993774414
296,180,226900,2,0,P|256:296|272:384,1,203.999993774414,10|0,0:0|0:0,0:0:0
160,352,227481,1,0,0:0:0
32,276,227675,1,10,0:0:0
116,76,227868,1,0,0:0:0
44,156,228062,6,0,P|144:184|220:120,1,203.999993774414,0|10,0:0|0:0,0:0:0
288,46,228642,2,0,P|188:18|116:76,1,203.999993774414,0|4,0:0|0:0,0:0:0
316,164,229223,1,10,0:0:0
416,228,229416,1,0,0:0:0
416,228,229513,1,0,0:0:0
416,228,229610,6,0,P|380:268|328:280,1,101.999996887207,4|0,0:0|0:0,0:0:0
150,336,229997,2,0,P|186:296|232:284,1,101.999996887207,10|0,0:0|0:0,0:0:0
40,288,230384,1,0,0:0:0
152,192,230578,1,0,0:0:0
40,164,230771,1,10,0:0:0
48,52,230965,6,0,P|140:100|148:200,1,203.999993774414
260,212,231545,2,0,P|228:260|192:284,1,101.999996887207,10|0,0:0|0:0,0:0:0
92,336,231933,1,0,0:0:0
206,358,232126,6,0,P|256:344|304:356,1,101.999996887207,0|10,0:0|0:0,0:0:0
412,320,232513,2,0,P|468:228|436:136,1,203.999993774414
356,216,233094,2,0,P|269:242|176:188,1,203.999993774414,10|0,0:0|0:0,0:0:0
188,76,233675,1,0,0:0:0
80,132,233868,1,10,0:0:0
272,156,234062,1,0,0:0:0
92,264,234255,6,0,P|144:280|188:312,1,101.999996887207
268,380,234642,1,10,0:0:0
372,336,234836,2,0,P|380:276|460:228|472:156,1,203.999993774414,0|4,0:0|0:0,0:0:0
472,60,235416,1,10,0:0:0
348,192,235610,1,0,0:0:0
348,192,235708,1,0,0:0:0
348,192,235804,6,0,P|304:224|288:280|288:280,1,101.999996887207,4|0,0:0|0:0,0:0:0
110,287,236191,2,0,P|108:284|144:336|196:336,1,101.999996887207,10|0,0:0|0:0,0:0:0
100,176,236578,1,0,0:0:0
178,105,236771,2,0,P|144:72|92:64,1,101.999996887207,0|10,0:0|0:0,0:0:0
248,192,237158,2,0,P|356:228|428:172,1,203.999993774414
416,68,237739,2,0,P|358:62|328:123|328:123,2,101.999996887207,10|0|0,0:0|0:0|0:0,0:0:0
224,104,238320,6,0,P|224:112|220:44|272:20,1,101.999996887207,0|10,0:0|0:0,0:0:0
200,216,238707,2,0,P|176:316|84:360,1,203.999993774414
100,248,239287,2,0,P|192:316|288:308,1,203.999993774414,10|4,0:0|0:0,0:0:0
460,184,240062,1,10,0:0:0
256,88,240449,6,0,P|168:140|120:232,1,203.999993774414,4|2,0:0|0:0,0:0:0
108,340,241029,1,0,0:0:0
216,316,241223,1,0,0:0:0
224,304,241320,1,0,0:0:0
232,292,241416,1,0,0:0:0
240,280,241513,1,0,0:0:0
248,268,241610,5,0,0:0:0
252,252,241707,1,0,0:0:0
256,236,241804,1,0,0:0:0
260,220,241900,1,0,0:0:0
264,208,241997,1,4,0:0:0
