osu file format v11

[General]
AudioFilename: _ ShiningSTREAM Halozy.mp3
AudioLeadIn: 0
PreviewTime: 77850
Countdown: 0
SampleSet: Soft
StackLeniency: 0.7
Mode: 0
LetterboxInBreaks: 1

[Editor]
Bookmarks: 12818,166689
DistanceSpacing: 1
BeatDivisor: 4
GridSize: 4

[Metadata]
Title:Shining/STREAM
TitleUnicode:Shining/STREAM
Artist:Usa
ArtistUnicode:Usa
Creator:HelloSCV
Version:Hard
Source:Touhou
Tags:Sumijun Tonic Triangle Halozy Night Sakura of Dead Spirits Ten Desires eurobeat
BeatmapID:195945
BeatmapSetID:67444

[Difficulty]
HPDrainRate:5
CircleSize:4
OverallDifficulty:6
ApproachRate:7
SliderMultiplier:1.4
SliderTickRate:1

[Events]
//Background and Video events
0,0,"background.jpg"
//Break Periods
2,102842,114131
2,178713,190002
//Storyboard Layer 0 (Background)
//Storyboard Layer 1 (Fail)
//Storyboard Layer 2 (Pass)
//Storyboard Layer 3 (Foreground)
//Storyboard Sound Samples
//Background Colour Transformations
3,100,163,162,255

[TimingPoints]
450,387.096774193548,4,2,0,70,1,0
26773,-83.3333333333333,4,2,1,80,0,1
39159,-100,4,2,0,80,0,0
63933,-100,4,2,0,80,0,1
64030,-100,4,2,0,80,0,0
77869,-83.3333333333333,4,2,1,80,0,1
90159,-83.3333333333333,4,2,1,80,0,0
90256,-83.3333333333333,4,2,1,80,0,1
102643,-100,4,2,0,80,0,0
115030,-125,4,2,0,50,0,0
127417,-100,4,2,0,70,0,0
139804,-100,4,2,0,70,0,1
139901,-100,4,2,0,70,0,0
153740,-83.3333333333333,4,2,1,80,0,1
166030,-83.3333333333333,4,2,1,80,0,0
166127,-83.3333333333333,4,2,1,80,0,1
178514,-100,4,2,0,80,0,0
192449,-125,4,2,0,50,0,0
194966,-125,4,2,0,30,0,0
198643,-125,4,2,0,60,0,0
201159,-125,4,2,0,30,0,0
204837,-100,4,2,0,70,0,0
207353,-100,4,2,0,50,0,0
215675,-100,4,2,0,40,0,0
217224,-83.3333333333333,4,2,1,70,0,1
229514,-83.3333333333333,4,2,1,70,0,0
229611,-83.3333333333333,4,2,1,70,0,1
241998,-100,4,2,0,70,0,0

[Colours]
Combo1 : 255,255,255
Combo2 : 0,164,242
Combo3 : 168,226,255
Combo4 : 255,198,226
Combo5 : 255,128,192

[HitObjects]
80,212,12836,6,0,P|104:292|184:304|184:304,1,140,4|2,0:0|0:0,0:0:0
204,236,13416,2,0,P|273:281|342:239|342:239,1,140
388,192,13997,1,2,0:0:0
396,120,14191,5,0,0:0:0
396,120,14287,1,0,0:0:0
396,120,14384,2,0,P|324:120|324:120|248:76,1,140,0|2,0:0|0:0,0:0:0
136,140,15158,2,0,P|208:140|208:140|284:184,1,140,0|2,0:0|0:0,0:0:0
304,232,15739,5,0,0:0:0
304,232,15836,1,0,0:0:0
304,232,15933,2,0,P|320:300|408:308,1,140,0|2,0:0|0:0,0:0:0
448,340,16513,2,0,P|432:272|344:264,1,140
304,232,17095,1,2,0:0:0
276,168,17287,6,0,P|216:204|216:204|140:220,1,140
136,148,17868,2,0,P|56:164,1,70,2|0,0:0|0:0,0:0:0
40,228,18255,2,0,P|16:248|8:284,1,70,0|4,0:0|0:0,0:0:0
48,340,18642,2,0,P|76:316|80:284,1,70,2|0,0:0|0:0,0:0:0
140,352,19029,6,0,P|196:308|220:244,1,140,4|2,0:0|0:0,0:0:0
292,244,19610,2,0,P|315:306|371:350,1,140,0|0,0:0|0:0,0:0:0
432,312,20191,2,0,P|404:284|404:248|404:248,1,70,2|0,0:0|0:0,0:0:0
476,252,20578,2,0,P|476:180|448:100,1,140,0|2,0:0|0:0,0:0:0
388,100,21158,5,0,0:0:0
320,84,21352,2,0,P|248:68,1,70,0|0,0:0|0:0,0:0:0
171,120,21739,2,0,P|240:136,1,70,2|0,0:0|0:0,0:0:0
128,176,22126,6,0,P|192:208|220:280|220:280,1,140,0|2,0:0|0:0,0:0:0
288,280,22707,2,0,P|287:281|315:209|379:177,1,140,0|0,0:0|0:0,0:0:0
432,132,23287,5,2,0:0:0
396,72,23481,1,4,0:0:0
256,72,23868,1,4,0:0:0
116,72,24255,1,2,0:0:0
80,132,24449,1,4,0:0:0
256,192,25223,12,2,26384,0:0:0
84,256,26773,6,0,P|120:284|120:284|168:284,2,83.9999974365235,4|0|10,0:0|0:0|0:0,0:0:0
20,192,27352,1,0,0:0:0
84,128,27545,2,0,P|120:100|120:100|158:100,1,83.9999974365235,0|0,0:0|0:0,0:0:0
238,164,27933,2,0,P|202:192|202:192|164:192,1,83.9999974365235,10|0,0:0|0:0,0:0:0
304,96,28320,5,0,0:0:0
376,36,28513,1,0,0:0:0
400,124,28707,1,10,0:0:0
468,60,28900,1,0,0:0:0
492,148,29094,2,0,P|436:212,1,83.9999974365235
380,284,29481,1,10,0:0:0
292,312,29675,6,0,P|228:248|144:256,1,167.999994873047,0|0,0:0|0:0,0:0:0
64,272,30255,1,10,0:0:0
8,196,30449,1,0,0:0:0
100,184,30642,2,0,P|108:140|108:140|108:96,2,83.9999974365235,0|0|10,0:0|0:0|0:0,0:0:0
192,176,31223,6,0,P|216:260|168:332,1,167.999994873047,4|0,0:0|0:0,0:0:0
256,376,31804,1,10,0:0:0
334,325,31997,2,0,P|296:260|320:176,1,167.999994873047,4|0,0:0|0:0,0:0:0
396,124,32578,1,10,0:0:0
440,44,32771,1,0,0:0:0
348,28,32965,6,0,P|320:60|320:60|312:108,2,83.9999974365235,4|0|10,0:0|0:0|0:0,0:0:0
256,20,33545,1,0,0:0:0
164,28,33739,2,0,P|192:60|192:60|200:108,1,83.9999974365235,0|0,0:0|0:0,0:0:0
108,120,34126,2,0,P|114:160|114:160|142:192,1,83.9999974365235,10|0,0:0|0:0,0:0:0
220,244,34513,5,0,0:0:0
280,312,34707,1,0,0:0:0
192,332,34900,1,10,0:0:0
220,244,35094,1,0,0:0:0
308,224,35287,2,0,P|336:140,1,83.9999974365235
364,56,35675,1,10,0:0:0
276,80,35868,6,0,P|212:132|120:112,1,167.999994873047
64,60,36449,1,10,0:0:0
152,28,36642,1,0,0:0:0
132,120,36836,2,0,P|112:208,2,83.9999974365235,0|0|10,0:0|0:0|0:0,0:0:0
224,108,37416,6,0,P|312:124|344:204,1,167.999994873047,4|0,0:0|0:0,0:0:0
256,192,37997,1,10,0:0:0
167,195,38191,2,0,P|200:260|288:276,1,167.999994873047,4|0,0:0|0:0,0:0:0
380,256,38771,1,14,0:0:0
380,256,39160,6,0,P|436:216|428:140,1,140,4|2,0:0|0:0,0:0:0
372,184,39739,2,0,P|370:118|426:78,1,140
496,68,40320,1,2,0:0:0
360,28,40707,1,0,0:0:0
256,120,41094,1,2,0:0:0
268,260,41481,1,0,0:0:0
360,156,41868,6,0,P|352:192|328:220|328:220,1,70,2|0,0:0|0:0,0:0:0
268,260,42255,2,0,P|232:212|148:216,1,140,0|2,0:0|0:0,0:0:0
192,280,42837,2,0,P|228:328|312:324,1,140,0|0,0:0|0:0,0:0:0
360,288,43416,2,0,P|384:260|420:256|420:256,1,70,2|0,0:0|0:0,0:0:0
488,236,43804,1,0,0:0:0
476,96,44191,1,2,0:0:0
348,40,44578,6,0,P|272:48,1,70
222,123,44965,2,0,P|292:116,1,70,2|0,0:0|0:0,0:0:0
168,168,45352,6,0,P|188:240|152:292,1,140,0|2,0:0|0:0,0:0:0
84,296,45933,2,0,P|164:296|216:340,1,140
272,360,46513,1,2,0:0:0
412,344,46900,1,0,0:0:0
484,224,47287,1,2,0:0:0
460,84,47675,1,0,0:0:0
356,176,48062,6,0,P|400:172|416:128|416:128,1,70,2|0,0:0|0:0,0:0:0
460,84,48449,2,0,P|396:56|320:80,1,140,0|2,0:0|0:0,0:0:0
276,28,49029,2,0,P|228:92|236:156,1,140
256,216,49610,1,2,0:0:0
316,340,49997,5,0,0:0:0
176,332,50384,1,2,0:0:0
112,208,50771,1,0,0:0:0
76,148,50965,1,0,0:0:0
92,80,51158,2,0,P|156:52,1,70,2|0,0:0|0:0,0:0:0
204,104,51545,6,0,P|256:160|316:152,1,140,4|2,0:0|0:0,0:0:0
276,92,52126,2,0,P|333:85|385:141,1,140
392,212,52707,1,2,0:0:0
356,348,53094,1,0,0:0:0
220,320,53481,1,2,0:0:0
252,184,53868,1,0,0:0:0
352,280,54255,6,0,P|312:280|280:304|280:304,1,70,2|0,0:0|0:0,0:0:0
220,320,54642,2,0,P|184:276|108:284,1,140,0|2,0:0|0:0,0:0:0
40,304,55224,2,0,P|76:348|152:340,1,140,0|0,0:0|0:0,0:0:0
220,320,55804,2,0,P|320:312,1,70,2|0,0:0|0:0,0:0:0
360,304,56191,1,0,0:0:0
476,228,56578,1,2,0:0:0
400,92,56965,6,0,P|358:35,1,70
354,155,57352,2,0,P|396:212,1,70,2|0,0:0|0:0,0:0:0
300,112,57739,2,0,P|232:132|168:96,1,140,0|2,0:0|0:0,0:0:0
192,36,58320,2,0,P|164:112|124:156,1,140
80,208,58900,1,2,0:0:0
160,324,59287,1,0,0:0:0
28,276,59675,1,2,0:0:0
164,240,60062,1,0,0:0:0
80,352,60449,6,0,P|108:276,1,70,2|0,0:0|0:0,0:0:0
164,240,60836,2,0,P|236:228|272:168,1,140,0|2,0:0|0:0,0:0:0
248,108,61416,2,0,P|324:96|388:136,1,140
440,92,61997,2,0,P|464:124|468:160|468:160,1,70,2|0,0:0|0:0,0:0:0
448,224,62384,5,4,0:0:0
368,340,62771,1,4,0:0:0
228,328,63158,1,4,0:0:0
104,264,63545,2,0,P|80:208,4,35,0|0|0|0|4,0:0|0:0|0:0|0:0|0:0,0:0:0
176,236,64126,6,0,P|148:164,1,70,0|2,0:0|0:0,0:0:0
132,92,64513,1,0,0:0:0
208,104,64707,2,0,P|256:128|256:128|312:120,2,105
344,32,65675,1,0,0:0:0
412,72,65868,1,2,0:0:0
444,140,66062,1,0,0:0:0
404,204,66255,6,0,P|384:260|384:260|388:308,2,105
256,244,67223,1,0,0:0:0
180,264,67416,1,2,0:0:0
128,320,67610,1,0,0:0:0
56,300,67804,6,0,P|92:240|88:168,1,140
108,40,68578,1,4,0:0:0
256,84,68965,1,4,0:0:0
404,40,69352,1,4,0:0:0
356,100,69545,2,0,P|404:172,1,70,0|2,0:0|0:0,0:0:0
372,232,69933,1,0,0:0:0
372,232,70029,1,0,0:0:0
372,232,70126,1,4,0:0:0
300,260,70320,6,0,P|264:264|232:288,2,70,0|2|0,0:0|0:0|0:0,0:0:0
364,304,70900,2,0,P|416:292|444:252,2,105
220,360,71868,1,0,0:0:0
144,360,72062,1,2,0:0:0
96,300,72255,1,0,0:0:0
144,240,72449,6,0,P|148:176|120:132|120:132,2,105
244,124,73416,1,0,0:0:0
316,100,73610,1,2,0:0:0
384,132,73804,1,0,0:0:0
380,208,73997,2,0,P|448:228|492:192,1,105
448,100,74578,5,2,0:0:0
404,36,74771,1,4,0:0:0
256,80,75158,1,4,0:0:0
108,36,75545,1,4,0:0:0
256,192,76320,12,2,77482,0:0:0
412,284,77870,6,0,P|368:292|332:272|332:272,2,83.9999974365235,4|0|10,0:0|0:0|0:0,0:0:0
428,192,78449,1,0,0:0:0
412,100,78642,2,0,P|368:92|332:112|330:112,1,83.9999974365235,0|0,0:0|0:0,0:0:0
244,148,79029,1,10,0:0:0
164,196,79223,2,0,P|76:208|28:152,1,167.999994873047
100,96,79804,2,0,P|102:99|74:63|26:59,2,83.9999974365235,10|0|0,0:0|0:0|0:0,0:0:0
176,44,80384,6,0,P|208:16|256:12|256:12,1,83.9999974365235,0|10,0:0|0:0,0:0:0
232,108,80771,2,0,P|316:92|388:136,1,167.999994873047
452,196,81352,2,0,P|368:212|299:172,2,167.999994873047,10|0|10,0:0|0:0|0:0,0:0:0
492,280,82320,1,0,0:0:0
420,336,82513,2,0,P|344:288|264:336,1,167.999994873047,0|10,0:0|0:0,0:0:0
340,384,83094,2,0,P|364:216,1,167.999994873047,0|4,0:0|0:0,0:0:0
416,140,83675,1,10,0:0:0
284,28,84062,6,0,P|324:40|356:68,2,83.9999974365235,4|0|10,0:0|0:0|0:0,0:0:0
256,116,84642,1,0,0:0:0
240,208,84836,2,0,P|200:220|168:248,1,83.9999974365235,0|0,0:0|0:0,0:0:0
164,340,85223,1,10,0:0:0
244,296,85416,2,0,P|328:316|404:252,1,167.999994873047
392,180,85997,2,0,P|350:191|322:219,2,83.9999974365235,10|0|0,0:0|0:0|0:0,0:0:0
500,114,86578,6,0,P|500:112|504:156|484:196,1,83.9999974365235,0|10,0:0|0:0,0:0:0
416,80,86965,2,0,P|332:56|264:100,1,167.999994873047
196,152,87545,2,0,P|280:176|348:132,2,167.999994873047,10|0|10,0:0|0:0|0:0,0:0:0
124,92,88513,1,0,0:0:0
68,164,88707,2,0,P|112:236|76:308,1,167.999994873047,0|10,0:0|0:0,0:0:0
20,236,89287,2,0,P|192:236,1,167.999994873047,0|4,0:0|0:0,0:0:0
280,248,89868,1,10,0:0:0
412,112,90255,5,4,0:0:0
364,188,90449,1,0,0:0:0
276,156,90642,2,0,P|232:168|196:200,1,83.9999974365235,10|0,0:0|0:0,0:0:0
168,276,91029,1,0,0:0:0
100,212,91223,2,0,P|64:108,1,83.9999974365235,0|10,0:0|0:0,0:0:0
60,40,91610,2,0,P|128:96|224:100|224:100,1,167.999994873047
308,100,92191,1,10,0:0:0
400,92,92384,2,0,P|436:116|456:152|456:152,1,83.9999974365235
428,236,92771,6,0,P|392:260|388:304,1,83.9999974365235,0|10,0:0|0:0,0:0:0
304,344,93158,2,0,P|216:360|164:300,1,167.999994873047
108,236,93739,2,0,P|196:220|245:271,2,167.999994873047,10|0|10,0:0|0:0|0:0,0:0:0
44,168,94707,1,0,0:0:0
132,136,94900,2,0,P|220:104|228:28,1,167.999994873047,0|10,0:0|0:0,0:0:0
140,48,95481,2,0,P|268:160,1,167.999994873047,0|4,0:0|0:0,0:0:0
336,220,96062,1,10,0:0:0
448,76,96449,6,0,P|416:104|416:104|400:152,1,83.9999974365235,4|0,0:0|0:0,0:0:0
446,235,96836,2,0,P|478:207|478:207|492:168,1,83.9999974365235,10|0,0:0|0:0,0:0:0
376,212,97223,1,0,0:0:0
380,296,97416,2,0,P|344:268|296:272|296:272,1,83.9999974365235,0|10,0:0|0:0,0:0:0
208,276,97804,2,0,P|232:192|180:108,1,167.999994873047
104,120,98384,2,0,P|116:168|144:196,2,83.9999974365235,10|0|0,0:0|0:0|0:0,0:0:0
224,32,98965,6,0,P|184:48|136:36|136:36,1,83.9999974365235,0|10,0:0|0:0,0:0:0
304,76,99352,2,0,P|388:108|416:180,1,167.999994873047
440,264,99933,2,0,P|356:232|328:160,2,167.999994873047,10|0|10,0:0|0:0|0:0,0:0:0
412,352,100900,1,0,0:0:0
328,316,101094,2,2,P|252:288|168:340,1,167.999994873047,4|2,0:0|0:0,0:0:0
256,376,101675,2,0,P|248:204,1,167.999994873047
244,116,102255,5,2,0:0:0
244,116,102642,1,4,0:0:0
400,80,115031,6,0,P|380:168|296:200,1,168,4|0,0:0|0:0,0:0:0
68,264,117739,6,0,P|96:272|120:296,1,56,2|0,0:0|0:0,0:0:0
168,308,118126,2,0,P|228:296|268:260,1,112,2|0,0:0|0:0,0:0:0
276,208,118707,1,2,0:0:0
276,208,119481,1,2,0:0:0
24,84,120449,6,0,P|40:140|88:176,1,112,0|2,0:0|0:0,0:0:0
132,192,121029,1,0,0:0:0
184,176,121223,2,0,P|268:136|344:144,1,168,2|2,0:0|0:0,0:0:0
392,120,123933,6,0,P|384:152|368:172,1,56,2|2,0:0|0:0,0:0:0
324,204,124320,2,0,P|264:240|224:344,2,168,2|2|2,0:0|0:0|0:0,0:0:0
224,152,125868,1,2,0:0:0
116,124,126255,1,2,0:0:0
40,208,126642,6,0,P|52:284,1,56,0|2,0:0|0:0,0:0:0
60,316,127029,1,0,0:0:0
104,352,127223,1,0,0:0:0
160,348,127417,6,0,P|196:280|276:276|276:276,1,140,4|2,0:0|0:0,0:0:0
296,344,127997,2,0,P|373:340|408:268|408:268,1,140
432,200,128578,1,2,0:0:0
356,68,128965,1,0,0:0:0
216,136,129352,1,2,0:0:0
288,272,129739,1,0,0:0:0
364,136,130126,6,0,P|364:96|356:64,1,70,2|0,0:0|0:0,0:0:0
280,60,130513,2,0,P|220:36|152:80,1,140,0|2,0:0|0:0,0:0:0
222,109,131094,2,0,P|160:144|100:120,2,140
284,156,132062,1,0,0:0:0
260,308,132449,1,2,0:0:0
140,212,132836,6,0,P|208:184,1,70,0|0,0:0|0:0,0:0:0
264,236,133223,2,0,P|332:208,1,70,2|0,0:0|0:0,0:0:0
400,176,133610,2,0,P|468:204|476:268,1,140,0|2,0:0|0:0,0:0:0
400,252,134191,2,0,P|332:224|324:160,1,140
344,92,134771,1,2,0:0:0
192,68,135158,1,0,0:0:0
100,192,135545,1,2,0:0:0
144,340,135933,1,0,0:0:0
296,308,136320,6,0,P|288:272|296:232,1,70,2|0,0:0|0:0,0:0:0
336,176,136707,2,0,P|400:132|412:52,1,140,0|2,0:0|0:0,0:0:0
492,64,137287,2,0,P|424:96|348:48|348:48,1,140
284,36,137868,1,2,0:0:0
156,120,138255,5,4,0:0:0
152,272,138642,1,4,0:0:0
300,236,139029,1,4,0:0:0
384,124,139416,2,0,P|416:92,4,35,0|0|0|0|4,0:0|0:0|0:0|0:0|0:0,0:0:0
440,176,139997,6,0,P|392:228,1,70,0|2,0:0|0:0,0:0:0
352,292,140384,1,0,0:0:0
300,236,140578,2,0,P|244:228|200:256,2,105
200,352,141545,5,0,0:0:0
136,308,141739,1,2,0:0:0
60,304,141933,1,0,0:0:0
20,240,142126,2,0,P|20:180|52:144,2,105
152,156,143094,5,0,0:0:0
228,140,143287,1,2,0:0:0
268,72,143481,1,0,0:0:0
336,36,143675,2,0,P|372:92|452:88,1,140
380,236,144449,5,4,0:0:0
256,332,144836,1,4,0:0:0
132,236,145223,1,4,0:0:0
208,212,145416,2,0,P|236:136,1,70
296,104,145804,1,0,0:0:0
296,104,145997,1,4,0:0:0
264,36,146191,6,0,P|300:24|340:40|340:40,2,70,0|2|0,0:0|0:0|0:0,0:0:0
192,64,146771,2,0,P|152:104|92:100|92:100,2,105
168,216,147739,5,0,0:0:0
236,252,147933,1,2,0:0:0
312,248,148126,1,0,0:0:0
380,216,148320,2,0,P|416:164|476:164|476:164,2,105
268,324,149287,5,0,0:0:0
236,252,149481,1,2,0:0:0
272,184,149675,1,0,0:0:0
328,128,149868,2,0,P|320:72|272:36|272:36,1,105
164,60,150449,5,2,0:0:0
88,68,150642,1,4,0:0:0
180,192,151029,1,4,0:0:0
88,316,151416,1,4,0:0:0
256,192,152191,12,2,153353,0:0:0
212,320,153741,6,0,P|184:288|184:288|180:240,2,83.9999974365235,4|0|10,0:0|0:0|0:0,0:0:0
256,240,154320,1,0,0:0:0
300,320,154513,2,0,P|328:288|328:288|332:240,1,83.9999974365235,0|0,0:0|0:0,0:0:0
292,160,154900,1,10,0:0:0
344,84,155094,2,0,P|412:24|484:48,1,167.999994873047
500,132,155675,2,0,P|456:128|424:100,2,83.9999974365235,10|0|0,0:0|0:0|0:0,0:0:0
456,216,156255,6,0,P|420:240|404:280,1,83.9999974365235,0|10,0:0|0:0,0:0:0
320,312,156642,2,0,P|244:312|184:236,1,167.999994873047
132,172,157223,2,0,P|208:172|268:248,2,167.999994873047,10|0|10,0:0|0:0|0:0,0:0:0
48,208,158191,1,0,0:0:0
28,116,158384,2,0,P|116:96|144:16,1,167.999994873047,0|10,0:0|0:0,0:0:0
52,32,158965,2,0,P|164:176,1,167.999994873047,0|4,0:0|0:0,0:0:0
212,236,159545,1,10,0:0:0
396,264,159933,6,0,P|420:228|420:228|424:184,2,83.9999974365235,4|0|10,0:0|0:0|0:0,0:0:0
328,204,160513,1,0,0:0:0
292,288,160707,2,0,P|268:324|268:324|264:368,1,83.9999974365235
172,372,161094,1,10,0:0:0
96,316,161287,2,0,P|168:248|152:188,1,167.999994873047
68,152,161868,2,0,P|61:191|77:231,2,83.9999974365235,10|0|0,0:0|0:0|0:0,0:0:0
209,46,162449,6,0,P|172:68|153:103,1,83.9999974365235,0|10,0:0|0:0,0:0:0
288,84,162836,2,0,P|324:148|420:164,1,167.999994873047
380,252,163416,2,0,P|467:233|503:169,2,167.999994873047,10|0|10,0:0|0:0|0:0,0:0:0
288,264,164384,1,0,0:0:0
196,280,164578,2,0,P|112:240|40:272,1,167.999994873047,0|10,0:0|0:0,0:0:0
116,328,165158,2,0,P|144:156,1,167.999994873047,0|4,0:0|0:0,0:0:0
88,88,165739,1,10,0:0:0
268,88,166126,6,0,P|308:72|308:72|340:32,2,83.9999974365235,4|0|10,0:0|0:0|0:0,0:0:0
224,168,166707,1,0,0:0:0
180,248,166900,2,0,P|140:264|140:264|108:304,1,83.9999974365235,0|0,0:0|0:0,0:0:0
88,384,167287,1,10,0:0:0
176,360,167481,2,0,P|256:316|340:356|340:356,1,167.999994873047
424,320,168062,2,0,P|420:272|448:240|448:240,1,83.9999974365235,10|0,0:0|0:0,0:0:0
488,160,168449,1,0,0:0:0
396,160,168642,6,0,P|368:120|360:80,1,83.9999974365235,0|10,0:0|0:0,0:0:0
276,48,169029,2,0,P|248:132|172:144,1,167.999994873047
88,156,169610,2,0,P|116:72|192:60,2,167.999994873047,10|0|10,0:0|0:0|0:0,0:0:0
88,248,170578,1,0,0:0:0
180,228,170771,2,0,P|268:232|324:296,1,167.999994873047,0|10,0:0|0:0,0:0:0
228,308,171352,2,0,P|300:156,1,167.999994873047,0|4,0:0|0:0,0:0:0
384,124,171933,1,10,0:0:0
216,48,172320,6,0,P|128:76,1,83.9999974365235,4|0,0:0|0:0,0:0:0
48,100,172707,1,10,0:0:0
84,184,172900,2,0,P|120:208|140:248,2,83.9999974365235
52,272,173481,1,10,0:0:0
124,332,173675,2,0,P|208:356|264:296,1,167.999994873047
248,216,174255,2,0,P|204:220|180:260,1,83.9999974365235,10|0,0:0|0:0,0:0:0
340,220,174642,1,0,0:0:0
358,59,174836,6,0,P|360:96|384:136,1,83.9999974365235,0|10,0:0|0:0,0:0:0
268,32,175223,2,0,P|180:60|136:136,1,167.999994873047
232,128,175804,2,0,P|191:188|103:216,2,167.999994873047,10|0|10,0:0|0:0|0:0,0:0:0
268,212,176771,1,0,0:0:0
324,140,176966,2,0,P|365:200|453:228,1,167.999994873047,4|2,0:0|0:0,0:0:0
424,140,177545,2,0,P|336:288,1,167.999994873047,0|0,0:0|0:0,0:0:0
284,360,178126,5,2,0:0:0
284,360,178513,1,4,0:0:0
256,192,190902,12,0,192062,0:0:0
104,80,192449,6,0,P|96:136|112:196,1,112,4|2,0:0|0:0,0:0:0
204,132,193223,2,0,P|220:188|276:224,1,112,0|2,0:0|0:0,0:0:0
372,224,193997,2,0,P|356:168|300:132,1,112,0|2,0:0|0:0,0:0:0
248,48,194771,1,0,0:0:0
192,52,194965,6,0,P|128:60,1,56,0|2,0:0|0:0,0:0:0
80,64,195352,2,0,P|28:92|12:208,1,168,0|2,0:0|0:0,0:0:0
40,300,196320,1,0,0:0:0
144,340,196707,1,2,0:0:0
256,328,197094,2,0,P|304:300,1,56,0|2,0:0|0:0,0:0:0
400,240,197675,1,2,0:0:0
184,64,198642,6,0,P|208:112|216:172,1,112,0|2,0:0|0:0,0:0:0
108,144,199416,2,0,P|120:200|104:252,1,112,0|2,0:0|0:0,0:0:0
8,312,200191,2,0,P|-4:256|12:204,1,112,0|2,0:0|0:0,0:0:0
40,96,200965,1,0,0:0:0
92,80,201158,6,0,P|148:64,1,56,0|2,0:0|0:0,0:0:0
200,52,201545,2,0,P|240:104|344:120,1,168,0|2,0:0|0:0,0:0:0
448,116,202513,1,0,0:0:0
484,220,202900,1,2,0:0:0
372,212,203287,2,0,P|316:224|276:268,1,112,0|2,0:0|0:0,0:0:0
248,312,203868,2,0,P|210:350|154:362,1,112,0|2,0:0|0:0,0:0:0
100,368,204449,1,2,0:0:0
28,248,204837,6,0,P|84:208|112:140,1,140,4|2,0:0|0:0,0:0:0
112,76,205416,1,0,0:0:0
52,112,205610,2,0,P|75:134|116:144,1,70,0|0,0:0|0:0,0:0:0
180,144,205997,1,2,0:0:0
248,136,206191,2,0,P|308:168|384:132,1,140
420,96,206771,2,0,P|444:68|480:60,1,70,2|0,0:0|0:0,0:0:0
476,200,207352,6,0,P|428:256,1,70,0|2,0:0|0:0,0:0:0
380,304,207739,2,0,P|320:344|252:328,1,140
188,312,208320,2,0,P|124:299|64:339,2,140,2|0|2,0:0|0:0|0:0,0:0:0
188,312,209481,2,0,P|224:244,1,70,0|2,0:0|0:0,0:0:0
280,124,210062,1,2,0:0:0
280,124,211029,6,0,P|348:152,1,70,4|0,0:0|0:0,0:0:0
320,216,211416,2,0,P|255:189,1,70,2|0,0:0|0:0,0:0:0
192,160,211804,1,0,0:0:0
120,156,211997,2,0,P|48:168|16:232,1,140
144,284,212773,2,0,P|92:224,2,70,0|2|0,0:0|0:0|0:0,0:0:0
144,284,213545,6,0,P|216:284,1,70,0|2,0:0|0:0,0:0:0
284,280,213933,2,0,P|332:224|400:208,1,140
464,196,214513,2,0,P|504:132|488:64,2,140,2|0|2,0:0|0:0|0:0,0:0:0
464,196,215675,5,2,0:0:0
464,196,216255,1,2,0:0:0
260,152,216836,2,0,P|300:160,4,35,0|0|0|0|4,0:0|0:0|0:0|0:0|0:0,0:0:0
328,92,217416,6,0,P|244:76,1,83.9999974365235,0|10,0:0|0:0,0:0:0
156,60,217804,1,0,0:0:0
88,120,217997,2,0,P|96:164|84:204,1,83.9999974365235
28,272,218384,1,10,0:0:0
108,320,218578,2,0,P|168:264|260:264,1,167.999994873047
300,336,219158,2,0,P|256:348|212:340,2,83.9999974365235,10|0|0,0:0|0:0|0:0,0:0:0
376,280,219739,6,0,P|380:240|404:200,1,83.9999974365235,0|10,0:0|0:0,0:0:0
440,120,220126,2,0,P|396:40|292:40|292:40,1,167.999994873047
284,132,220707,2,0,P|188:132|132:216|132:216,2,167.999994873047,10|0|10,0:0|0:0|0:0,0:0:0
284,132,221868,1,0,0:0:0
284,132,222062,2,0,P|260:216|280:296,1,167.999994873047
464,276,222836,1,4,0:0:0
372,288,223029,1,10,0:0:0
432,360,223223,1,0,0:0:0
340,372,223416,6,0,P|256:380,1,83.9999974365235,4|0,0:0|0:0,0:0:0
172,344,223804,2,0,P|120:276,1,83.9999974365235,10|0,0:0|0:0,0:0:0
64,204,224191,1,0,0:0:0
56,112,224384,2,0,P|136:140|216:104,1,167.999994873047
300,64,224965,2,0,P|372:20,1,83.9999974365235
304,156,225352,1,10,0:0:0
388,120,225545,2,0,P|468:156,1,83.9999974365235
364,272,225933,6,0,P|396:240|432:232,1,83.9999974365235,0|10,0:0|0:0,0:0:0
284,316,226320,2,0,P|200:332|126:301,1,167.999994873047
188,232,226900,2,0,P|104:196|80:100|80:100,2,167.999994873047,10|0|10,0:0|0:0|0:0,0:0:0
276,200,227868,1,0,0:0:0
372,232,228062,6,0,P|344:148|272:104,1,167.999994873047,0|10,0:0|0:0,0:0:0
276,200,228642,2,0,P|304:284|367:325,1,167.999994873047,0|4,0:0|0:0,0:0:0
460,336,229223,1,10,0:0:0
468,152,229610,6,0,P|428:144|396:112,1,83.9999974365235,4|0,0:0|0:0,0:0:0
364,28,229997,1,10,0:0:0
272,40,230191,1,0,0:0:0
204,104,230384,1,0,0:0:0
192,188,230578,2,0,P|192:280|132:316,1,167.999994873047
52,292,231159,1,0,0:0:0
44,208,231352,2,0,P|132:236,2,83.9999974365235,0|10|0,0:0|0:0|0:0,0:0:0
24,128,231933,1,0,0:0:0
44,208,232126,6,0,P|108:144,1,83.9999974365235,0|10,0:0|0:0,0:0:0
164,92,232513,2,0,P|232:140|312:120,1,167.999994873047
372,180,233094,2,0,P|424:120|428:28,2,167.999994873047,10|0|10,0:0|0:0|0:0,0:0:0
300,236,234062,1,0,0:0:0
216,276,234255,2,0,P|176:284|144:316,2,83.9999974365235,0|0|10,0:0|0:0|0:0,0:0:0
188,188,234836,2,0,P|88:200|52:292|52:292,1,167.999994873047,0|4,0:0|0:0,0:0:0
28,372,235416,1,10,0:0:0
212,356,235804,6,0,P|300:332,1,83.9999974365235,4|0,0:0|0:0,0:0:0
364,276,236191,1,10,0:0:0
384,184,236384,1,0,0:0:0
324,112,236578,2,0,P|284:100|256:64,1,83.9999974365235
168,48,236965,1,10,0:0:0
104,116,237158,2,0,P|124:200|72:260,1,167.999994873047
28,336,237739,2,0,P|0:304|-8:256,2,83.9999974365235,10|0|0,0:0|0:0|0:0,0:0:0
196,320,238320,6,0,P|156:320|120:344,1,83.9999974365235,0|10,0:0|0:0,0:0:0
288,320,238707,2,0,P|372:288|400:220,1,167.999994873047
308,212,239287,2,0,P|320:120|376:68,2,167.999994873047,10|4|10,0:0|0:0|0:0,0:0:0
128,172,240449,6,0,P|64:116|56:36,1,167.999994873047,4|2,0:0|0:0,0:0:0
140,72,241029,2,0,P|204:128|212:208,1,167.999994873047,0|0,0:0|0:0,0:0:0
192,296,241610,2,0,P|180:348,4,41.9999987182618,0|0|0|0|4,0:0|0:0|0:0|0:0|0:0,0:0:0
