osu file format v12

[General]
AudioFilename: usa_servant_of_evil.mp3
AudioLeadIn: 0
PreviewTime: 138154
Countdown: 0
SampleSet: Soft
StackLeniency: 0.7
Mode: 0
LetterboxInBreaks: 1
WidescreenStoryboard: 0

[Editor]
Bookmarks: 20148
DistanceSpacing: 0.8
BeatDivisor: 4
GridSize: 8

[Metadata]
Title:Servant of Evil
TitleUnicode:Servant of Evil
Artist:Usa
ArtistUnicode:Usa
Creator:AcidSnow1
Version:prototype
Source:Nico Nico Douga
Tags:vocaloid vocaloid2 kagamine len akuno akunop aku no meshitsukai niconico niconicodouga nicovideo mothy utaite utattemita
BeatmapID:313550
BeatmapSetID:122629

[Difficulty]
HPDrainRate:6
CircleSize:5
OverallDifficulty:6
ApproachRate:6
SliderMultiplier:1.6
SliderTickRate:1

[Events]
//Background and Video events
0,0,"meshitsukai.jpg",0,0
//Break Periods
2,36598,43098
//Storyboard Layer 0 (Background)
//Storyboard Layer 1 (Fail)
//Storyboard Layer 2 (Pass)
//Storyboard Layer 3 (Foreground)
//Storyboard Sound Samples
//Background Colour Transformations
3,100,255,255,0

[TimingPoints]
20398,500,4,2,0,80,1,0
36398,-100,4,2,0,80,0,0
44398,-100,4,1,0,80,0,0
52398,-100,4,2,0,80,0,0
84398,-100,4,1,0,80,0,0
86398,-100,4,1,0,80,0,1
102398,-100,4,2,0,80,0,0
138398,-100,4,1,0,80,0,1
154398,-100,4,2,0,80,0,0
263396,607.90273556231,4,2,0,80,1,0
265874,610.376398779247,4,2,0,80,1,0
268252,628.272251308901,4,2,0,80,1,0
270756,638.297872340426,4,2,0,80,1,0
274392,500,4,2,0,80,1,0

[HitObjects]
168,136,20148,1,0,0:0:0:0:
168,136,20273,1,0,0:0:0:0:
168,136,20398,2,0,B|224:168|256:216,2,120
168,160,21398,2,0,P|104:192|24:200,2,120
168,128,22398,1,0,0:0:0:0:
248,80,22648,2,0,L|248:128,1,40
328,80,23023,1,0,0:0:0:0:
328,80,23148,1,0,0:0:0:0:
328,160,23398,1,0,0:0:0:0:
328,160,23648,1,8,0:0:0:0:
328,160,23898,2,0,P|296:200|240:208,1,80,8|0,0:0|0:0,0:0:0:0:
256,160,24398,6,0,B|200:176|184:208|136:240,2,120
304,200,25398,1,2,0:0:0:0:
352,240,25648,2,0,P|392:288|392:312,1,80
336,312,26148,2,0,L|224:312,2,80
400,312,26898,2,0,L|480:312,2,80
400,248,27648,1,8,0:0:0:0:
352,208,27898,1,8,0:0:0:0:
296,168,28148,2,0,L|232:168,1,40
224,176,28398,6,0,B|176:208|176:248|152:304,2,120
256,104,29398,1,0,0:0:0:0:
328,96,29773,2,0,B|384:96|400:112|400:176,1,120
352,224,30398,2,0,L|280:224,2,40
392,248,30773,2,0,L|448:248,2,40
352,280,31148,2,0,L|304:280,2,40
296,248,31648,1,8,0:0:0:0:
248,200,31898,1,8,0:0:0:0:
192,240,32148,1,0,0:0:0:0:
168,176,32398,6,0,L|48:176,2,120
232,144,33398,2,0,L|360:144,2,120
176,96,34398,2,0,B|160:136|224:208|224:224,1,120
288,192,35148,2,0,L|368:192,1,80
256,192,35648,12,0,36398,0:0:0:0:
144,112,44148,5,0,0:0:0:0:
144,112,44273,1,0,0:0:0:0:
144,112,44398,1,0,0:0:0:0:
192,64,44648,2,0,L|312:64,2,120,0|8|0,0:0|0:0|0:0,0:0:0:0:
208,88,45648,2,0,L|272:168,2,80,0|8|0,0:0|0:0|0:0,0:0:0:0:
168,144,46398,2,0,L|168:192,2,40
200,144,46773,2,0,L|200:192,2,40
232,144,47148,2,0,L|232:184,2,40
304,168,47648,1,0,0:0:0:0:
296,232,47898,1,8,0:0:0:0:
232,240,48148,1,0,0:0:0:0:
168,216,48398,6,0,P|144:176|152:96,2,120,0|0|0,0:0|0:0|0:0,0:0:0:0:
176,280,49398,1,4,0:0:0:0:
256,192,49898,12,4,51398,0:0:0:0:
256,192,51898,5,8,0:0:0:0:
288,64,52398,5,0,0:0:0:0:
344,64,52648,2,0,L|384:64,1,40
440,72,53148,1,0,0:0:0:0:
440,104,53398,1,0,0:0:0:0:
440,128,53648,2,0,L|440:184,1,40
440,224,54148,1,0,0:0:0:0:
440,288,54398,2,0,L|440:344,2,40
408,288,54773,2,0,L|408:336,2,40
376,288,55148,2,0,L|376:336,2,40
368,224,55648,1,0,0:0:0:0:
320,168,55898,1,8,0:0:0:0:
264,216,56148,1,0,0:0:0:0:
208,160,56398,6,0,L|64:160,2,120
256,104,57398,2,0,B|336:96|384:120|400:144,1,120
424,176,58148,1,0,0:0:0:0:
424,248,58398,2,0,B|408:304|344:328|304:328,1,120
264,304,59023,2,0,L|224:304,1,40
168,248,59398,2,0,L|104:248,4,40,0|0|0|0|8,0:0|0:0|0:0|0:0|0:0,0:0:0:0:
120,128,60398,6,0,L|120:72,2,40
152,128,60773,2,0,L|152:88,2,40
184,128,61148,2,0,L|184:72,2,40
256,88,61648,1,0,0:0:0:0:
328,72,61898,1,2,0:0:0:0:
384,120,62148,1,0,0:0:0:0:
376,200,62398,2,0,B|368:248|256:280,1,120
208,288,63023,1,0,0:0:0:0:
208,288,63148,1,0,0:0:0:0:
152,248,63398,2,0,P|152:184|192:160,1,80
256,152,63898,1,8,0:0:0:0:
160,168,64148,5,0,0:0:0:0:
160,168,64273,1,0,0:0:0:0:
160,168,64398,2,0,B|304:232|248:216|256:248,1,120
320,272,65023,2,0,L|368:240,1,40
320,184,65398,1,0,0:0:0:0:
320,184,65648,1,0,0:0:0:0:
304,96,65898,1,0,0:0:0:0:
200,96,66148,1,0,0:0:0:0:
304,96,66398,1,0,0:0:0:0:
200,96,66648,1,0,0:0:0:0:
304,96,66898,1,0,0:0:0:0:
200,96,67148,1,0,0:0:0:0:
304,96,67398,2,2,B|296:192|304:240|256:240,1,160,2|6,0:0|0:0,0:0:0:0:
200,256,68148,5,0,0:0:0:0:
200,256,68273,1,0,0:0:0:0:
200,256,68398,1,0,0:0:0:0:
288,216,68898,1,2,0:0:0:0:
264,128,69398,2,0,L|104:128,1,160
168,200,70398,2,0,B|168:248|200:288|264:312,2,120
192,184,71398,2,0,L|368:160,1,160,0|4,0:0|0:0,0:0:0:0:
368,224,72148,5,0,0:0:0:0:
368,224,72273,1,0,0:0:0:0:
368,224,72398,1,0,0:0:0:0:
280,272,72898,1,2,0:0:0:0:
192,224,73398,2,0,B|144:168|176:120|216:104,2,120
224,200,74398,2,0,P|304:200|360:208,2,120
160,176,75398,1,0,0:0:0:0:
128,120,75648,1,8,0:0:0:0:
152,64,75898,1,12,0:0:0:0:
216,48,76148,5,0,0:0:0:0:
216,48,76273,1,0,0:0:0:0:
216,48,76398,2,0,B|288:48|320:48|344:64|352:104,1,160
368,160,77398,2,0,B|360:248|344:272|296:280,1,120
256,272,78148,1,0,0:0:0:0:
192,264,78398,2,0,B|192:200|192:176|232:176|176:160,2,120
128,232,79398,1,0,0:0:0:0:
96,176,79648,1,8,0:0:0:0:
104,112,79898,1,8,0:0:0:0:
144,64,80148,1,0,0:0:0:0:
208,48,80398,6,0,B|272:40|288:48|296:56|320:72|344:40|368:40,1,160
384,152,81398,2,0,L|384:288,2,120
360,128,82398,2,0,B|296:160|272:176|280:224|280:200|336:216|304:280,1,160
288,272,83148,1,0,0:0:0:0:
256,192,83398,12,0,84148,0:0:0:0:
256,192,84398,6,0,L|384:192,1,120,4|4,0:0|0:0,0:0:0:0:
256,192,85148,1,4,0:0:0:0:
136,192,85648,5,8,0:0:0:0:
136,192,85773,1,8,0:0:0:0:
136,192,85898,1,8,0:0:0:0:
192,96,86148,5,0,0:0:0:0:
192,96,86273,1,0,0:0:0:0:
192,96,86398,2,0,L|320:96,2,120,0|8|0,0:0|0:0|0:0,0:0:0:0:
160,96,87398,1,0,0:0:0:0:
136,160,87898,2,0,B|176:208|136:200|136:224|160:240,1,80,8|0,0:0|0:0,0:0:0:0:
136,248,88398,5,0,0:0:0:0:
200,248,88648,1,0,0:0:0:0:
200,248,88773,1,8,0:0:0:0:
264,248,89023,1,0,0:0:0:0:
264,248,89148,1,8,0:0:0:0:
264,248,89273,1,0,0:0:0:0:
264,248,89398,2,0,L|352:248,1,80,0|8,0:0|0:0,0:0:0:0:
344,184,89898,2,0,L|256:184,1,80,2|0,0:0|0:0,0:0:0:0:
200,184,90398,6,0,B|128:160|120:128|144:96|200:112|184:104,2,120,0|8|0,0:0|0:0|0:0,0:0:0:0:
264,184,91398,1,0,0:0:0:0:
392,184,91898,2,0,L|392:96,1,80,8|0,0:0|0:0,0:0:0:0:
328,80,92398,2,0,B|264:88|232:80|224:96,1,80
192,104,92898,1,8,0:0:0:0:
232,168,93148,1,0,0:0:0:0:
192,232,93398,1,2,0:0:0:0:
152,168,93648,1,4,0:0:0:0:
152,168,93773,1,4,0:0:0:0:
152,168,93898,1,4,0:0:0:0:
120,40,94148,5,0,0:0:0:0:
120,40,94273,1,0,0:0:0:0:
120,40,94398,1,0,0:0:0:0:
248,40,94898,2,0,B|296:40|304:72|320:40|328:72|344:40,2,80,0|8|0,0:0|0:0|0:0,0:0:0:0:
248,104,95648,2,0,B|296:104|304:136|320:104|328:136|344:104,2,80,0|8|0,0:0|0:0|0:0,0:0:0:0:
216,168,96398,2,2,L|184:216,2,40
248,168,96773,2,2,L|248:224,2,40
280,168,97148,2,2,L|312:208,2,40
344,160,97648,1,0,0:0:0:0:
400,192,97898,1,8,0:0:0:0:
376,208,98023,1,0,0:0:0:0:
352,232,98148,1,0,0:0:0:0:
328,248,98273,1,0,0:0:0:0:
304,264,98398,6,0,B|232:272|192:248|152:288,2,120
280,200,99398,1,0,0:0:0:0:
208,136,99773,1,8,0:0:0:0:
152,208,100148,1,0,0:0:0:0:
152,272,100398,2,0,L|296:272,1,120
256,192,101023,12,4,101898,0:0:0:0:
