osu file format v14

[General]
AudioFilename: audio.mp3
AudioLeadIn: 1000
PreviewTime: 116833
Countdown: 0
SampleSet: Soft
StackLeniency: 0.4
Mode: 0
LetterboxInBreaks: 0
WidescreenStoryboard: 1

[Editor]
Bookmarks: 66528
DistanceSpacing: 1.1
BeatDivisor: 4
GridSize: 4
TimelineZoom: 1

[Metadata]
Title:Jougen no Tsuki
TitleUnicode:上弦の月
Artist:Usa
ArtistUnicode:うさ
Creator:jonathanlfj
Version:Easy
Source:
Tags:黒うさP feat. はな KurousaP feat. Hana Shurelia Shad0w1and Delis Trust Giralda apaffy captin1 waning moon KAITO V3 黒うさP Senbonzakura 千本桜 5th ANNIVERSARY BEST 妖艶和奏絵巻 一斗まる 倉内達矢 gram6design
BeatmapID:1608963
BeatmapSetID:546794

[Difficulty]
HPDrainRate:2
CircleSize:3
OverallDifficulty:2
ApproachRate:3
SliderMultiplier:1.5
SliderTickRate:2

[Events]
//Background and Video events
0,0,"jougen.jpg",0,0
Video,0,"asdf.avi"
//Break Periods
2,71118,80454
//Storyboard Layer 0 (Background)
//Storyboard Layer 1 (Fail)
//Storyboard Layer 2 (Pass)
//Storyboard Layer 3 (Foreground)
//Storyboard Sound Samples

[TimingPoints]
675,731.707317073171,4,2,1,50,1,0
11650,-100,4,2,1,20,0,0
12382,-100,4,2,1,50,0,0
35796,-100,4,2,1,60,0,0
46040,-100,4,2,1,70,0,0
47504,-90.9090909090909,4,2,1,80,0,1
70918,-100,4,2,1,50,0,0
85370,-100,4,2,1,30,0,0
85553,-100,4,2,1,50,0,0
88296,-100,4,2,1,30,0,0
88479,-100,4,2,1,50,0,0
91223,-100,4,2,1,30,0,0
91406,-100,4,2,1,50,0,0
94150,-100,4,2,1,50,0,0
94516,-100,4,2,1,50,0,0
94973,-100,4,2,1,5,0,0
95065,-100,4,2,1,50,0,0
97077,-100,4,2,1,30,0,0
97260,-100,4,2,1,50,0,0
100004,-100,4,2,1,30,0,0
100187,-100,4,2,1,50,0,0
102931,-100,4,2,1,30,0,0
103114,-100,4,2,1,50,0,0
106040,-100,4,2,1,60,0,0
116284,-100,4,2,1,70,0,0
117748,-90.9090909090909,4,2,1,80,0,1
141162,731.707317073171,3,2,1,70,1,0
141162,-100,3,2,1,70,0,0
157625,-100,3,2,1,80,0,0
158722,731.707317073171,4,2,1,60,1,0
158722,-100,4,2,1,60,0,0
159453,-95.2380952380952,4,2,1,70,0,0
170246,-95.2380952380952,4,2,1,70,0,0
176282,-95.2380952380952,4,2,1,50,0,0
177014,-95.2380952380952,4,2,1,55,0,0
177746,-95.2380952380952,4,2,1,60,0,0
178478,-95.2380952380952,4,2,1,65,0,0
179209,-90.9090909090909,4,2,1,70,0,0
179575,-90.9090909090909,4,2,1,40,0,0
179941,-90.9090909090909,4,2,1,45,0,0
180307,-90.9090909090909,4,2,1,50,0,0
180673,-90.9090909090909,4,2,1,55,0,0
181039,-90.9090909090909,4,2,1,60,0,0
181404,-90.9090909090909,4,2,1,65,0,0
181770,-90.9090909090909,4,2,1,70,0,0
182136,-90.9090909090909,4,2,1,80,0,0
182868,-86.9565217391304,4,2,1,80,0,1
187990,-86.9565217391304,4,2,1,30,0,0
188722,-86.9565217391304,4,2,1,80,0,1
189453,-86.9565217391304,4,2,1,30,0,0
190185,-86.9565217391304,4,2,1,80,0,1
190917,-86.9565217391304,4,2,1,80,0,1
193295,-86.9565217391304,4,2,1,80,0,1
193661,-86.9565217391304,4,2,1,80,0,1
205551,-95.2380952380952,4,2,1,70,0,0
223112,-95.2380952380952,4,2,1,40,0,0
223843,-95.2380952380952,4,2,1,50,0,0
224575,-95.2380952380952,4,2,1,60,0,0
225307,-95.2380952380952,4,2,1,70,0,0
227502,-95.2380952380952,4,2,1,20,0,0
235002,-95.2380952380952,4,2,1,5,0,0

[Colours]
Combo1 : 167,167,167
Combo2 : 251,17,17
Combo3 : 254,106,18
Combo4 : 247,201,64
Combo5 : 237,24,184
Combo6 : 58,80,228
Combo7 : 80,188,220
Combo8 : 105,104,88

[HitObjects]
113,306,675,6,0,P|201:290|265:294,1,150,2|2,0:0|0:0,0:0:0:0:
338,322,1772,2,0,L|374:154,1,150,0|0,0:0|0:0,0:0:0:0:
329,102,2870,1,2,0:0:0:0:
202,207,3601,6,0,P|137:210|73:150,1,150,2|2,0:0|0:0,0:0:0:0:
80,74,4699,2,0,P|144:36|224:52,1,150
280,98,5796,2,0,P|328:90|365:92,1,75,2|0,0:0|0:0,0:0:0:0:
419,141,6528,54,0,L|410:298,1,150,2|2,0:0|0:0,0:0:0:0:
334,323,7626,2,0,B|289:300|289:300|170:315,1,150,0|0,0:0|0:0,0:0:0:0:
109,327,8723,1,0,0:0:0:0:
211,197,9455,101,2,0:0:0:0:
100,74,10187,1,2,0:0:0:0:
49,139,10553,2,0,B|81:162|125:161|155:136|155:136|186:109|232:108|260:130,1,225,2|0,0:0|0:0,0:0:0:0:
365,253,12382,86,0,L|447:248,2,75,2|0|2,0:0|0:0|0:0,0:0:0:0:
294,295,13479,1,0,0:0:0:0:
222,336,13845,2,0,P|197:294|207:184,1,150,2|0,0:0|0:0,0:0:0:0:
326,88,15309,22,0,P|363:99|411:99,1,75,2|0,0:0|0:0,0:0:0:0:
477,75,16040,2,0,L|481:153,1,75,0|2,0:0|0:0,0:0:0:0:
436,219,16772,2,0,P|362:204|273:224,1,150,2|0,0:0|0:0,0:0:0:0:
222,265,17870,1,2,0:0:0:0:
158,316,18235,54,0,P|120:318|66:304,2,75,2|0|2,0:0|0:0|0:0,0:0:0:0:
222,265,19333,1,0,0:0:0:0:
180,193,19699,2,0,P|98:191|45:243,1,150,2|2,0:0|0:0,0:0:0:0:
27,70,21162,6,0,P|77:81|112:79,1,75,2|0,0:0|0:0,0:0:0:0:
175,45,21894,2,0,P|219:40|262:47,1,75,2|0,0:0|0:0,0:0:0:0:
307,102,22626,2,0,L|300:268,1,150,2|2,0:0|0:0,0:0:0:0:
367,299,23723,1,0,0:0:0:0:
441,263,24089,38,0,P|464:204|433:108,1,150,2|2,0:0|0:0,0:0:0:0:
374,77,25187,1,0,0:0:0:0:
304,121,25553,2,0,B|270:132|232:123|232:123|192:113|154:127,1,150,2|2,0:0|0:0,0:0:0:0:
44,247,27016,6,0,P|39:292|52:333,2,75,2|0|0,0:0|0:0|0:0,0:0:0:0:
119,281,28114,1,2,0:0:0:0:
192,317,28479,2,0,L|286:307,1,75,2|2,0:0|0:0,0:0:0:0:
337,351,29211,2,0,L|431:341,1,75,2|2,0:0|0:0,0:0:0:0:
476,292,29943,22,0,P|490:229|450:148,1,150,2|2,0:0|0:0,0:0:0:0:
374,139,31040,1,0,0:0:0:0:
301,177,31406,2,0,P|287:240|327:321,1,150,2|2,0:0|0:0,0:0:0:0:
162,362,32870,6,0,P|177:314|178:263,1,75,2|0,0:0|0:0,0:0:0:0:
150,212,33601,2,0,P|110:181|62:163,1,75,2|0,0:0|0:0,0:0:0:0:
5,168,34333,2,0,L|23:16,1,150,2|8,0:0|0:3,0:0:0:0:
101,42,35431,1,8,0:3:0:0:
180,64,35796,38,0,L|267:55,2,75,12|8|0,0:0|0:0|0:0,0:0:0:0:
118,217,37260,1,2,0:0:0:0:
180,64,37992,1,8,0:1:0:0:
118,217,38723,6,0,L|125:296,1,75,8|8,0:0|0:0,0:0:0:0:
194,335,39455,2,0,B|250:346|294:317|294:317|315:328|338:325,1,150,0|2,0:0|0:0,0:0:0:0:
456,210,40918,2,0,P|445:161|447:119,1,75,8|8,0:1|0:3,0:0:0:0:
404,63,41650,6,0,P|370:45|334:35,2,75,12|12|0,0:0|0:0|0:0,0:0:0:0:
310,199,43114,1,10,0:0:0:0:
404,63,43845,1,8,0:1:0:0:
310,199,44577,86,0,L|225:205,1,75,12|12,0:0|0:0,0:0:0:0:
162,166,45309,2,0,L|120:168,2,37.5,8|8|8,0:1|0:1|0:3,0:0:0:0:
232,122,46040,1,8,1:3:0:0:
302,78,46406,1,8,1:3:0:0:
302,78,47504,102,0,B|318:123|318:123|301:256,1,165.000005035401,12|8,0:0|1:0,0:0:0:0:
239,291,48601,1,2,0:0:0:0:
166,251,48967,2,0,L|71:242,1,82.5000025177003,8|10,0:0|0:0,0:0:0:0:
86,325,49699,2,0,L|168:332,1,82.5000025177003,8|2,1:0|0:0,0:0:0:0:
239,291,50431,54,0,P|259:220|222:117,1,165.000005035401,10|8,0:0|1:0,0:0:0:0:
155,111,51528,1,2,0:0:0:0:
85,154,51894,2,0,P|77:205|86:245,2,82.5000025177003,8|10|8,0:0|0:0|1:0,0:0:0:0:
155,111,52992,1,0,0:0:0:0:
235,134,53357,54,0,L|350:127,1,82.5000025177003,8|10,0:0|0:0,0:0:0:0:
392,164,54089,1,8,1:0:0:0:
268,273,54821,2,0,L|153:266,1,82.5000025177003,10|0,0:0|0:0,0:0:0:0:
111,303,55553,1,8,1:0:0:0:
51,149,56284,102,0,L|148:140,1,82.5000025177003,8|10,0:0|0:0,0:0:0:0:
187,79,57016,2,0,L|275:112,1,82.5000025177003,8|0,1:0|0:0,0:0:0:0:
344,86,57748,2,0,L|402:252,1,165.000005035401,10|8,0:0|1:0,0:0:0:0:
366,317,58845,1,2,0:0:0:0:
286,296,59211,6,0,B|233:282|233:282|106:313,1,165.000005035401,12|8,0:0|1:0,0:0:0:0:
61,256,60309,1,2,0:0:0:0:
4,195,60675,2,0,L|14:103,1,82.5000025177003,8|10,0:0|0:0,0:0:0:0:
79,64,61406,2,0,L|171:74,1,82.5000025177003,8|0,1:0|0:0,0:0:0:0:
221,129,62138,86,0,B|240:166|240:166|234:230|188:274,1,165.000005035401,10|8,0:0|1:0,0:0:0:0:
106,287,63235,1,0,0:0:0:0:
157,351,63601,2,0,P|204:354|246:335,1,82.5000025177003,10|10,0:0|0:0,0:0:0:0:
316,361,64333,2,0,P|342:321|346:275,1,82.5000025177003,8|8,1:0|0:0,0:0:0:0:
411,234,65065,54,0,P|390:191|352:164,1,82.5000025177003,10|8,0:0|0:0,0:0:0:0:
281,156,65796,1,8,1:0:0:0:
365,14,66528,2,0,P|386:57|424:84,1,82.5000025177003,10|8,0:0|0:0,0:0:0:0:
495,92,67259,1,8,1:0:0:0:
411,234,67992,86,0,L|326:246,1,82.5000025177003,12|8,0:0|0:0,0:0:0:0:
264,193,68723,2,0,L|159:183,1,82.5000025177003,8|12,1:0|1:0,0:0:0:0:
117,238,69455,2,0,B|86:210|45:201|45:201|70:163|62:122|62:122|105:130|144:111,1,247.500007553101,8|8,0:0|0:3,0:0:0:0:
181,185,70918,37,2,0:0:0:0:
398,253,81894,118,0,L|404:296,2,37.5,8|8|8,0:0|0:0|1:0,0:0:0:0:
339,194,82626,6,0,P|264:180|193:219,1,150,4|8,0:0|0:1,0:0:0:0:
171,289,83723,1,2,0:0:0:0:
117,225,84089,2,0,P|67:215|23:219,2,75,2|8|8,0:0|0:0|0:1,0:0:0:0:
229,345,85553,86,0,B|270:346|302:328|302:328|320:294|360:285,1,150,10|8,0:0|0:1,0:0:0:0:
441,283,86650,1,2,0:0:0:0:
489,216,87016,2,0,P|492:165|486:130,1,75,2|10,0:0|0:0,0:0:0:0:
426,86,87748,2,0,L|329:97,1,75,8|2,0:1|0:0,0:0:0:0:
291,150,88479,54,0,P|213:154|143:122,1,150,8|8,0:0|0:1,0:0:0:0:
67,140,89577,1,0,0:0:0:0:
28,213,89943,2,0,L|23:289,2,75,2|8|8,0:0|0:0|0:1,0:0:0:0:
109,69,91406,6,0,P|149:59|206:66,1,75,8|10,0:0|0:0,0:0:0:0:
248,110,92138,2,0,L|253:186,1,75,8|2,0:1|0:0,0:0:0:0:
202,250,92870,2,0,P|281:230|358:250,1,150,2|8,0:0|0:1,0:0:0:0:
407,189,93967,1,0,0:0:0:0:
351,128,94333,22,0,B|312:113|276:123|276:123|241:135|203:120,1,150,2|12,0:0|0:1,0:0:0:0:
65,31,95796,2,0,L|16:35,2,37.5,12|8|8,0:0|0:1|0:0,0:0:0:0:
132,79,96528,2,0,P|121:115|129:155,1,75,8|0,0:1|0:0,0:0:0:0:
193,202,97260,6,0,P|122:190|36:221,1,150,10|8,0:0|0:1,0:0:0:0:
8,284,98357,1,2,0:0:0:0:
54,351,98723,2,0,L|128:343,1,75,2|8,0:0|0:0,0:0:0:0:
198,297,99455,2,0,L|276:305,1,75,8|0,0:1|0:0,0:0:0:0:
337,356,100187,6,0,P|419:359|467:306,2,150,8|8|2,0:0|0:1|0:0,0:0:0:0:
272,304,102016,1,8,0:0:0:0:
264,221,102382,2,0,P|280:184|317:158,1,75,8|0,0:1|0:0,0:0:0:0:
388,153,103114,85,12,0:0:0:0:
229,106,103845,1,12,0:0:0:0:
391,78,104577,2,0,L|387:166,1,75,12|8,0:0|1:3,0:0:0:0:
331,213,105309,2,0,L|338:294,1,75,8|8,1:3|1:3,0:0:0:0:
282,349,106040,5,12,0:0:0:0:
282,349,106406,1,12,0:0:0:0:
282,349,107870,2,0,B|209:360|209:360|169:342,1,112.5,12|12,0:0|0:0,0:0:0:0:
81,262,108967,21,12,0:0:0:0:
81,262,109333,1,12,0:0:0:0:
81,262,110796,2,0,B|55:229|61:192|61:192|92:163,1,112.5,12|12,0:0|0:0,0:0:0:0:
203,119,111894,69,12,0:0:0:0:
203,119,112260,1,12,0:0:0:0:
203,119,113723,2,0,B|241:111|277:125|277:125|315:112,1,112.5,12|12,0:0|0:0,0:0:0:0:
423,57,114821,6,0,P|435:104|433:135,1,75,12|8,0:0|0:1,0:0:0:0:
394,202,115553,2,0,L|398:252,2,37.5,8|8|8,0:3|0:3|0:3,0:0:0:0:
315,175,116284,1,8,1:0:0:0:
252,228,116650,1,8,1:0:0:0:
173,201,117016,2,0,P|142:162|155:67,1,150,8|12,0:1|0:0,0:0:0:0:
224,23,118114,5,8,0:0:0:0:
298,57,118479,2,0,L|479:49,1,165.000005035401,12|8,1:0|0:0,0:0:0:0:
506,119,119577,1,10,0:0:0:0:
443,172,119943,2,0,L|342:177,1,82.5000025177003,8|2,1:0|0:0,0:0:0:0:
285,140,120675,6,0,P|282:205|361:259,1,165.000005035401,10|8,0:0|1:0,0:0:0:0:
398,330,121772,1,2,0:0:0:0:
315,334,122138,2,0,P|261:308|236:283,1,82.5000025177003,8|10,0:0|0:0,0:0:0:0:
199,223,122870,2,0,P|194:170|199:130,1,82.5000025177003,8|0,1:0|0:0,0:0:0:0:
241,71,123601,86,0,L|336:66,1,82.5000025177003,8|2,0:0|0:0,0:0:0:0:
387,118,124333,1,8,1:0:0:0:
237,186,125065,2,0,L|142:181,1,82.5000025177003,10|0,0:0|0:0,0:0:0:0:
91,233,125797,1,8,1:0:0:0:
243,294,126528,6,0,B|282:283|282:283|334:289,1,82.5000025177003,10|10,0:0|0:0,0:0:0:0:
402,314,127260,2,0,L|412:211,1,82.5000025177003,8|2,1:0|0:0,0:0:0:0:
365,161,127992,2,0,B|307:153|307:153|259:168|259:168|202:162,1,165.000005035401,8|8,0:0|1:0,0:0:0:0:
135,115,129089,1,0,0:0:0:0:
69,64,129455,70,0,B|88:108|88:108|68:229,1,165.000005035401,12|8,0:0|1:0,0:0:0:0:
107,296,130553,1,2,0:0:0:0:
180,332,130918,2,0,P|252:322|289:327,1,82.5000025177003,8|10,0:0|0:0,0:0:0:0:
326,271,131650,2,0,P|383:281|419:278,1,82.5000025177003,8|0,1:0|0:0,0:0:0:0:
469,334,132382,102,0,P|451:264|468:167,1,165.000005035401,10|8,0:0|1:0,0:0:0:0:
414,108,133479,1,0,0:0:0:0:
343,150,133845,2,0,P|328:197|328:236,2,82.5000025177003,10|10|8,0:0|0:0|1:0,0:0:0:0:
414,108,134943,1,8,0:0:0:0:
378,33,135309,22,0,P|331:14|285:10,1,82.5000025177003,10|8,0:0|0:0,0:0:0:0:
226,48,136040,1,8,1:0:0:0:
152,196,136772,2,0,P|199:177|245:173,1,82.5000025177003,10|10,0:0|0:0,0:0:0:0:
304,211,137503,1,8,1:0:0:0:
185,325,138235,102,0,P|144:328|87:317,1,82.5000025177003,12|8,0:0|0:3,0:0:0:0:
46,261,138967,2,0,L|5:264,2,41.2500012588501,8|8|12,1:0|0:0|1:0,0:0:0:0:
94,193,139699,2,0,B|121:165|167:160|167:160|193:193|238:202|238:202|277:183|330:188,1,247.500007553101,10|8,0:0|0:3,0:0:0:0:
391,226,141162,70,0,L|476:228,2,75,12|2|8,0:0|0:0|0:1,0:0:0:0:
317,187,142259,2,0,L|276:112,2,75,10|2|8,0:0|0:0|0:1,0:0:0:0:
321,270,143357,2,0,L|276:342,2,75,10|10|8,0:0|0:0|0:1,0:0:0:0:
391,227,144454,1,10,0:0:0:0:
154,153,145552,54,0,P|117:156|75:182,2,75,12|10|8,0:0|0:0|0:1,0:0:0:0:
140,234,146649,2,0,P|161:264|204:287,2,75,2|2|8,0:0|0:0|0:1,0:0:0:0:
217,205,147747,2,0,P|232:171|231:122,2,75,10|10|8,0:0|0:0|0:1,0:0:0:0:
154,153,148844,1,8,0:1:0:0:
392,85,149942,38,0,B|428:74|428:74|484:85,2,75,12|10|8,0:0|0:0|0:1,0:0:0:0:
394,167,151040,2,0,B|385:203|385:203|348:246,2,75,2|2|8,0:0|0:0|0:1,0:0:0:0:
321,127,152137,2,0,B|293:101|293:101|275:47,2,75,2|10|8,0:0|0:0|0:1,0:0:0:0:
392,85,153235,1,10,0:0:0:0:
256,179,153966,53,8,0:1:0:0:
194,123,154332,2,0,P|173:183|216:253,1,150,12|8,0:0|0:1,0:0:0:0:
298,251,155430,2,0,P|338:190|312:117,1,150,12|8,0:0|0:1,0:0:0:0:
256,179,156527,22,0,P|216:189|160:182,1,75,10|8,0:0|0:3,0:0:0:0:
109,148,157259,1,8,0:3:0:0:
169,91,157625,2,0,P|209:81|265:88,1,75,8|8,3:3|3:3,0:0:0:0:
316,121,158357,1,8,3:3:0:0:
256,179,158722,38,2,B|243:212|243:212|261:248|261:248|247:285|256:321,1,150,2|12,0:1|1:0,1:0:0:0:
428,300,160185,2,2,P|443:255|442:216,1,78.7499975967408,2|2,0:1|0:1,1:0:0:0:
411,143,160917,2,2,P|370:147|326:139,1,78.7499975967408,10|2,0:1|0:1,1:0:0:0:
270,81,161648,102,0,P|183:87|143:142,1,157.499995193482,2|8,0:1|0:1,0:0:0:0:
158,224,162746,1,8,0:0:0:0:
231,270,163112,2,0,B|271:278|309:263|309:263|347:250|387:262,1,157.499995193482,8|8,0:0|0:1,0:0:0:0:
348,340,164209,1,8,0:0:0:0:
263,360,164575,102,2,P|225:358|163:338,1,78.7499975967408,2|2,0:1|0:1,1:0:0:0:
120,290,165307,2,0,L|132:114,1,157.499995193482,10|10,0:1|0:0,0:0:0:0:
196,76,166404,1,0,0:0:0:0:
269,122,166770,2,2,L|368:126,1,78.7499975967408,10|2,0:1|0:1,1:0:0:0:
423,82,167502,5,2,0:0:0:0:
309,212,168234,1,10,0:1:0:0:
475,260,168965,2,0,L|482:168,1,78.7499975967408,2|4,0:0|0:1,0:0:0:0:
395,196,169697,2,0,L|389:274,1,78.7499975967408,8|8,0:1|0:0,0:0:0:0:
305,296,170429,86,0,B|257:292|229:275|229:275|202:284|177:285,1,118.124996395111,6|12,0:1|0:0,0:0:0:0:
102,190,171526,2,2,B|130:159|172:157|172:157|208:176|248:166|248:166|269:130|250:88,1,236.249992790222,6|10,0:1|0:1,1:0:0:0:
91,23,173356,22,0,P|61:31|27:55,2,52.4999983978272,8|6|2,0:1|0:1|0:0,0:0:0:0:
131,63,174087,2,0,P|123:92|126:134,2,52.4999983978272,6|8|10,0:1|0:1|0:1,0:0:0:0:
188,56,174819,2,2,P|241:126|321:140,1,157.499995193482,0|8,0:0|0:1,1:0:0:0:
390,124,175917,1,8,0:3:0:0:
364,206,176282,6,0,L|378:304,1,78.7499975967408,8|8,0:0|0:3,0:0:0:0:
310,342,177014,2,0,L|212:325,1,78.7499975967408,8|8,0:3|0:3,0:0:0:0:
150,357,177746,2,0,L|131:257,1,78.7499975967408,8|8,0:1|0:1,0:0:0:0:
117,195,178478,1,10,0:1:0:0:
200,221,178843,1,8,0:1:0:0:
262,159,179209,38,0,B|230:115|173:92|173:92|264:29|363:66|416:158|399:263|298:310|298:310|307:248|285:200,1,660.000020141602,6|2,0:1|0:0,1:0:0:0:
113,182,182868,102,0,P|125:267|198:324,1,172.500003290176,12|10,1:0|0:0,0:0:0:0:
274,317,183965,1,8,0:0:0:0:
336,257,184331,2,0,B|358:273|389:275|389:275|381:305|395:333|395:333|367:341|347:363,1,172.500003290176,8|12,0:1|0:0,0:0:0:0:
274,317,185429,21,8,0:0:0:0:
253,233,185795,2,0,L|267:128,1,86.2500016450882,12|8,0:1|0:1,0:0:0:0:
336,100,186526,2,0,P|390:99|436:117,2,86.2500016450882,10|10|8,0:0|0:0|1:0,0:0:0:0:
264,147,187624,1,8,0:3:0:0:
180,126,187990,101,0,0:0:0:0:
100,279,188722,1,12,0:1:0:0:
54,205,189087,22,0,P|99:193|144:204,1,86.2500016450882,8|0,0:1|0:0,0:0:0:0:
255,327,190185,85,12,0:1:0:0:
276,243,190551,1,8,0:1:0:0:
193,267,190917,22,0,P|173:307|173:357,1,86.2500016450882,12|10,0:0|0:0,0:0:0:0:
255,327,191648,2,0,L|340:320,1,86.2500016450882,12|8,0:1|0:1,0:0:0:0:
394,251,192380,2,0,P|405:196|298:171,1,172.500003290176,10|8,0:0|1:1,0:0:0:0:
186,275,193843,70,0,P|157:240|143:187,1,86.2500016450882,12|8,0:0|0:0,0:0:0:0:
169,119,194575,2,0,P|113:147|24:88,1,172.500003290176,12|10,1:0|0:0,0:0:0:0:
106,61,195673,1,8,0:0:0:0:
188,35,196039,2,0,L|283:41,1,86.2500016450882,12|8,0:1|0:1,0:0:0:0:
333,102,196770,6,0,P|339:147|324:188,1,86.2500016450882,12|8,0:0|0:0,0:0:0:0:
261,242,197502,2,0,B|302:227|345:246|345:246|385:263|431:253,1,172.500003290176,8|10,1:0|0:0,0:0:0:0:
498,201,198600,1,10,0:0:0:0:
441,136,198965,2,0,L|439:42,1,86.2500016450882,8|8,1:0|0:0,0:0:0:0:
360,13,199697,22,0,B|317:6|317:6|266:19,1,86.2500016450882,12|8,0:0|0:0,0:0:0:0:
216,79,200429,1,8,1:0:0:0:
330,208,201161,2,0,B|373:215|373:215|424:202,1,86.2500016450882,12|8,0:0|0:1,0:0:0:0:
451,182,201709,2,0,B|436:245|436:245|450:320,1,129.375002467632,12|8,0:0|0:1,0:0:0:0:
374,354,202624,5,10,0:0:0:0:
309,296,202990,1,8,0:1:0:0:
233,337,203356,2,0,P|190:346|132:340,1,86.2500016450882,10|8,0:0|0:1,0:0:0:0:
71,304,204087,2,0,B|76:263|59:220|59:220|70:176|109:152|109:152|145:173|191:172,1,258.750004935265,2|8,0:0|0:0,0:0:0:0:
274,144,205551,86,0,P|298:199|283:305,1,157.499995193482,12|8,0:0|0:1,0:0:0:0:
219,345,206648,2,0,L|386:335,1,157.499995193482,2|8,0:0|0:0,0:0:0:0:
452,294,207746,1,8,0:1:0:0:
313,190,208478,102,0,P|245:185|164:222,1,157.499995193482,10|8,0:0|0:1,0:0:0:0:
79,205,209575,2,0,P|42:114|57:52,1,157.499995193482,2|8,0:0|0:0,0:0:0:0:
129,16,210673,2,0,L|217:27,1,78.7499975967408,8|8,0:1|0:0,0:0:0:0:
258,95,211404,53,10,0:0:0:0:
209,261,212136,1,8,0:1:0:0:
139,208,212502,2,0,P|213:176|289:226,1,157.499995193482,2|8,0:0|0:0,0:0:0:0:
290,294,213600,2,0,L|384:285,1,78.7499975967408,8|0,0:1|0:0,0:0:0:0:
454,276,214331,85,10,0:0:0:0:
364,127,215063,1,8,0:1:0:0:
425,65,215429,2,0,P|450:122|406:204,1,157.499995193482,8|8,0:1|0:1,0:0:0:0:
322,204,216526,2,0,L|336:252,2,39.3749987983704,2|8|10,0:0|0:3|0:0,0:0:0:0:
364,128,217258,5,12,0:0:0:0:
201,188,217990,2,0,P|139:182|107:161,1,78.7499975967408,12|0,0:1|0:0,0:0:0:0:
176,104,218722,1,10,0:0:0:0:
252,259,219453,2,0,P|257:299|249:342,1,78.7499975967408,8|0,0:1|0:0,0:0:0:0:
173,297,220185,6,0,P|120:298|90:308,2,78.7499975967408,12|10|12,0:0|0:0|0:1,0:0:0:0:
252,259,221282,1,2,0:0:0:0:
331,294,221648,2,0,P|357:221|330:149,1,157.499995193482,12|8,0:0|0:1,0:0:0:0:
256,103,222746,1,8,0:0:0:0:
217,180,223112,22,0,P|162:191|113:179,1,78.7499975967408,12|8,0:0|0:3,0:0:0:0:
92,116,223843,2,0,P|147:105|196:117,1,78.7499975967408,8|8,0:3|0:3,0:0:0:0:
256,103,224575,22,0,L|270:17,1,78.7499975967408,8|8,0:1|0:1,0:0:0:0:
344,69,225307,2,0,L|331:146,1,78.7499975967408,8|8,0:1|0:1,0:0:0:0:
416,163,226039,70,0,P|380:219|329:232,1,118.124996395111,12|8,0:3|0:3,0:0:0:0:
256,192,226953,2,0,L|203:198,2,39.3749987983704,8|8|12,1:0|1:0|0:0,0:0:0:0:
256,192,227502,12,0,235002,0:0:0:0:
