osu file format v14

[General]
AudioFilename: audio.mp3
AudioLeadIn: 1000
PreviewTime: 116833
Countdown: 0
SampleSet: Soft
StackLeniency: 0.5
Mode: 0
LetterboxInBreaks: 0
WidescreenStoryboard: 0

[Editor]
DistanceSpacing: 1
BeatDivisor: 8
GridSize: 4
TimelineZoom: 2.6

[Metadata]
Title:Jougen no Tsuki
TitleUnicode:上弦の月
Artist:Usa
ArtistUnicode:うさ
Creator:jonathanlfj
Version:Countless
Source:
Tags:黒うさP feat. はな KurousaP feat. Hana Shurelia Shad0w1and Delis Trust Giralda apaffy captin1 waning moon KAITO V3 黒うさP Senbonzakura 千本桜 5th ANNIVERSARY BEST 妖艶和奏絵巻 一斗まる 倉内達矢 gram6design
BeatmapID:1158162
BeatmapSetID:546794

[Difficulty]
HPDrainRate:6.7
CircleSize:4
OverallDifficulty:8
ApproachRate:9
SliderMultiplier:1.8
SliderTickRate:2

[Events]
//Background and Video events
0,0,"jougen.jpg",0,0
Video,0,"asdf.avi"
//Break Periods
2,71118,81294
//Storyboard Layer 0 (Background)
//Storyboard Layer 1 (Fail)
//Storyboard Layer 2 (Pass)
//Storyboard Layer 3 (Foreground)
//Storyboard Sound Samples

[TimingPoints]
675,731.707317073171,4,2,1,50,1,0
675,-71.4285714285714,4,2,1,50,0,0
10918,-133.333333333333,4,2,1,50,0,0
11650,-133.333333333333,4,2,1,20,0,0
12382,-71.4285714285714,4,2,1,50,0,0
35796,-62.5,4,2,1,60,0,0
46040,-62.5,4,2,1,70,0,0
47504,-52.6315789473684,4,2,1,80,0,1
70918,-71.4285714285714,4,2,1,50,0,0
82626,-66.6666666666667,4,2,1,50,0,0
85370,-66.6666666666667,4,2,1,30,0,0
85553,-66.6666666666667,4,2,1,50,0,0
88296,-66.6666666666667,4,2,1,30,0,0
88479,-66.6666666666667,4,2,1,50,0,0
91223,-66.6666666666667,4,2,1,30,0,0
91406,-66.6666666666667,4,2,1,50,0,0
94333,-133.333333333333,4,2,1,50,0,0
94973,-133.333333333333,4,2,1,5,0,0
95065,-66.6666666666667,4,2,1,50,0,0
97077,-66.6666666666667,4,2,1,30,0,0
97260,-66.6666666666667,4,2,1,50,0,0
100004,-66.6666666666667,4,2,1,30,0,0
100187,-66.6666666666667,4,2,1,50,0,0
102931,-66.6666666666667,4,2,1,30,0,0
103114,-66.6666666666667,4,2,1,50,0,0
106040,-58.8235294117647,4,2,1,60,0,0
116284,-58.8235294117647,4,2,1,70,0,0
117748,-52.6315789473684,4,2,1,80,0,1
141162,731.707317073171,3,2,1,70,1,0
141162,-58.8235294117647,3,2,1,70,0,0
145552,-55.5555555555556,3,2,1,70,0,0
149942,-52.6315789473684,3,2,1,70,0,0
157625,-52.6315789473684,3,2,1,80,0,0
158722,731.707317073171,4,2,1,60,1,0
158722,-100,4,2,1,60,0,0
159453,-55.5555555555556,4,2,1,70,0,0
170429,-52.6315789473684,4,2,1,70,0,0
171526,-83.3333333333333,4,2,1,70,0,0
173356,-55.5555555555556,4,2,1,70,0,0
176282,-71.4285714285714,4,2,1,50,0,0
177014,-66.6666666666667,4,2,1,55,0,0
177746,-62.5,4,2,1,60,0,0
178478,-58.8235294117647,4,2,1,65,0,0
179209,-55.5555555555556,4,2,1,70,0,0
179575,-55.5555555555556,4,2,1,40,0,0
179941,-55.5555555555556,4,2,1,45,0,0
180307,-55.5555555555556,4,2,1,50,0,0
180673,-55.5555555555556,4,2,1,55,0,0
181039,-55.5555555555556,4,2,1,60,0,0
181404,-55.5555555555556,4,2,1,65,0,0
181770,-55.5555555555556,4,2,1,70,0,0
182136,-55.5555555555556,4,2,1,80,0,0
182868,-50,4,2,1,80,0,1
187990,-50,4,2,1,30,0,0
188722,-50,4,2,1,80,0,1
189453,-50,4,2,1,30,0,0
190185,-50,4,2,1,80,0,1
205551,-52.6315789473684,4,2,1,70,0,0
223112,-52.6315789473684,4,2,1,40,0,0
223843,-52.6315789473684,4,2,1,50,0,0
224575,-50,4,2,1,60,0,0
225307,-50,4,2,1,70,0,0
227319,-250,4,2,1,70,0,0
227502,-250,4,2,1,50,0,0
228234,-250,4,2,1,45,0,0
228965,-250,4,2,1,40,0,0
229697,-250,4,2,1,35,0,0
230429,-250,4,2,1,30,0,0
231161,-250,4,2,1,25,0,0
231892,-250,4,2,1,20,0,0
232624,-250,4,2,1,15,0,0
233356,-250,4,2,1,10,0,0
235002,-250,4,2,1,5,0,0

[Colours]
Combo1 : 167,167,167
Combo2 : 251,17,17
Combo3 : 254,106,18
Combo4 : 247,201,64
Combo5 : 237,24,184
Combo6 : 58,80,228
Combo7 : 80,188,220
Combo8 : 105,104,88

[HitObjects]
80,311,675,6,0,L|204:295,1,125.999996154785,2|0,0:0|0:0,0:0:0:0:
474,254,1406,2,0,P|414:250|366:202,1,125.999996154785,2|0,0:0|0:0,0:0:0:0:
450,166,1955,1,2,0:0:0:0:
474,254,2138,2,0,L|470:322,1,62.9999980773926
282,246,2504,2,0,L|274:174,1,62.9999980773926
424,80,2870,2,0,B|384:96|384:96|288:84,1,125.999996154785,2|0,0:0|0:0,0:0:0:0:
88,36,3418,1,0,0:0:0:0:
88,36,3601,6,0,P|144:12|220:36,1,125.999996154785,2|0,0:0|0:0,0:0:0:0:
64,256,4333,2,0,L|40:120,1,125.999996154785,2|0,0:0|0:0,0:0:0:0:
156,288,4882,1,2,0:0:0:0:
84,348,5065,2,0,B|52:352|52:352|20:340,1,62.9999980773926
156,288,5431,2,0,B|188:284|188:284|220:296,1,62.9999980773926
352,364,5796,2,0,B|332:336|332:336|340:228,1,125.999996154785,2|0,0:0|0:0,0:0:0:0:
432,308,6345,1,0,0:0:0:0:
248,296,6528,54,0,L|112:308,2,125.999996154785,2|0|2,0:0|0:0|0:0,0:0:0:0:
472,288,7626,2,0,L|456:356,1,62.9999980773926
408,216,7992,1,2,0:0:0:0:
500,196,8175,1,0,0:0:0:0:
380,304,8357,2,0,P|328:308|248:272,1,125.999996154785
260,281,9089,2,0,L|252:353,1,62.9999980773926
188,220,9455,102,0,P|252:188|320:208,1,125.999996154785,2|0,0:0|0:0,0:0:0:0:
136,140,10004,1,0,0:0:0:0:
92,224,10187,2,0,P|64:232|24:232,1,62.9999980773926,2|0,0:0|0:0,0:0:0:0:
118,47,10553,2,0,P|149:47|180:56,1,62.9999980773926,2|0,0:0|0:0,0:0:0:0:
360,164,10918,6,0,B|328:176|292:168|292:168|256:160|228:172,1,135.000005149841,2|0,0:0|0:0,0:0:0:0:
228,172,12382,69,2,0:0:0:0:
268,272,12748,1,0,0:0:0:0:
160,256,13114,1,2,0:0:0:0:
228,172,13479,2,0,P|248:200|264:236,1,62.9999980773926
196,356,13845,2,0,P|228:324|256:308,1,62.9999980773926,2|0,0:0|0:0,0:0:0:0:
452,296,14211,2,0,L|304:280,1,125.999996154785
326,282,14943,1,0,0:0:0:0:
312,192,15126,1,0,0:0:0:0:
300,100,15309,22,0,P|352:108|404:172,1,125.999996154785,2|0,0:0|0:0,0:0:0:0:
224,156,15857,2,0,P|208:108|232:36,1,125.999996154785
312,192,16406,2,0,L|304:272,1,62.9999980773926,2|0,0:0|0:0,0:0:0:0:
224,156,16772,1,2,0:0:0:0:
400,228,17138,1,2,0:0:0:0:
312,192,17321,1,0,0:0:0:0:
224,156,17504,1,0,0:0:0:0:
400,228,17870,2,0,L|412:296,1,62.9999980773926,2|0,0:0|0:0,0:0:0:0:
312,192,18235,70,0,L|328:56,1,125.999996154785,2|0,0:0|0:0,0:0:0:0:
220,236,18784,1,0,0:0:0:0:
312,192,18967,2,0,L|436:132,1,125.999996154785,2|0,0:0|0:0,0:0:0:0:
304,292,19516,1,0,0:0:0:0:
220,236,19699,1,2,0:0:0:0:
312,192,19882,1,0,0:0:0:0:
220,236,20065,2,0,B|208:204|208:204|212:168,1,62.9999980773926
392,248,20431,2,0,B|404:288|404:288|384:376,1,125.999996154785,2|0,0:0|0:0,0:0:0:0:
116,216,21162,102,0,B|104:176|104:176|124:88,1,125.999996154785,2|0,0:0|0:0,0:0:0:0:
288,236,21894,1,2,0:0:0:0:
196,272,22077,1,0,0:0:0:0:
116,216,22260,2,0,L|96:144,1,62.9999980773926
196,272,22626,1,2,0:0:0:0:
116,216,22809,1,0,0:0:0:0:
208,176,22992,1,2,0:0:0:0:
288,236,23175,1,0,0:0:0:0:
116,216,23357,1,2,0:0:0:0:
380,196,23723,2,0,P|384:220|384:260,1,62.9999980773926
300,140,24089,54,0,P|312:68|360:32,2,125.999996154785,2|0|2,0:0|0:0|0:0,0:0:0:0:
468,316,25187,2,0,P|480:288|484:244,1,62.9999980773926
384,258,25553,2,0,L|320:264,1,62.9999980773926,2|0,0:0|0:0,0:0:0:0:
212,246,25918,2,0,P|262:280|321:263,1,125.999996154785,0|2,0:0|0:0,0:0:0:0:
192,148,26650,1,0,0:0:0:0:
212,246,26833,1,0,0:0:0:0:
228,344,27016,6,0,L|244:212,1,125.999996154785,2|0,0:0|0:0,0:0:0:0:
40,240,27565,2,0,P|96:276|156:264,1,125.999996154785
272,120,28114,2,0,P|240:116|200:124,1,62.9999980773926,2|0,0:0|0:0,0:0:0:0:
344,196,28479,1,2,0:0:0:0:
344,196,28845,1,2,0:0:0:0:
272,120,29028,1,0,0:0:0:0:
372,96,29211,2,0,L|452:104,1,62.9999980773926,2|0,0:0|0:0,0:0:0:0:
272,120,29577,2,0,L|192:128,1,62.9999980773926,2|0,0:0|0:0,0:0:0:0:
300,24,29943,22,0,P|360:0|432:16,1,125.999996154785,2|0,0:0|0:0,0:0:0:0:
272,120,30492,1,0,0:0:0:0:
364,160,30675,2,0,P|372:132|368:88,1,62.9999980773926,2|0,0:0|0:0,0:0:0:0:
192,184,31040,2,0,P|192:219|208:252,1,62.9999980773926
328,276,31406,1,2,0:0:0:0:
280,200,31589,1,0,0:0:0:0:
250,320,31772,2,0,P|220:330|172:328,1,62.9999980773926
328,276,32138,2,0,L|452:292,1,125.999996154785,2|0,0:0|0:0,0:0:0:0:
452,292,32870,5,2,0:0:0:0:
408,192,33235,1,0,0:0:0:0:
452,292,33601,53,2,0:0:0:0:
408,192,33784,1,2,0:0:0:0:
472,104,33967,1,0,0:0:0:0:
472,104,34333,101,2,0:0:0:0:
408,192,34516,1,0,0:0:0:0:
360,92,34699,1,2,0:0:0:0:
500,248,34882,69,8,0:3:0:0:
292,312,35065,1,8,0:3:0:0:
292,312,35431,2,0,L|284:236,1,62.9999980773926,8|0,0:3|0:0,0:0:0:0:
268,104,35796,37,12,0:0:0:0:
292,312,36162,1,8,0:0:0:0:
268,104,36528,1,0,0:0:0:0:
292,312,36894,69,2,0:0:0:0:
280,208,37077,1,0,0:0:0:0:
268,104,37260,1,2,0:0:0:0:
313,319,37626,37,2,0:0:0:0:
280,208,37809,1,0,0:0:0:0:
247,98,37992,1,8,0:1:0:0:
247,98,38357,2,0,L|240:180,1,72,0|8,0:0|0:0,0:0:0:0:
340,56,38723,5,8,0:0:0:0:
148,132,39089,2,0,L|141:214,1,72,8|0,0:0|0:0,0:0:0:0:
247,98,39455,2,0,B|200:80|144:96|144:96|88:112|36:88,1,216
196,196,40187,2,0,P|288:196|340:160,1,144,2|0,0:0|0:0,0:0:0:0:
247,98,40735,1,8,0:0:0:0:
240,296,40918,1,8,0:1:0:0:
240,296,41284,1,8,0:3:0:0:
196,196,41467,1,8,0:3:0:0:
247,98,41650,5,12,0:0:0:0:
348,320,42016,1,12,0:0:0:0:
247,98,42382,1,0,0:0:0:0:
247,98,42748,85,0,0:0:0:0:
360,116,42931,1,0,0:0:0:0:
472,136,43114,1,10,0:0:0:0:
247,98,43479,69,8,0:0:0:0:
368,104,43662,1,0,0:0:0:0:
488,112,43845,1,8,0:1:0:0:
247,98,44211,2,0,L|336:88,1,72
164,40,44577,38,0,B|148:80|148:80|156:192,1,144,12|12,0:0|0:0,0:0:0:0:
172,316,45126,1,0,0:0:0:0:
260,200,45309,5,8,0:1:0:0:
80,272,45492,1,8,0:1:0:0:
276,300,45675,5,8,0:3:0:0:
60,148,45857,1,8,0:0:0:0:
304,36,46040,85,8,1:3:0:0:
316,68,46406,1,8,1:3:0:0:
328,100,46772,22,0,L|320:160,2,48,2|0|0,0:0|0:0|0:0,0:0:0:0:
404,52,47138,2,0,L|464:56,2,48,2|2|0,0:0|0:0|0:0,0:0:0:0:
408,140,47504,6,0,B|420:228|420:228|464:304,1,170.999995433807,12|8,0:0|0:0,0:0:0:0:
312,200,48053,1,0,0:0:0:0:
156,288,48235,2,0,L|268:272,1,85.4999977169037,8|0,1:0|0:0,0:0:0:0:
364,108,48601,2,0,L|264:100,1,85.4999977169037,2|0,0:0|0:0,0:0:0:0:
60,192,48967,54,0,L|160:184,1,85.4999977169037,8|8,0:0|0:0,0:0:0:0:
448,164,49333,1,10,0:0:0:0:
448,164,49699,1,8,1:0:0:0:
360,232,49882,1,0,0:0:0:0:
260,184,50065,2,0,P|237:145|232:88,1,85.4999977169037,2|0,0:0|0:0,0:0:0:0:
268,36,50339,1,0,0:0:0:0:
268,36,50431,54,0,P|192:68|110:43,1,170.999995433807,10|8,0:0|0:0,0:0:0:0:
344,112,50979,2,0,P|396:100|436:100,1,85.4999977169037,0|8,0:0|1:0,0:0:0:0:
260,184,51345,1,0,0:0:0:0:
268,36,51528,1,2,0:0:0:0:
404,204,51711,1,8,0:1:0:0:
178,211,51894,6,0,L|259:183,1,85.4999977169037,8|0,0:0|0:0,0:0:0:0:
116,304,52260,2,0,L|216:324,1,85.4999977169037,10|0,0:0|0:0,0:0:0:0:
26,234,52626,2,0,P|97:191|178:211,1,170.999995433807,8|0,1:0|0:0,0:0:0:0:
116,304,53175,1,8,0:1:0:0:
104,80,53357,37,8,0:0:0:0:
208,116,53540,1,0,0:0:0:0:
124,188,53723,2,0,L|104:84,1,85.4999977169037,10|0,0:0|0:0,0:0:0:0:
268,32,54089,2,0,P|308:96|280:188,1,170.999995433807,8|0,1:0|0:0,0:0:0:0:
412,308,54638,1,0,0:0:0:0:
468,220,54821,86,0,B|428:208|428:208|372:208,1,85.4999977169037,10|8,0:0|0:1,0:0:0:0:
232,304,55187,2,0,B|276:300|276:300|324:276,1,85.4999977169037
440,116,55553,2,0,B|392:100|392:100|264:120,1,170.999995433807,8|0,1:0|0:0,0:0:0:0:
104,176,56101,1,0,0:0:0:0:
104,176,56193,1,0,0:0:0:0:
104,176,56284,6,0,L|204:184,1,85.4999977169037,8|0,0:0|0:0,0:0:0:0:
380,316,56650,2,0,B|376:272|376:272|352:224,1,85.4999977169037,10|0,0:0|0:0,0:0:0:0:
48,284,57016,2,0,L|148:292,1,85.4999977169037,8|0,1:0|0:0,0:0:0:0:
452,200,57382,2,0,B|448:156|448:156|424:108,1,85.4999977169037,0|8,0:0|0:1,0:0:0:0:
224,96,57748,5,10,0:0:0:0:
356,184,57931,1,8,0:0:0:0:
308,24,58114,1,8,1:0:0:0:
284,248,58296,5,8,0:3:0:0:
284,248,58388,1,8,0:3:0:0:
284,248,58479,1,8,1:0:0:0:
444,108,58662,1,8,0:0:0:0:
204,100,58845,2,0,L|108:116,1,85.4999977169037,2|0,0:0|0:0,0:0:0:0:
304,164,59211,86,0,B|364:168|364:168|412:196|412:196|468:200,1,170.999995433807,12|8,0:0|0:0,0:0:0:0:
336,252,59760,1,0,0:0:0:0:
444,108,59943,2,0,B|444:64|444:64|425:26,1,85.4999977169037,8|0,1:0|0:0,0:0:0:0:
240,100,60309,1,2,0:0:0:0:
344,92,60492,1,0,0:0:0:0:
160,40,60675,101,8,0:0:0:0:
252,196,60857,1,8,0:0:0:0:
68,180,61040,2,0,L|168:156,1,85.4999977169037,10|0,0:0|0:0,0:0:0:0:
331,226,61406,2,0,L|251:195,1,85.4999977169037,8|0,1:0|0:0,0:0:0:0:
424,184,61772,1,0,0:0:0:0:
292,320,61955,1,0,0:0:0:0:
292,320,62046,1,0,0:0:0:0:
292,320,62138,22,0,B|256:344|256:344|184:344|136:288,1,170.999995433807,10|8,0:0|0:0,0:0:0:0:
400,328,62687,2,0,P|444:316|492:320,1,85.4999977169037,0|8,0:0|1:0,0:0:0:0:
356,236,63053,1,0,0:0:0:0:
268,292,63235,2,0,P|212:304|172:296,1,85.4999977169037,0|8,0:0|0:1,0:0:0:0:
216,116,63601,101,10,0:0:0:0:
356,236,63784,1,8,0:1:0:0:
184,300,63967,2,0,P|172:256|176:196,1,85.4999977169037,10|0,0:0|0:0,0:0:0:0:
412,148,64333,2,0,P|456:208|432:308,1,170.999995433807,8|8,1:0|0:0,0:0:0:0:
356,236,64882,1,8,0:1:0:0:
380,48,65065,69,10,0:0:0:0:
412,148,65248,1,0,0:0:0:0:
276,68,65431,2,0,L|380:48,1,85.4999977169037,8|0,0:0|0:0,0:0:0:0:
228,164,65796,2,0,P|148:124|80:156,1,170.999995433807,8|0,1:0|0:0,0:0:0:0:
252,264,66345,1,0,0:0:0:0:
332,148,66528,54,0,L|428:132,1,85.4999977169037,10|8,0:0|0:0,0:0:0:0:
224,112,66894,1,8,0:0:0:0:
352,252,67077,1,0,0:0:0:0:
172,204,67260,2,0,L|184:20,1,170.999995433807,8|0,1:0|0:0,0:0:0:0:
183,33,67809,1,0,0:0:0:0:
72,112,67992,21,12,0:0:0:0:
280,128,68175,1,8,0:3:0:0:
72,112,68357,1,8,0:0:0:0:
72,112,68723,85,8,1:0:0:0:
240,224,68906,1,8,0:0:0:0:
43,276,69089,2,0,B|40:192|40:192|63:130,1,128.249996575356,12|0,1:0|2:0,0:0:0:0:
72,112,69455,1,8,0:0:0:0:
360,240,69821,21,8,1:0:0:0:
360,240,70187,1,8,0:1:0:0:
162,258,70370,1,8,1:0:0:0:
245,77,70553,1,8,0:3:0:0:
256,192,70918,5,2,0:0:0:0:
216,200,81894,118,8,L|144:192,1,62.9999980773926
344,216,82260,1,8,1:0:0:0:
153,193,82626,5,4,0:0:0:0:
308,116,82992,1,0,0:0:0:0:
153,193,83357,1,8,0:1:0:0:
344,216,83723,1,2,0:0:0:0:
308,116,83906,1,0,0:0:0:0:
272,16,84089,2,0,L|200:8,1,67.5000025749208,2|8,0:0|0:1,0:0:0:0:
12,48,84455,2,0,P|68:88|136:72,1,135.000005149842,8|8,0:0|0:1,0:0:0:0:
128,76,85187,1,0,0:0:0:0:
96,176,85370,85,8,0:1:0:0:
100,192,85461,1,8,0:1:0:0:
104,208,85553,2,0,P|179:216|240:240,1,135.000005149842,10|8,0:0|0:0,0:0:0:0:
320,176,86101,1,0,0:0:0:0:
404,240,86284,2,0,P|412:276|412:320,1,67.5000025749208,8|0,0:1|0:0,0:0:0:0:
320,176,86650,1,2,0:0:0:0:
348,76,86833,1,0,0:0:0:0:
404,240,87016,1,2,0:0:0:0:
320,176,87199,1,8,0:1:0:0:
452,72,87382,2,0,L|536:68,1,67.5000025749208,10|0,0:0|0:0,0:0:0:0:
348,76,87748,5,8,0:1:0:0:
452,72,88114,1,2,0:0:0:0:
348,76,88296,53,8,0:1:0:0:
340,64,88388,1,8,0:1:0:0:
332,52,88479,2,0,P|296:120|312:188,2,135.000005149842,8|2|8,0:0|0:0|0:1,0:0:0:0:
388,240,89577,1,0,0:0:0:0:
388,240,89760,1,0,0:0:0:0:
240,189,89943,2,0,L|306:178,1,67.5000025749208,2|8,0:0|0:1,0:0:0:0:
472,300,90309,1,8,0:0:0:0:
232,292,90492,2,0,L|298:280,1,67.5000025749208,0|8,0:0|0:1,0:0:0:0:
298,279,91040,1,0,0:0:0:0:
196,300,91223,5,8,0:1:0:0:
183,302,91315,1,8,0:1:0:0:
171,305,91406,2,0,L|80:285,1,67.5000025749208,8|0,0:0|0:0,0:0:0:0:
232,204,91772,2,0,L|141:184,1,67.5000025749208,10|0,0:0|0:0,0:0:0:0:
296,104,92138,1,8,0:1:0:0:
232,204,92321,1,0,0:0:0:0:
171,305,92504,2,0,L|80:285,1,67.5000025749208,2|0,0:0|0:0,0:0:0:0:
232,204,92870,85,2,0:0:0:0:
264,356,93053,1,8,0:1:0:0:
136,200,93235,2,0,B|128:152|128:152|144:48,2,135.000005149842,10|8|0,0:0|0:1|0:0,0:0:0:0:
216,260,94150,1,0,0:0:0:0:
296,200,94333,38,2,B|308:192|308:192|324:200|324:200|344:192|344:192|376:204|408:196,1,118.125004506111,2|0,0:0|0:0,0:0:0:0:
440,168,95065,86,0,P|480:183|428:224,1,135.000005149842,12|0,0:1|0:0,0:0:0:0:
360,120,95614,1,0,0:0:0:0:
428,40,95796,2,0,P|468:40|516:52,1,67.5000025749208,12|8,0:0|0:1,0:0:0:0:
256,156,96162,2,0,P|216:140|200:36,1,135.000005149842,8|8,0:0|0:1,0:0:0:0:
189,58,96894,2,0,P|151:66|112:68,1,67.5000025749208,0|8,0:0|0:1,0:0:0:0:
108,64,97168,1,8,0:1:0:0:
96,60,97260,54,0,B|64:76|64:76|44:132|68:188,1,135.000005149842,10|8,0:0|0:0,0:0:0:0:
144,232,97809,1,0,0:0:0:0:
240,204,97992,2,0,P|256:160|256:136,1,67.5000025749208,8|0,0:1|0:0,0:0:0:0:
144,232,98357,1,2,0:0:0:0:
176,324,98540,1,0,0:0:0:0:
240,204,98723,101,2,0:0:0:0:
112,144,98906,1,8,0:1:0:0:
144,232,99089,1,8,0:0:0:0:
204,112,99272,1,2,0:0:0:0:
52,256,99455,2,0,L|192:244,1,135.000005149842,8|0,0:1|0:0,0:0:0:0:
328,316,100004,5,8,0:1:0:0:
320,328,100095,1,8,0:1:0:0:
312,340,100187,2,0,L|176:352,2,135.000005149842,8|2|8,0:0|0:0|0:1,0:0:0:0:
480,224,101284,2,0,P|432:224|404:212,1,67.5000025749208
392,72,101650,1,2,0:0:0:0:
456,136,101833,1,8,0:1:0:0:
308,108,102016,2,0,P|300:68|308:36,1,67.5000025749208,8|0,0:0|0:0,0:0:0:0:
324,196,102382,2,0,P|268:176|192:184,1,135.000005149842,8|0,0:1|0:0,0:0:0:0:
132,252,102931,37,8,0:1:0:0:
136,272,103022,1,8,0:1:0:0:
140,292,103114,1,12,0:0:0:0:
324,196,103479,1,2,0:0:0:0:
144,312,103845,53,12,0:0:0:0:
232,244,104028,1,0,0:0:0:0:
320,176,104211,1,2,0:0:0:0:
148,332,104577,101,12,0:0:0:0:
316,156,104943,1,8,1:3:0:0:
152,352,105309,1,8,1:3:0:0:
312,136,105675,1,8,1:3:0:0:
248,52,105857,1,8,1:0:0:0:
251,219,106040,70,0,L|296:158,1,76.5000014591217,12|0,0:0|0:0,0:0:0:0:
388,36,106406,1,12,0:0:0:0:
388,36,107870,22,0,B|376:52|344:60|344:60|404:56|468:88,1,153.000002918243,12|8,0:0|1:0,0:0:0:0:
272,120,108418,2,0,B|252:100|248:64|248:64|208:84|152:76,1,153.000002918243,12|0,0:0|0:0,0:0:0:0:
56,196,108967,2,0,P|104:188|144:192,1,76.5000014591217,12|0,0:0|0:0,0:0:0:0:
308,292,109333,1,12,0:0:0:0:
308,292,110796,86,0,B|328:316|328:316|348:192,1,153.000002918243,12|8,0:0|1:0,0:0:0:0:
132,306,111345,2,0,B|136:340|136:340|188:380|248:368,1,153.000002918243,12|0,0:0|0:0,0:0:0:0:
228,136,111894,2,0,P|176:136|132:152,1,76.5000014591217,12|0,0:0|0:0,0:0:0:0:
347,195,112260,1,12,0:0:0:0:
347,195,113723,86,0,P|395:191|359:111,1,153.000002918243,12|8,0:0|1:0,0:0:0:0:
208,112,114272,2,0,P|247:123|300:120,1,76.5000014591217,12|0,0:0|0:0,0:0:0:0:
422,188,114638,69,8,0:1:0:0:
422,188,114729,1,8,0:1:0:0:
422,188,114821,2,0,P|386:188|342:196,1,76.5000014591217,12|0,0:0|0:0,0:0:0:0:
276,260,115187,5,8,0:1:0:0:
236,124,115370,1,8,0:1:0:0:
188,260,115553,5,8,0:3:0:0:
324,124,115735,1,8,0:3:0:0:
292,300,115918,101,8,0:3:0:0:
220,84,116101,1,8,0:3:0:0:
152,292,116284,101,8,1:0:0:0:
360,92,116650,1,8,1:0:0:0:
152,292,117016,22,8,L|72:300,2,51.0000009727478,8|8|8,0:1|0:1|0:1,0:1:0:0:
236,344,117382,2,8,L|296:336,1,51.0000009727478,8|8,0:3|0:3,0:3:0:0:
376,324,117626,1,8,0:3:0:0:
344,240,117748,102,0,P|288:340|312:388,1,170.999995433807,12|8,0:0|0:0,0:0:0:0:
444,248,118296,1,0,0:0:0:0:
244,128,118479,2,0,L|236:220,1,85.4999977169037,12|0,1:0|0:0,0:0:0:0:
420,104,118845,2,0,L|408:12,1,85.4999977169037,2|0,0:0|0:0,0:0:0:0:
161,109,119211,6,0,P|205:124|265:125,1,85.4999977169037,8|8,0:0|0:0,0:0:0:0:
496,52,119577,1,10,0:0:0:0:
496,52,119943,1,8,1:0:0:0:
400,136,120126,1,0,0:0:0:0:
492,216,120309,1,2,0:0:0:0:
392,36,120492,1,0,0:0:0:0:
392,36,120583,1,0,0:0:0:0:
392,36,120675,102,0,P|320:72|304:160,1,170.999995433807,10|8,0:0|0:0,0:0:0:0:
400,316,121223,2,0,B|412:276|412:276|392:220,1,85.4999977169037,0|8,0:0|1:0,0:0:0:0:
302,154,121589,1,0,0:0:0:0:
188,328,121772,1,2,0:0:0:0:
312,280,121955,1,8,0:1:0:0:
128,168,122138,6,0,P|111:207|112:264,1,85.4999977169037,8|0,0:0|0:0,0:0:0:0:
208,92,122504,2,0,P|232:136|236:184,1,85.4999977169037,10|0,0:0|0:0,0:0:0:0:
104,68,122870,2,0,P|172:76|264:24,1,170.999995433807,8|0,1:0|0:0,0:0:0:0:
259,28,123418,1,8,0:1:0:0:
176,188,123601,101,8,0:0:0:0:
268,236,123784,1,0,0:0:0:0:
264,132,123967,1,2,0:0:0:0:
176,188,124150,1,0,0:0:0:0:
356,180,124333,2,0,B|476:164|476:164|428:140,1,170.999995433807,8|0,1:0|0:0,0:0:0:0:
264,132,124882,1,0,0:0:0:0:
352,264,125065,102,0,P|360:222|356:180,1,85.4999977169037,10|8,0:0|0:1,0:0:0:0:
164,96,125431,2,0,P|160:140|176:188,1,85.4999977169037
268,328,125796,2,0,P|181:309|94:340,1,170.999995433807,8|0,1:0|0:0,0:0:0:0:
352,264,126345,1,0,0:0:0:0:
352,264,126437,1,0,0:0:0:0:
352,264,126528,22,0,L|452:272,1,85.4999977169037,10|0,0:0|0:0,0:0:0:0:
168,148,126894,2,0,B|132:56,1,85.4999977169037,10|0,0:0|0:0,0:0:0:0:
375,68,127260,2,0,B|344:148,1,85.4999977169037,8|0,1:0|0:0,0:0:0:0:
74,270,127626,2,0,L|160:264,1,85.4999977169037,2|8,0:0|0:1,0:0:0:0:
388,248,127992,101,8,0:0:0:0:
256,88,128175,1,8,0:1:0:0:
252,320,128357,2,0,B|268:280|268:280|264:208,1,85.4999977169037,2|0,0:0|0:0,0:0:0:0:
160,264,128723,1,8,1:0:0:0:
356,344,128906,2,0,B|424:356|492:324|492:324|460:312,1,170.999995433807,12|0,0:0|0:0,0:0:0:0:
252,320,129455,6,0,P|200:360|96:352,1,170.999995433807,12|8,0:0|0:0,0:0:0:0:
236,216,130004,1,0,0:0:0:0:
360,320,130187,2,0,P|416:328|452:324,1,85.4999977169037,8|0,1:0|0:0,0:0:0:0:
242,130,130553,70,0,L|234:234,1,85.4999977169037,2|0,0:0|0:0,0:0:0:0:
332,184,130918,1,8,0:0:0:0:
160,68,131101,1,8,0:0:0:0:
348,4,131284,2,0,L|340:104,1,85.4999977169037,10|0,0:0|0:0,0:0:0:0:
144,248,131650,2,0,L|152:156,1,85.4999977169037,8|0,1:0|0:0,0:0:0:0:
232,296,132016,1,0,0:0:0:0:
52,200,132199,1,0,0:0:0:0:
52,200,132290,1,0,0:0:0:0:
52,200,132382,102,0,B|64:28,1,170.999995433807,10|8,0:0|0:0,0:0:0:0:
264,84,132931,2,0,B|268:128|268:128|256:184,1,85.4999977169037,0|8,0:0|1:0,0:0:0:0:
164,120,133296,1,0,0:0:0:0:
308,256,133479,2,0,B|268:268|268:268|212:260,1,85.4999977169037,0|8,0:0|0:1,0:0:0:0:
140,212,133845,101,10,0:0:0:0:
352,116,134028,1,8,0:1:0:0:
247,85,134211,2,0,P|247:133|258:168,1,85.4999977169037,10|0,0:0|0:0,0:0:0:0:
476,305,134577,2,0,P|419:244|335:243,1,170.999995433807,8|8,1:0|0:0,0:0:0:0:
376,337,135126,1,8,0:1:0:0:
440,144,135309,38,0,P|440:96|432:56,1,85.4999977169037,10|0,0:0|0:0,0:0:0:0:
342,196,135675,2,0,P|347:154|344:112,1,85.4999977169037,8|0,0:0|0:0,0:0:0:0:
224,284,136040,2,0,B|264:268|304:284|304:284|344:300|392:284,1,170.999995433807,8|0,1:0|0:0,0:0:0:0:
264,368,136589,85,0,0:0:0:0:
264,368,136681,1,0,0:0:0:0:
264,368,136772,1,10,0:0:0:0:
342,196,136955,1,8,0:0:0:0:
164,132,137138,1,10,0:0:0:0:
224,284,137321,1,0,0:0:0:0:
248,68,137504,2,0,L|76:108,1,170.999995433807,8|0,1:0|0:0,0:0:0:0:
352,116,138053,1,0,0:0:0:0:
352,116,138144,1,0,0:0:0:0:
352,116,138235,6,0,B|364:72|364:72|356:28,1,85.4999977169037,12|0,0:0|0:0,0:0:0:0:
180,240,138601,2,0,B|184:284|184:284|208:320,1,85.4999977169037,8|0,0:3|0:0,0:0:0:0:
424,328,138967,21,8,1:0:0:0:
276,252,139150,1,8,0:0:0:0:
460,208,139333,1,12,1:0:0:0:
460,208,139699,69,10,0:0:0:0:
292,104,139882,1,8,0:0:0:0:
404,112,140065,1,8,0:1:0:0:
224,192,140248,1,8,0:3:0:0:
356,16,140431,5,2,0:0:0:0:
344,204,140614,1,8,0:3:0:0:
108,184,140796,1,8,0:3:0:0:
292,104,140979,1,8,0:3:0:0:
52,92,141162,101,12,0:0:0:0:
52,92,141527,2,0,L|132:96,1,76.5000014591217,2|0,0:0|0:0,0:0:0:0:
292,104,141893,1,8,0:1:0:0:
164,296,142259,69,10,0:0:0:0:
292,104,142625,2,0,L|244:176,1,76.5000014591217,2|8,0:0|0:0,0:0:0:0:
164,296,142991,1,8,0:1:0:0:
52,92,143357,5,10,0:0:0:0:
164,296,143722,2,0,L|116:208,1,76.5000014591217,10|0,0:0|0:0,0:0:0:0:
52,92,144088,1,8,0:1:0:0:
292,104,144454,101,10,0:0:0:0:
164,296,144637,1,8,0:1:0:0:
168,168,144820,1,8,0:0:0:0:
296,356,145003,1,10,0:0:0:0:
73,329,145186,1,8,0:1:0:0:
95,320,145277,1,8,0:1:0:0:
118,312,145369,1,8,0:1:0:0:
141,304,145460,1,8,0:1:0:0:
164,296,145552,37,12,0:0:0:0:
164,296,145918,2,0,L|152:380,1,80.9999975280763,10|0,0:0|0:0,0:0:0:0:
348,252,146283,1,8,0:1:0:0:
152,188,146649,5,2,0:0:0:0:
348,252,147015,2,0,L|364:340,1,80.9999975280763,2|8,0:0|0:0,0:0:0:0:
152,188,147381,1,8,0:1:0:0:
364,144,147747,5,10,0:0:0:0:
152,188,148113,2,0,L|140:272,1,80.9999975280763,10|0,0:0|0:0,0:0:0:0:
364,144,148479,1,8,0:1:0:0:
148,64,148844,85,8,0:1:0:0:
176,88,148936,1,8,0:1:0:0:
212,104,149027,1,8,0:1:0:0:
252,104,149119,1,8,0:1:0:0:
284,88,149210,2,8,L|292:32,1,40.4999987640381
364,144,149393,2,8,L|356:200,1,40.4999987640381
276,232,149576,5,8,1:0:0:0:
236,208,149668,1,8,1:0:0:0:
192,208,149759,1,8,1:3:0:0:
152,232,149851,1,8,1:3:0:0:
136,276,149942,69,12,0:0:0:0:
136,276,150308,2,0,P|184:296|224:292,1,85.4999977169037,10|0,0:0|0:0,0:0:0:0:
432,208,150674,1,8,0:1:0:0:
88,148,151040,101,2,0:0:0:0:
432,208,151405,2,0,P|384:228|344:224,1,85.4999977169037,2|8,0:0|0:0,0:0:0:0:
88,148,151771,1,8,0:1:0:0:
472,56,152137,5,2,0:0:0:0:
88,148,152503,2,0,P|136:168|176:164,1,85.4999977169037,10|0,0:0|0:0,0:0:0:0:
472,56,152869,1,8,0:1:0:0:
88,148,153235,101,10,0:0:0:0:
264,200,153418,1,8,0:1:0:0:
152,72,153601,1,0,0:0:0:0:
124,304,153783,1,8,0:0:0:0:
356,220,153966,1,8,0:1:0:0:
176,192,154149,53,8,0:1:0:0:
176,192,154241,1,8,0:1:0:0:
176,192,154332,2,0,P|152:252|196:352,1,170.999995433807,12|8,0:0|0:1,0:0:0:0:
280,164,154881,1,2,0:0:0:0:
90,185,155064,2,0,L|190:193,1,85.4999977169037,8|0,0:1|0:0,0:0:0:0:
360,96,155430,22,0,B|328:68|328:68|264:48|200:88,1,170.999995433807,12|8,0:0|0:1,0:0:0:0:
364,200,155979,1,2,0:0:0:0:
468,100,156162,2,0,P|480:52|480:12,1,85.4999977169037,8|0,0:1|0:0,0:0:0:0:
204,85,156527,85,10,0:0:0:0:
308,299,156893,1,8,0:3:0:0:
256,16,157259,1,8,0:3:0:0:
256,364,157625,1,8,3:3:0:0:
28,192,157991,1,8,3:3:0:0:
484,192,158357,1,8,3:3:0:0:
200,140,158722,70,2,B|182:159|182:159|174:191|190:222,1,90,2|2,0:1|0:1,1:0:0:0:
280,192,159270,1,2,0:1:0:0:
216,40,159453,102,0,B|148:40|112:88|112:88|88:80|64:84,1,161.999995056153,12|2,1:0|0:1,0:0:0:0:
200,140,160002,1,0,0:0:0:0:
304,104,160185,2,2,P|352:96|388:96,1,80.9999975280763,2|0,0:1|0:0,1:0:0:0:
193,261,160551,2,0,L|201:121,1,121.499996292114,2|0,0:1|0:0,0:0:0:0:
201,61,160917,2,2,B|189:101|189:101|201:145,1,80.9999975280763,10|0,0:1|0:0,0:0:0:0:
344,272,161282,2,0,B|352:232|352:232|340:184,1,80.9999975280763,2|0,0:1|0:0,0:0:0:0:
272,236,161557,1,0,0:0:0:0:
272,236,161648,6,2,B|452:220,1,161.999995056153,2|8,0:1|0:0,1:0:0:0:
192,176,162197,1,2,0:1:0:0:
348,108,162380,2,0,L|264:100,1,80.9999975280763,8|0,0:1|0:0,0:0:0:0:
80,148,162746,1,8,0:0:0:0:
200,20,162929,1,10,0:1:0:0:
300,196,163112,101,8,0:0:0:0:
176,120,163295,1,0,0:0:0:0:
380,128,163478,2,0,B|400:172|400:172|384:292,1,161.999995056153,8|8,0:0|0:1,0:0:0:0:
204,328,164026,1,2,0:1:0:0:
300,196,164209,2,2,L|288:292,1,80.9999975280763,8|2,0:0|0:1,1:0:0:0:
192,216,164575,69,2,0:1:0:0:
316,96,164758,1,0,0:0:0:0:
108,152,164941,2,2,P|88:200|104:272,1,121.499996292114,2|0,0:1|0:0,1:0:0:0:
124,296,165307,2,0,P|64:300|28:308,1,80.9999975280763,10|0,0:1|0:0,0:0:0:0:
272,223,165673,2,2,P|212:219|176:211,1,80.9999975280763,2|2,0:1|0:1,1:0:0:0:
336,312,166039,21,10,0:0:0:0:
336,312,166222,1,8,0:1:0:0:
468,208,166404,1,0,0:0:0:0:
468,208,166587,1,2,0:0:0:0:
320,112,166770,101,10,0:1:0:0:
436,300,166953,1,0,0:0:0:0:
204,308,167136,1,2,0:1:0:0:
384,180,167319,1,2,0:1:0:0:
200,68,167502,22,0,L|192:156,1,80.9999975280763,2|0,0:0|0:0,0:0:0:0:
192,164,167746,2,2,L|68:184,1,107.999996704102,2|2,0:1|0:1,1:0:0:0:
292,336,168234,2,0,P|316:280|312:240,1,80.9999975280763,10|0,0:1|0:0,0:0:0:0:
312,236,168478,2,2,L|436:216,1,107.999996704102,2|2,0:1|0:1,1:0:0:0:
200,68,168965,1,2,0:0:0:0:
148,228,169148,1,8,0:0:0:0:
148,228,169240,1,2,0:1:0:0:
148,228,169331,2,2,P|132:188|132:140,1,80.9999975280763,4|2,0:1|0:1,1:0:0:0:
244,272,169697,85,8,0:1:0:0:
68,296,169880,1,8,0:1:0:0:
236,168,170063,2,8,P|244:140|244:96,2,53.9999983520508,8|8|8,0:0|0:3|0:3,0:3:0:0:
172,56,170429,6,0,B|200:24|244:20|244:20|276:52|324:52,1,170.999995433807,6|8,0:1|1:0,0:0:0:0:
484,188,170978,2,0,B|428:160|364:180|364:180|332:224,1,170.999995433807,12|8,0:0|1:0,0:0:0:0:
240,340,171526,102,2,B|244:292|244:292|220:240|220:240|228:180,1,161.999995056153,6|8,0:1|0:1,1:0:0:0:
227,183,172258,1,8,0:0:0:0:
152,314,172441,2,0,L|148:354,1,26.9999991760254,0|2,0:0|0:1,0:0:0:0:
240,340,172624,2,2,B|308:304|372:320|372:320|348:336,1,161.999995056153,10|0,0:1|0:0,0:1:0:0:
336,332,173264,1,0,0:0:0:0:
320,328,173356,1,8,0:1:0:0:
152,160,173600,37,6,0:1:0:0:
376,216,173843,1,2,0:0:0:0:
132,284,174087,1,6,0:1:0:0:
372,100,174331,1,8,0:1:0:0:
32,208,174575,1,10,0:1:0:0:
424,300,174819,2,2,B|472:276|472:276|424:248,1,107.999996704102,0|2,0:0|0:1,1:0:0:0:
340,272,175185,2,8,P|336:300|340:340,1,53.9999983520508,10|8,0:1|0:0,0:0:0:0:
424,300,175429,1,8,0:0:0:0:
360,184,175551,102,0,P|304:172|264:176,1,80.9999975280763,8|8,0:1|0:1,0:0:0:0:
172,328,175917,1,8,0:3:0:0:
308,264,176100,1,8,0:3:0:0:
188,124,176282,6,0,B|180:140|180:140|176:196,1,62.9999980773926,8|0,0:0|0:0,0:0:0:0:
348,52,176648,2,0,B|356:68|356:68|360:124,1,62.9999980773926,8|2,0:3|0:0,0:0:0:0:
104,56,177014,102,0,B|80:60|80:60|36:92,1,67.5000025749208,8|0,0:3|0:0,0:0:0:0:
336,215,177380,2,0,B|348:227|348:227|360:287,1,67.5000025749208,8|2,0:3|0:0,0:0:0:0:
143,168,177746,6,0,B|123:172|123:172|79:204,1,72,8|2,0:1|0:0,0:0:0:0:
403,29,178112,2,0,B|423:33|423:33|471:65,1,72,8|2,0:1|0:0,0:0:0:0:
195,77,178478,102,0,P|166:72|136:59,2,51.0000009727478,10|0|0,0:1|0:0|0:0,0:0:0:0:
280,120,178843,2,2,P|302:109|327:103,1,51.0000009727478,8|2,0:1|0:1,1:0:0:0:
416,108,179087,1,2,0:1:0:0:
492,156,179209,5,6,0:1:0:0:
440,284,179392,1,2,0:0:0:0:
416,108,179575,101,8,0:0:0:0:
436,264,179758,1,8,0:0:0:0:
408,124,179941,53,8,0:0:0:0:
344,292,180124,1,10,0:0:0:0:
324,84,180307,85,2,0:1:0:0:
340,272,180490,1,10,0:0:0:0:
316,100,180673,69,10,0:1:0:0:
244,300,180856,1,8,0:0:0:0:
224,60,181039,53,8,0:1:0:0:
240,280,181222,1,8,0:1:0:0:
216,76,181404,37,8,0:1:0:0:
144,312,181587,1,8,0:1:0:0:
112,56,181770,5,8,0:1:0:0:
352,180,181953,1,8,0:1:0:0:
64,192,182136,102,0,L|4:196,2,53.9999983520508,2|0|0,0:0|0:0|0:0,0:0:0:0:
159,149,182502,2,0,L|219:153,2,53.9999983520508,2|2|0,0:0|0:0|0:0,0:0:0:0:
112,56,182868,70,0,B|144:24|144:24|212:16|276:56,1,180,12|0,1:0|0:0,0:0:0:0:
372,196,183417,1,8,0:1:0:0:
180,188,183600,2,0,P|248:160|272:160,1,90,10|0,0:0|0:0,0:0:0:0:
440,300,183965,1,8,0:0:0:0:
252,260,184148,1,8,0:0:0:0:
355,101,184331,22,8,P|391:103|425:114,1,60,8|8,0:1|0:1,0:1:0:0:
464,229,184575,2,8,P|443:258|416:282,1,60,8|8,0:1|0:1,0:1:0:0:
298,259,184819,2,8,P|281:224|273:190,1,60,8|8,0:3|0:3,0:3:0:0:
372,196,185063,6,0,P|344:216|200:204,1,180,12|8,0:0|0:0,0:0:0:0:
140,120,185612,1,8,0:0:0:0:
36,292,185795,2,0,L|144:280,1,90,12|0,0:1|0:0,0:0:0:0:
324,336,186161,1,8,0:1:0:0:
205,208,186343,1,8,0:1:0:0:
416,280,186526,102,0,B|432:324|432:324|424:376,1,90,10|0,0:0|0:0,0:0:0:0:
320,232,186892,2,0,B|364:256|364:256|516:260,1,180,10|8,0:0|1:0,0:0:0:0:
304,136,187441,1,8,0:1:0:0:
256,360,187624,1,8,0:3:0:0:
256,360,187990,101,0,0:0:0:0:
256,360,188722,2,0,P|272:300|272:252,1,90,12|8,0:1|0:0,0:0:0:0:
256,24,189087,21,8,0:1:0:0:
256,24,189453,1,0,0:0:0:0:
256,24,190185,86,0,P|240:84|240:132,1,90,12|8,0:1|0:0,0:0:0:0:
320,292,190551,1,8,0:1:0:0:
344,88,190734,1,8,0:1:0:0:
216,212,190917,22,0,P|268:204|308:188,1,90,12|0,0:0|0:0,0:0:0:0:
496,320,191282,2,0,P|444:296|400:288,1,90,10|0,0:0|0:0,0:0:0:0:
140,288,191648,2,0,P|188:308|236:312,1,90,12|0,0:1|0:0,0:0:0:0:
332,92,192014,2,0,P|272:96|236:112,1,90,8|8,0:1|0:0,0:0:0:0:
302,190,192380,5,10,0:0:0:0:
432,72,192563,1,8,0:3:0:0:
432,72,192654,1,8,0:3:0:0:
432,72,192746,2,0,L|440:20,1,45,8|0,0:3|0:0,0:0:0:0:
404,164,192929,2,0,L|416:220,1,45,8|0,0:0|0:0,0:0:0:0:
332,92,193112,102,0,P|304:88|272:92,2,60,8|0|0,1:1|0:0|0:0,0:0:0:0:
224,16,193478,2,0,P|200:36|184:64,2,60,2|2|0,0:0|0:0|0:0,0:0:0:0:
204,148,193843,70,0,P|216:208|208:248,1,90,12|8,0:0|0:1,0:0:0:0:
108,200,194209,1,8,0:0:0:0:
108,200,194392,1,0,0:0:0:0:
308,184,194575,2,0,L|412:196,1,90,12|0,1:0|0:0,0:0:0:0:
211,235,194941,1,8,0:0:0:0:
272,88,195124,1,8,0:1:0:0:
272,88,195215,1,8,0:1:0:0:
272,88,195307,102,0,B|312:68|312:68|368:60,1,90,10|8,0:0|0:1,0:0:0:0:
160,128,195673,2,8,B|120:108|120:108|96:68,1,90
272,88,196039,1,12,0:1:0:0:
196,280,196222,1,0,0:0:0:0:
72,144,196404,2,0,B|116:128|116:128|160:128,1,90,8|0,0:1|0:0,0:0:0:0:
432,188,196770,22,0,B|344:208|344:208|256:192,1,180,12|8,0:0|0:0,0:0:0:0:
444,8,197319,2,0,B|460:56|460:56|448:108,1,90,0|8,0:0|1:0,0:0:0:0:
432,188,197685,1,0,0:0:0:0:
272,48,197868,2,0,B|316:64|316:64|348:96,1,90,0|8,0:0|0:1,0:0:0:0:
320,292,198234,101,10,0:0:0:0:
260,152,198417,1,8,0:1:0:0:
220,252,198600,1,10,0:0:0:0:
360,192,198782,1,0,0:0:0:0:
152,172,198966,2,0,P|116:252|156:336,1,180,8|8,1:0|0:0,0:0:0:0:
220,252,199515,1,8,0:1:0:0:
192,72,199697,37,12,0:0:0:0:
152,172,199880,1,0,0:0:0:0:
300,64,200063,2,0,L|192:72,1,90,8|0,0:0|0:0,0:0:0:0:
364,148,200429,2,0,P|424:144|456:36,1,180,8|2,1:0|0:0,0:0:0:0:
260,184,200978,1,2,0:0:0:0:
260,184,201069,1,0,0:0:0:0:
260,184,201161,6,0,P|248:244|252:284,1,90,12|0,0:0|0:0,0:0:0:0:
364,148,201526,1,8,0:1:0:0:
152,220,201709,2,0,P|64:188|56:104,1,180,12|8,0:0|0:0,0:0:0:0:
260,184,202258,1,8,0:1:0:0:
232,292,202441,1,8,0:1:0:0:
152,220,202624,85,10,0:0:0:0:
340,268,202807,1,8,0:3:0:0:
128,324,202990,5,8,0:1:0:0:
260,184,203173,1,8,0:1:0:0:
120,52,203356,5,10,0:0:0:0:
232,292,203539,1,8,0:1:0:0:
296,80,203722,101,8,0:1:0:0:
48,138,203904,1,8,0:1:0:0:
260,184,204087,5,2,0:0:0:0:
296,80,204270,1,0,0:0:0:0:
408,64,204453,1,2,0:0:0:0:
368,164,204636,1,2,0:0:0:0:
260,184,204819,101,2,0:0:0:0:
220,172,204911,1,0,0:0:0:0:
192,144,205002,1,2,0:0:0:0:
180,104,205093,1,2,0:0:0:0:
184,64,205185,5,8,0:0:0:0:
152,108,205276,1,8,0:1:0:0:
144,162,205368,1,8,0:1:0:0:
164,212,205459,1,8,0:1:0:0:
208,244,205551,70,0,P|276:256|364:196,1,170.999995433807,12|8,0:0|0:0,0:0:0:0:
104,316,206282,2,0,P|84:256|120:156,1,170.999995433807,8|2,0:1|0:0,0:0:0:0:
224,140,206831,1,0,0:0:0:0:
118,157,207014,2,0,P|72:156|18:141,1,85.4999977169037,10|0,0:0|0:0,0:0:0:0:
192,244,207380,2,0,P|256:224|368:244,1,170.999995433807,8|8,0:0|0:1,0:0:0:0:
357,238,208112,1,0,0:0:0:0:
312,148,208295,1,0,0:0:0:0:
312,148,208386,1,0,0:0:0:0:
312,148,208478,6,0,L|300:324,2,170.999995433807,10|8|8,0:0|0:0|0:1,0:0:0:0:
124,44,209575,2,0,L|144:136,1,85.4999977169037,2|8,0:0|0:0,0:0:0:0:
16,232,209941,2,0,L|28:132,1,85.4999977169037,10|8,0:0|0:0,0:0:0:0:
236,196,210307,2,0,B|252:240|252:240|232:368,1,170.999995433807,8|8,0:0|0:1,0:0:0:0:
232,362,211039,1,8,0:0:0:0:
332,336,211222,1,8,0:0:0:0:
432,312,211404,6,0,P|380:248|280:248,1,170.999995433807,10|8,0:0|0:0,0:0:0:0:
64,96,212136,2,0,P|168:108|220:64,1,170.999995433807,8|2,0:1|0:0,0:0:0:0:
128,16,212685,1,0,0:0:0:0:
96,192,212868,2,0,P|100:232|120:276,1,85.4999977169037,10|0,0:0|0:0,0:0:0:0:
304,124,213234,2,0,P|316:88|320:36,1,85.4999977169037,8|0,0:0|0:0,0:0:0:0:
216,208,213600,2,0,P|296:240|392:208,1,170.999995433807,8|0,0:1|0:0,0:0:0:0:
192,104,214148,1,0,0:0:0:0:
192,104,214240,1,0,0:0:0:0:
192,104,214331,102,0,B|156:136|156:136|96:148|32:108,1,170.999995433807,10|8,0:0|0:0,0:0:0:0:
320,280,215063,2,0,B|356:248|356:248|416:236|480:276,1,170.999995433807,8|8,0:1|0:1,0:0:0:0:
396,348,215612,1,8,0:0:0:0:
296,176,215795,1,10,0:0:0:0:
200,288,215978,5,8,0:0:0:0:
236,312,216069,1,8,0:0:0:0:
280,312,216161,1,8,0:1:0:0:
316,288,216252,1,8,0:1:0:0:
336,248,216343,1,8,0:1:0:0:
324,208,216435,1,8,0:1:0:0:
296,176,216526,38,0,L|240:184,1,42.7499988584519,2|8,0:0|0:1,0:0:0:0:
352,84,216709,2,0,L|394:77,1,42.7499988584519,8|0,0:3|0:0,0:0:0:0:
404,184,216892,2,0,L|395:225,1,42.7499988584519,10|0,0:0|0:0,0:0:0:0:
244,80,217075,2,0,L|252:38,1,42.7499988584519,10|0,0:0|0:0,0:0:0:0:
296,176,217258,86,0,P|292:272|232:328,1,170.999995433807,12|8,0:0|0:0,0:0:0:0:
52,184,217990,2,0,B|20:140|20:140|28:12,1,170.999995433807,12|0,0:1|0:0,0:0:0:0:
336,292,218722,2,0,P|316:340|284:372,1,85.4999977169037,10|0,0:0|0:0,0:0:0:0:
64,304,219087,2,0,P|136:264|228:276,1,170.999995433807,8|8,0:0|0:1,0:0:0:0:
221,272,219819,2,0,P|209:208|216:176,1,85.4999977169037
280,144,220093,1,0,0:0:0:0:
280,144,220185,70,0,L|380:152,1,85.4999977169037,12|0,0:0|0:0,0:0:0:0:
76,229,220551,2,0,L|80:137,1,85.4999977169037,10|0,0:0|0:0,0:0:0:0:
316,244,220917,2,0,L|416:252,1,85.4999977169037,12|0,0:1|0:0,0:0:0:0:
175,106,221282,2,0,L|172:192,1,85.4999977169037,2|8,0:0|0:1,0:0:0:0:
264,56,221648,5,12,0:0:0:0:
80,144,221831,1,8,0:1:0:0:
260,244,222014,2,0,P|344:232|352:148,1,170.999995433807,8|8,0:0|0:1,0:0:0:0:
456,208,222563,1,2,0:0:0:0:
383,55,222746,2,0,P|341:56|300:68,1,85.4999977169037,8|2,0:0|0:0,0:0:0:0:
196,152,223112,101,12,0:0:0:0:
316,232,223295,1,0,0:0:0:0:
164,248,223478,85,8,0:3:0:0:
352,136,223661,1,2,0:0:0:0:
164,72,223843,38,0,L|195:151,1,85.4999977169037,8|0,0:3|0:0,0:0:0:0:
348,312,224209,2,0,L|316:232,1,85.4999977169037,8|2,0:3|0:0,0:0:0:0:
256,84,224575,101,8,0:1:0:0:
256,300,224758,1,2,0:0:0:0:
364,76,224941,21,8,0:1:0:0:
148,308,225124,1,2,0:0:0:0:
448,212,225307,86,0,B|412:188|412:188|352:184,1,90,8|2,0:1|0:0,0:0:0:0:
64,172,225673,2,0,B|100:196|100:196|160:200,1,90,8|2,0:1|0:0,0:0:0:0:
132,96,226039,53,12,0:3:0:0:
160,296,226222,1,0,0:0:0:0:
160,296,226313,1,8,0:1:0:0:
160,296,226404,1,8,0:1:0:0:
277,179,226587,5,8,0:3:0:0:
44,252,226770,1,8,0:3:0:0:
162,79,226953,101,8,1:0:0:0:
130,312,227136,1,8,1:0:0:0:
263,155,227319,54,0,B|227:104|161:78|161:78|266:6|379:48|440:154|420:273|305:328|305:328|315:258|290:202,1,756,12|0,0:0|0:0,2:0:0:0:
