osu file format v12

[General]
AudioFilename: usa_amatsu_highres.mp3
AudioLeadIn: 0
PreviewTime: -1
Countdown: 0
SampleSet: Soft
StackLeniency: 0.7
Mode: 0
LetterboxInBreaks: 1
WidescreenStoryboard: 0

[Editor]
DistanceSpacing: 0.8
BeatDivisor: 2
GridSize: 8
TimelineZoom: 1

[Metadata]
Title:Amatsukitsune
TitleUnicode:Amatsukitsune
Artist:Usa
ArtistUnicode:Usa
Creator:AcidSnow1
Version:proto?
Source:Nico Nico Douga
Tags:marasy amatsu kitsune vocaloid vocaloid2 kagamine rin niconicodouga niconico nicovideo nicosound utaite utattemita
BeatmapID:277174
BeatmapSetID:105631

[Difficulty]
HPDrainRate:5
CircleSize:5
OverallDifficulty:5
ApproachRate:5
SliderMultiplier:1.6
SliderTickRate:2

[Events]
//Background and Video events
0,0,"Konachan.com_20-_20151396_20animal_ears_20blonde_hair_20blue_eyes_20japanese_clothes_20kagamine_ri_large.jpg",0,0
//Break Periods
//Storyboard Layer 0 (Background)
//Storyboard Layer 1 (Fail)
//Storyboard Layer 2 (Pass)
//Storyboard Layer 3 (Foreground)
//Storyboard Sound Samples
//Background Colour Transformations
3,100,192,160,80

[TimingPoints]
2648,315.789473684211,4,2,1,100,1,0
8963,-100,4,1,0,100,0,0
12753,-100,4,2,1,100,0,0
15279,-100,4,1,0,100,0,0
17805,-100,4,2,1,100,0,0
20332,-100,4,1,0,100,0,0
22858,-100,4,2,1,100,0,0
25384,-100,4,1,0,100,0,0
27911,-100,4,2,1,100,0,0
30437,-100,4,1,0,100,0,0
32963,-100,4,2,1,100,0,0
36753,-100,4,2,0,100,0,0
67069,-100,4,1,0,100,0,1
89805,-100,4,1,0,100,0,0
92332,-100,4,2,0,100,0,0
131490,-100,4,1,0,100,0,1
149174,-100,4,1,0,100,0,0

[HitObjects]
112,192,2016,1,0,0:0:0:0:
152,152,2332,1,0,0:0:0:0:
200,120,2648,1,0,0:0:0:0:
256,104,2963,1,0,0:0:0:0:
312,120,3279,1,0,0:0:0:0:
360,152,3595,1,0,0:0:0:0:
400,192,3911,1,2,0:0:0:0:
360,296,4542,5,0,0:0:0:0:
312,264,4858,1,0,0:0:0:0:
256,248,5174,1,2,0:0:0:0:
200,256,5490,1,0,0:0:0:0:
160,296,5805,1,0,0:0:0:0:
112,320,6121,1,0,0:0:0:0:
112,320,6437,1,4,0:0:0:0:
112,200,7069,5,0,0:0:0:0:
160,168,7384,1,0,0:0:0:0:
208,200,7700,1,4,0:0:0:0:
296,168,8332,5,4,0:0:0:0:
392,136,8963,5,0,0:0:0:0:
392,192,9279,1,0,0:0:0:0:
392,248,9595,1,0,0:0:0:0:
392,304,9911,1,0,0:0:0:0:
336,272,10226,6,0,L|96:272,4,240
336,192,12753,5,0,0:0:0:0:
248,128,13384,1,2,0:0:0:0:
192,144,13700,1,0,0:0:0:0:
184,200,14016,1,0,0:0:0:0:
288,200,14648,1,4,0:0:0:0:
184,264,15279,6,0,B|288:304|352:280|376:240|384:192,4,240
176,192,17805,5,0,0:0:0:0:
192,136,18121,1,0,0:0:0:0:
248,120,18437,1,2,0:0:0:0:
336,192,19069,1,0,0:0:0:0:
320,248,19385,1,0,0:0:0:0:
264,264,19701,1,2,0:0:0:0:
176,192,20332,1,4,0:0:0:0:
360,144,22858,5,0,0:0:0:0:
360,200,23174,1,0,0:0:0:0:
360,256,23490,1,2,0:0:0:0:
256,144,24121,1,0,0:0:0:0:
256,200,24437,1,0,0:0:0:0:
256,256,24753,1,2,0:0:0:0:
152,144,25384,1,4,0:0:0:0:
200,152,27911,5,0,0:0:0:0:
256,128,28226,1,0,0:0:0:0:
312,152,28542,2,2,L|392:152,2,80,2|2|2,0:0|0:0|0:0,0:0:0:0:
312,216,29174,1,0,0:0:0:0:
256,240,29490,1,0,0:0:0:0:
200,216,29805,2,2,L|120:216,2,80,2|0|2,0:0|0:0|0:0,0:0:0:0:
256,128,30437,1,4,0:0:0:0:
320,184,32963,6,0,B|376:120|368:80|304:48|264:64,2,160
256,144,33911,1,8,0:0:0:0:
200,96,34226,2,0,B|104:96|104:104|112:200,1,160
160,232,34858,2,0,L|248:232,3,80
256,192,35490,12,0,36437,0:0:0:0:
