osu file format v12

[General]
AudioFilename: usa_amatsu_highres.mp3
AudioLeadIn: 0
PreviewTime: -1
Countdown: 0
SampleSet: Soft
StackLeniency: 0.7
Mode: 0
LetterboxInBreaks: 1
WidescreenStoryboard: 1

[Editor]
DistanceSpacing: 0.8
BeatDivisor: 2
GridSize: 16
TimelineZoom: 2.1

[Metadata]
Title:Amatsukitsune
TitleUnicode:Amatsukitsune
Artist:Usa
ArtistUnicode:Usa
Creator:AcidSnow1
Version:harder?
Source:Nico Nico Douga
Tags:marasy amatsu kitsune vocaloid vocaloid2 kagamine rin niconicodouga niconico nicovideo nicosound utaite utattemita
BeatmapID:372906
BeatmapSetID:105631

[Difficulty]
HPDrainRate:5
CircleSize:5
OverallDifficulty:5
ApproachRate:5
SliderMultiplier:1.8
SliderTickRate:2

[Events]
//Background and Video events
0,0,"Konachan.com_20-_20151396_20animal_ears_20blonde_hair_20blue_eyes_20japanese_clothes_20kagamine_ri_large.jpg",0,0
//Break Periods
//Storyboard Layer 0 (Background)
//Storyboard Layer 1 (Fail)
//Storyboard Layer 2 (Pass)
//Storyboard Layer 3 (Foreground)
//Storyboard Sound Samples
//Background Colour Transformations
3,100,192,160,80

[TimingPoints]
2648,315.789473684211,4,2,1,100,1,0
8963,-100,4,1,0,100,0,0
12753,-100,4,2,1,100,0,0
15279,-100,4,1,0,100,0,0
17805,-100,4,2,1,100,0,0
20332,-100,4,1,0,100,0,0
22858,-100,4,2,1,100,0,0
25384,-100,4,1,0,100,0,0
27911,-100,4,2,1,100,0,0
30437,-100,4,1,0,100,0,0
32963,-100,4,2,1,100,0,0
36753,-100,4,2,0,100,0,0
67069,-100,4,1,0,100,0,1
89805,-100,4,1,0,100,0,0
92332,-100,4,2,0,100,0,0
131490,-100,4,1,0,100,0,1
149174,-100,4,1,0,100,0,0

[HitObjects]
112,192,2016,5,0,0:0:0:0:
152,152,2332,1,0,0:0:0:0:
200,120,2648,1,0,0:0:0:0:
256,104,2963,1,0,0:0:0:0:
312,120,3279,1,0,0:0:0:0:
360,152,3595,1,0,0:0:0:0:
400,192,3911,1,2,0:0:0:0:
152,296,4542,5,0,0:0:0:0:
200,264,4858,1,0,0:0:0:0:
256,248,5174,1,2,0:0:0:0:
312,256,5490,1,0,0:0:0:0:
352,296,5805,1,0,0:0:0:0:
400,320,6121,1,0,0:0:0:0:
400,320,6437,1,4,0:0:0:0:
400,200,7069,5,4,0:0:0:0:
352,168,7384,1,0,0:0:0:0:
304,200,7700,1,4,0:0:0:0:
224,144,8332,5,4,0:0:0:0:
160,80,8963,6,0,L|64:80,6,50
160,144,9595,2,0,L|96:144,6,50
128,208,10226,6,0,L|128:320,2,90
192,208,10700,2,0,L|192:320,2,90
256,208,11174,2,0,L|256:320,2,90
320,208,11648,2,0,L|320:320,2,90
384,208,12121,2,0,L|384:320,2,90
144,144,12753,5,0,0:0:0:0:
256,64,13384,1,2,0:0:0:0:
368,144,13700,1,0,0:0:0:0:
368,144,13858,1,0,0:0:0:0:
368,144,14016,1,0,0:0:0:0:
256,224,14648,1,4,0:0:0:0:
144,80,15279,5,0,0:0:0:0:
144,80,15437,1,0,0:0:0:0:
144,80,15595,1,0,0:0:0:0:
144,144,15753,2,0,L|32:144,2,90
144,208,16226,1,0,0:0:0:0:
144,208,16384,1,0,0:0:0:0:
144,208,16542,1,0,0:0:0:0:
144,272,16700,2,0,L|32:272,2,90
144,272,17174,2,0,L|256:272,2,90
144,96,17805,5,0,0:0:0:0:
368,96,18121,1,2,0:0:0:0:
256,160,18437,2,0,L|256:240,4,45,0|0|0|0|2,0:0|0:0|0:0|0:0|0:0,0:0:0:0:
256,160,18911,1,0,0:0:0:0:
320,128,19069,2,0,P|232:86|186:151,1,180,0|2,0:0|0:0,0:0:0:0:
288,240,19700,2,0,L|384:240,1,90
224,240,20016,2,0,L|128:240,1,90,2|0,0:0|0:0,0:0:0:0:
256,128,20332,5,4,0:0:0:0:
288,160,20490,1,0,0:0:0:0:
256,192,20648,1,8,0:0:0:0:
224,224,20805,1,0,0:0:0:0:
256,256,20963,1,0,0:0:0:0:
288,288,21121,1,8,0:0:0:0:
224,288,21279,2,0,L|128:288,2,90,0|0|8,0:0|0:0|0:0,0:0:0:0:
224,288,21753,2,0,L|320:288,2,90,0|0|8,0:0|0:0|0:0,0:0:0:0:
224,288,22226,2,0,L|224:192,2,90,0|0|8,0:0|0:0|0:0,0:0:0:0:
160,240,22858,5,0,0:0:0:0:
352,240,23174,1,2,0:0:0:0:
224,176,23490,2,0,L|144:176,4,45,0|0|0|0|2,0:0|0:0|0:0|0:0|0:0,0:0:0:0:
256,112,23963,1,0,0:0:0:0:
288,176,24121,2,0,B|288:272|256:240|128:240,1,180,0|2,0:0|0:0,0:0:0:0:
352,176,24753,2,0,L|352:80,1,90
288,144,25069,2,0,L|288:240,1,90,2|0,0:0|0:0,0:0:0:0:
224,176,25384,5,0,0:0:0:0:
176,208,25542,1,0,0:0:0:0:
224,240,25700,1,8,0:0:0:0:
176,272,25858,1,0,0:0:0:0:
224,304,26016,2,0,L|288:208,1,90,0|8,0:0|0:0,0:0:0:0:
304,160,26332,2,0,L|400:160,2,90,0|0|8,0:0|0:0|0:0,0:0:0:0:
304,96,26805,1,0,0:0:0:0:
304,96,26963,1,0,0:0:0:0:
304,96,27121,1,8,0:0:0:0:
240,96,27279,2,0,L|240:192,2,90,0|0|8,0:0|0:0|0:0,0:0:0:0:
160,144,27911,6,0,P|96:208|144:272,1,180,0|2,0:0|0:0,0:0:0:0:
256,144,28542,2,0,L|256:96,4,45,0|0|0|0|2,0:0|0:0|0:0|0:0|0:0,0:0:0:0:
256,208,29016,1,0,0:0:0:0:
320,208,29174,2,0,P|320:112|240:64,1,180,0|2,0:0|0:0,0:0:0:0:
192,176,29805,2,0,P|144:208|144:256,1,90
272,192,30121,2,0,P|240:240|192:240,1,90,2|0,0:0|0:0,0:0:0:0:
128,240,30437,6,0,L|128:144,2,90,0|0|8,0:0|0:0|0:0,0:0:0:0:
192,208,30911,2,0,L|192:336,2,90,0|0|8,0:0|0:0|0:0,0:0:0:0:
256,160,31384,1,0,0:0:0:0:
256,192,31542,1,0,0:0:0:0:
256,224,31700,1,8,0:0:0:0:
320,208,31858,2,0,L|320:112,2,90,0|0|8,0:0|0:0|0:0,0:0:0:0:
384,240,32332,2,0,L|384:368,2,90,0|0|8,0:0|0:0|0:0,0:0:0:0:
320,144,32963,6,0,P|256:128|112:160,1,180,0|2,0:0|0:0,0:0:0:0:
208,208,33595,2,0,L|128:208,4,45,0|0|0|0|2,0:0|0:0|0:0|0:0|0:0,0:0:0:0:
272,208,34069,1,0,0:0:0:0:
336,208,34226,2,0,B|336:160|336:112|208:128,1,180,0|2,0:0|0:0,0:0:0:0:
240,192,34858,2,0,L|160:192,4,45,0|0|0|0|6,0:0|0:0|0:0|0:0|0:0,0:0:0:0:
240,256,35332,1,0,0:0:0:0:
256,192,35490,12,0,36753,0:0:0:0:
