osu file format v9

[General]
AudioFilename: akane.mp3
AudioLeadIn: 0
PreviewTime: 57640
Countdown: 0
SampleSet: Normal
StackLeniency: 0.7
Mode: 0
LetterboxInBreaks: 1

[Editor]
DistanceSpacing: 1
BeatDivisor: 4
GridSize: 4

[Metadata]
Title:Akane Contrast
Artist:Usa
Creator:Thite
Version:Normal
Source:doriko
Tags:vocaloid vocaloid2 hatsune miku wring

[Difficulty]
HPDrainRate:3
CircleSize:3
OverallDifficulty:3
ApproachRate:4
SliderMultiplier:0.999999999999999
SliderTickRate:2

[Events]
//Background and Video events
0,0,"BG.jpg"
//Break Periods
2,80599,90458
//Storyboard Layer 0 (Background)
//Storyboard Layer 1 (Fail)
//Storyboard Layer 2 (Pass)
//Storyboard Layer 3 (Foreground)
//Storyboard Sound Samples
//Background Colour Transformations
3,100,163,162,255

[TimingPoints]
399,344.827586206897,4,1,1,70,1,0
22812,-100,4,1,1,50,0,0
44536,-100,4,1,1,60,0,0
56605,-100,4,1,1,70,0,0
56950,-100,4,1,1,75,0,0
58330,-100,4,1,1,70,0,1
67985,-100,4,1,1,50,0,1
68674,-100,4,1,1,60,0,1
69364,-100,4,1,1,70,0,1
80399,-100,4,1,1,50,0,0
91778,-100,4,1,1,50,0,0
102812,-100,4,1,1,50,0,0
113502,-100,4,1,1,60,0,0
125916,-100,4,1,1,75,0,0
127295,-100,4,1,1,70,0,1
136950,-100,4,1,1,50,0,1
137640,-100,4,1,1,60,0,1
138330,-100,4,1,1,70,0,1
149364,-100,4,1,1,70,0,0

[Colours]
Combo1 : 255,255,0
Combo2 : 255,128,0
Combo3 : 255,128,192
Combo4 : 255,128,128

[HitObjects]
136,128,11433,2,0,B|80:152|68:216|100:276|152:280,1,200,4|0
208,200,12467,1,2
272,276,12812,2,0,B|328:252|340:188|308:128|256:124,1,200
208,200,13847,1,2
172,292,14192,6,0,B|180:360|248:360|248:360|352:360,1,200,4|0
404,288,15226,1,2
436,192,15571,2,0,B|492:168|504:104|472:44|420:40,1,200
344,96,16605,1,2
320,192,16950,6,0,B|356:248|356:248|316:300|348:380,1,200,4|0
256,332,17985,1,2
165,374,18330,2,0,B|196:300|156:248|156:248|192:192,1,200
256,116,19364,1,2
348,76,19709,6,0,B|432:88|476:168|460:260|372:292,1,300,4|0
304,220,21088,1,2
148,96,21778,1,0
224,160,22123,1,2
304,220,22467,1,4
256,308,22812,6,0,B|216:336|160:340,2,99.9999999999999,0|2|0
304,220,23847,2,0,B|332:168|324:104|288:68|224:60,1,200,0|2
48,128,25226,1,4
64,228,25571,6,0,B|52:276|64:328,2,99.9999999999999,0|2|0
160,208,26605,2,0,B|200:184|256:172|312:180|356:192,1,200,0|2
444,372,27985,1,4
348,336,28330,6,0,B|296:324|268:276,2,99.9999999999999,0|2|0
424,272,29364,2,0,B|452:212|428:164|380:136|328:152,1,200,0|2
132,192,30743,6,0,B|120:244|136:292,2,99.9999999999999,4|2|0
176,100,31778,1,2
256,40,32123,2,0,B|336:36|396:104|388:196|296:244,1,300,0|2
208,192,33502,1,4
124,244,33847,6,0,B|112:292|120:344,2,99.9999999999999,0|2|0
68,160,34881,2,0,B|268:160,1,200,0|2
432,272,36261,1,4
352,316,36605,6,0,B|312:344|252:340,2,99.9999999999999,0|2|0
436,372,37640,2,0,B|472:332|476:276|464:228|424:192,1,200,0|2
324,196,38674,2,0,B|296:156|300:96,1,99.9999999999999,0|4
364,24,39364,6,0,B|392:64|388:124,2,99.9999999999999,0|2|0
292,96,40399,1,0
220,164,40743,1,2
124,144,41088,1,0
96,48,41433,1,2
192,16,41778,6,0,B|272:36|320:104|320:192|264:256,1,300,4|0
168,236,43157,1,2
220,320,43502,1,0
320,300,43847,1,8
344,204,44192,1,2
300,112,44536,6,0,B|228:128|228:128|168:104|104:112,2,200,4|0|0
400,92,46261,1,2
384,184,46605,1,0
288,208,46950,1,2
212,272,47295,6,0,B|284:256|284:256|344:280|408:272,2,200,4|0|0
112,284,49019,1,2
72,192,49364,1,0
116,100,49709,1,2
200,48,50054,6,0,B|264:24|324:48|336:96|320:156,1,200,4|0
312,336,51433,2,0,B|248:360|188:336|176:288|192:228,1,200
288,236,52467,1,2
376,192,52812,6,0,B|484:192,2,99.9999999999999,4|2|0
256,32,54192,1,2
188,108,54536,2,0,B|80:108,2,99.9999999999999,0|2|0
256,32,55571,6,0,B|380:60|400:184|368:292|220:296,1,400,4|0
172,104,57640,1,0
80,140,57985,1,0
156,192,58330,6,0,B|168:240|164:292,1,99.9999999999999,4|2
248,348,59019,2,0,B|296:360|348:356,1,99.9999999999999,0|2
396,268,59709,2,0,B|348:256|296:260,2,99.9999999999999,0|2|0
488,308,60743,1,2
480,208,61088,6,0,B|492:160|480:108|436:68|380:64,1,200,4|2
256,220,62467,2,0,B|244:268|256:320|300:360|356:364,1,200,0|2
404,276,63502,5,0
404,176,63847,2,0,B|396:124|360:88,1,99.9999999999999,4|2
308,0,64536,2,0,B|268:34|256:83,1,99.9999999999999,0|2
204,168,65226,2,0,B|254:181|302:163,2,99.9999999999999,0|2|0
108,136,66261,1,2
24,192,66605,6,0,B|36:280|36:280|136:260|220:364,1,300,0|2
256,268,67985,1,0
256,168,68330,1,2
256,68,68674,2,0,B|304:52|356:56,1,99.9999999999999,0|2
452,28,69364,6,0,B|468:76|464:128,1,99.9999999999999,4|2
496,220,70054,2,0,B|477:267|440:304,1,99.9999999999999,0|2
372,376,70743,2,0,B|347:331|342:279,1,99.9999999999999,0|2
388,192,71433,1,0
356,96,71778,1,2
256,80,72123,6,0,B|204:60|152:84|136:136|160:196,1,200,4|0
276,360,73502,2,0,B|328:380|380:356|396:304|372:244,1,200,0|2
352,144,74536,5,0
256,116,74881,2,0,B|176:128|176:128|124:88|64:112,2,200,4|0|0
256,216,76605,1,2
256,316,76950,2,0,B|336:304|336:304|388:344|448:320,2,200,0|4|0
256,192,79019,12,0,80399
456,244,91778,6,0,B|416:328|416:328|308:332,1,200,0|2
216,372,92812,2,0,B|132:332|132:332|128:224,1,200,0|2
256,72,94192,1,2
328,144,94536,6,0,B|328:192|340:248,2,99.9999999999999,0|2|0
364,52,95571,2,0,B|416:104|416:104|408:152|424:232,2,200,0|2|0
276,96,97295,6,0,B|224:84|176:104,2,99.9999999999999,0|2|0
308,192,98330,2,0,B|320:244|300:292,2,99.9999999999999,0|2|0
220,236,99364,1,2
212,336,99709,6,0,B|160:348|108:320|88:264|128:212,1,200,0|2
196,24,101088,2,0,B|248:12|300:40|320:96|280:148,1,200,0|2
184,124,102123,1,2
216,220,102467,1,4
316,228,102812,6,0,B|416:220,2,99.9999999999999,4|2|0
372,312,103847,2,0,B|172:328,1,200,0|2
24,192,105226,1,4
52,96,105571,5,0
152,100,105916,2,0,B|176:144|164:196,1,99.9999999999999,2|0
88,260,106605,2,0,B|108:316|144:352|200:360|248:348,1,200,0|2
344,336,107640,2,0,B|372:292|368:240,1,99.9999999999999,0|4
300,164,108330,6,0,B|272:208|276:260,2,99.9999999999999,0|2|0
348,76,109364,1,0
448,64,109709,1,2
492,152,110054,1,0
424,224,110399,1,2
336,180,110743,6,0,B|256:188|212:272|248:368|356:372,1,300,4|0
416,292,112123,2,0,B|452:332|504:340,2,99.9999999999999,0|2|8
476,212,113157,1,2
448,116,113502,6,0,B|380:80|380:80|324:96|256:80,2,200,4|0|0
376,184,115226,2,0,B|376:240|352:284,1,99.9999999999999,2|0
256,300,115916,1,2
160,324,116261,6,0,B|228:360|228:360|284:344|352:360,2,200,4|0|0
100,248,117985,2,0,B|80:200|88:148,1,99.9999999999999,2|0
96,52,118674,1,2
196,68,119019,6,0,B|248:112|288:116|288:116|336:112|392:80,1,200,4|2
500,248,120399,2,0,B|448:204|408:200|408:200|360:204|304:236,1,200,0|2
256,308,121433,1,0
344,356,121778,5,4
440,324,122123,1,2
412,228,122467,1,0
460,36,123157,1,2
504,128,123502,2,0,B|512:180|496:232,2,99.9999999999999,0|2|0
412,144,124536,6,0,B|384:20|260:0|152:32|148:180,1,400,4|0
208,360,126605,1,0
308,332,126950,1,0
408,320,127295,6,0,B|420:272|408:220,1,99.9999999999999,4|2
500,184,127985,2,0,B|478:139|435:107,1,99.9999999999999,0|2
488,24,128674,2,0,B|424:4|348:16|304:68,1,200,0|2
256,156,129709,1,0
188,84,130054,6,0,B|136:60|76:76|48:128|64:180,1,200,4|2
232,288,131433,2,0,B|247:343|297:378|355:366|385:321,1,200,0|2
324,240,132467,5,0
424,240,132812,2,0,B|428:188|416:140,1,99.9999999999999,4|2
456,48,133502,2,0,B|404:44|356:56,1,99.9999999999999,0|2
264,16,134192,2,0,B|260:68|272:116,1,99.9999999999999,0|2
300,212,134881,1,0
256,300,135226,1,2
156,308,135571,6,0,B|72:268|72:268|52:192|84:120|84:120|136:100,1,300,4|2
232,68,136950,1,0
284,153,137295,1,2
240,244,137640,2,0,B|232:296|248:344,1,99.9999999999999,0|2
332,288,138330,6,0,B|381:268|414:231,2,99.9999999999999,4|2|0
316,188,139364,1,2
396,128,139709,2,0,B|376:79|339:46,2,99.9999999999999,0|2|0
316,188,140743,1,2
256,108,141088,6,0,B|164:136|56:120,1,200,4|2
4,312,142467,2,0,B|96:284|204:300,1,200,0|2
256,384,143502,1,0
344,340,143847,6,0,B|392:280|392:280|364:224|380:156,2,200,4|0|0
256,288,145571,1,2
168,340,145916,2,0,B|120:280|120:280|148:224|132:156,2,200,0|0|4
256,192,147985,12,4,149364
