osu file format v9

[General]
AudioFilename: akane.mp3
AudioLeadIn: 0
PreviewTime: 57640
Countdown: 0
SampleSet: Normal
StackLeniency: 0.7
Mode: 0
LetterboxInBreaks: 1

[Editor]
DistanceSpacing: 2
BeatDivisor: 4
GridSize: 4

[Metadata]
Title:Akane Contrast
Artist:Usa
Creator:Thite
Version:Insane
Source:doriko
Tags:vocaloid vocaloid2 hatsune miku wring

[Difficulty]
HPDrainRate:7
CircleSize:4
OverallDifficulty:7
ApproachRate:8
SliderMultiplier:1.7
SliderTickRate:2

[Events]
//Background and Video events
0,0,"BG.jpg"
//Break Periods
2,80599,89304
//Storyboard Layer 0 (Background)
//Storyboard Layer 1 (Fail)
//Storyboard Layer 2 (Pass)
//Storyboard Layer 3 (Foreground)
//Storyboard Sound Samples
//Background Colour Transformations
3,100,163,162,255

[TimingPoints]
399,344.827586206897,4,1,1,70,1,0
22812,-100,4,1,1,50,0,0
44536,-100,4,1,1,60,0,0
56605,-100,4,1,1,70,0,0
56950,-100,4,1,1,75,0,0
57123,-100,4,1,1,80,0,0
57295,-100,4,1,1,85,0,0
57554,-133.333333333333,4,1,1,50,0,0
58330,-100,4,1,1,70,0,1
67985,-100,4,1,1,50,0,1
68674,-100,4,1,1,60,0,1
69364,-100,4,1,1,70,0,1
80399,-100,4,1,1,50,0,0
91433,-100,4,1,1,50,0,0
102123,-100,4,1,1,50,0,0
102812,-100,4,1,1,50,0,0
113502,-100,4,1,1,60,0,0
125571,-100,4,1,1,70,0,0
125916,-100,4,1,1,75,0,0
126088,-100,4,1,1,80,0,0
126261,-100,4,1,1,85,0,0
126519,-133.333333333333,4,1,1,50,0,0
127295,-100,4,1,1,70,0,1
136950,-100,4,1,1,50,0,1
137640,-100,4,1,1,60,0,1
138330,-100,4,1,1,70,0,1
149364,-100,4,1,1,70,0,0

[Colours]
Combo1 : 255,255,0
Combo2 : 255,128,0
Combo3 : 255,128,192
Combo4 : 255,128,128

[HitObjects]
116,192,11433,1,4
144,280,11605,2,0,B|216:312|216:312|256:288|304:296,1,170,2|0
256,212,12123,1,0
416,144,12295,2,0,B|344:112|344:112|304:136|256:128,1,170,0|2
292,40,12812,5,2
332,224,13157,1,2
380,44,13502,1,2
256,184,13847,1,2
344,148,14019,1,0
432,116,14192,5,4
248,100,14364,2,0,B|200:104|164:136|160:184|184:224,1,170,2|0
256,284,14881,1,0
320,108,15054,2,0,B|316:60|284:24|236:20|196:44,1,170,0|2
164,192,15571,5,2
256,28,15916,1,2
164,192,16261,1,2
328,284,16606,1,2
244,240,16778,1,0
164,192,16950,5,4
92,132,17123,2,0,B|52:172|48:220|68:260|124:272,1,170,2|0
164,192,17640,1,0
336,44,17812,2,0,B|296:4|248:0|208:20|196:76,1,170,2|8
168,144,18330,5,2
352,116,18674,1,2
212,240,19019,1,2
244,56,19364,1,2
280,140,19536,1,0
316,228,19709,5,4
256,300,19881,2,0,B|216:324|180:332|136:324|92:296,1,170,2|0
240,208,20399,1,0
352,80,20571,2,0,B|320:152|320:152|344:192|336:240,1,170,2|0
256,192,21088,12,4,22467
108,192,22812,5,0
168,264,22985,2,0,B|248:232|256:284|336:252,1,170,0|2
404,192,23502,1,0
334,252,23674,1,8
428,108,23847,6,0,B|476:124|500:168|496:216|464:252,1,170,0|2
320,332,24364,2,0,B|272:316|248:272|252:224|284:188,2,170,0|2|0
352,244,25226,1,4
224,356,25399,1,0
164,296,25571,6,0,B|152:256|160:212,1,85,0|2
348,88,25916,2,0,B|360:128|352:172,1,85,0|2
200,136,26261,1,0
312,248,26433,1,8
148,296,26605,6,0,B|96:300|64:272|52:224|80:180,1,170,0|2
128,100,27123,1,0
432,204,27295,6,0,B|460:160|448:112|416:84|364:88,1,170,0|2
272,80,27812,1,0
352,232,27985,1,4
272,284,28157,1,0
184,248,28330,6,0,B|168:204|176:160,1,85,0|2
84,144,28674,2,0,B|100:100|134:71,1,85,0|2
200,12,29019,2,0,B|223:52|223:97,1,85,0|8
112,216,29364,6,0,B|100:268|120:312|160:332|208:320,1,170,0|2
400,168,29881,2,0,B|412:116|392:72|352:52|304:64,2,170,0|2|0
232,192,30743,5,4
312,144,30916,1,2
316,236,31088,1,0
232,192,31261,1,2
244,100,31433,5,0
388,192,31605,1,2
156,300,31778,1,0
316,236,31950,1,2
232,192,32123,6,0,B|220:232|228:276,1,85,0|2
260,108,32467,2,0,B|294:130|317:169,1,85,0|2
224,28,32812,2,0,B|265:23|307:38,1,85,0|2
136,20,33157,5,8
104,32,33243,1,0
84,60,33330,1,0
76,92,33416,1,0
76,124,33502,2,0,B|76:168|96:208,1,85,4|0
256,284,33847,5,0
164,272,34019,1,2
328,228,34192,1,0
408,184,34364,2,0,B|416:228|408:268,1,85,2|0
104,200,34709,1,8
164,272,34881,6,0,B|200:252|220:208|212:160|184:120,1,170,0|2
104,76,35399,2,0,B|124:112|168:132|216:124|256:96,1,170,0|2
324,36,35916,1,0
324,36,36002,1,0
324,36,36088,1,8
396,192,36261,2,0,B|396:148|372:112,1,85,4|0
256,232,36605,6,0,B|256:276|280:312,1,85,0|2
328,232,36950,1,0
272,156,37123,1,2
188,196,37295,1,0
192,288,37467,1,8
280,312,37640,6,0,B|316:336|360:352|408:344|444:328,1,170,0|2
328,232,38157,1,0
136,220,38330,2,0,B|112:256|96:300|104:348|120:384,1,170,0|2
119,381,38847,1,0
192,324,39019,1,4
40,244,39192,1,0
60,152,39364,6,0,B|60:104|84:72,1,85,0|2
284,248,39881,1,2
192,224,40054,1,8
364,204,40226,5,2
428,72,40399,2,0,B|452:104|452:152,1,85,0|2
504,228,40743,2,0,B|472:252|424:252,1,85,0|2
340,292,41088,2,0,B|316:260|316:212,1,85,0|2
264,136,41433,1,0
292,120,41519,1,0
324,120,41605,1,8
408,160,41778,6,0,B|452:196|448:248|420:288|376:288,1,170,4|2
104,224,42295,2,0,B|60:188|64:136|92:96|136:96,2,170,0|6|0
212,72,43330,5,2
304,52,43502,1,0
388,92,43674,1,8
404,184,43847,5,2
352,108,44019,1,0
256,140,44192,1,8
244,172,44278,1,0
240,204,44364,1,0
244,236,44450,1,0
252,268,44536,6,0,B|264:308|256:352,1,85,4|2
104,276,44881,2,0,B|92:236|100:192,1,85,0|2
188,44,45226,1,0
108,92,45399,1,2
192,132,45571,1,0
68,16,45743,1,2
20,160,45916,6,0,B|4:200|4:248|20:292|52:320,1,170,0|2
128,264,46433,2,0,B|141:304|172:341|212:365|255:365,1,170,0|2
340,336,46950,1,8
340,336,47123,5,2
432,192,47295,2,0,B|432:236|416:276,1,85,4|2
396,104,47640,2,0,B|434:82|476:75,1,85,0|2
340,180,47985,2,0,B|301:158|274:125,1,85,0|2
480,128,48330,5,0
372,260,48502,1,2
320,100,48674,2,0,B|316:56|268:28|212:40|192:80,1,170,0|2
32,136,49192,2,0,B|36:180|84:208|140:196|160:156,1,170,0|2
160,155,49709,6,0,B|168:196|160:240,1,85,8|0
88,300,50054,2,0,B|92:344|140:372|196:360|216:320,2,170,4|2|0
160,239,50916,1,2
248,212,51088,1,0
332,176,51261,1,2
392,16,51433,2,0,B|436:20|464:68|452:124|412:144,1,170,0|2
352,304,51950,2,0,B|308:300|280:252|292:196|332:176,1,170,0|2
408,236,52467,1,0
408,236,52554,1,0
408,236,52640,1,8
352,304,52812,5,4
352,304,52985,1,4
484,272,53157,1,0
484,272,53330,1,2
448,140,53502,1,4
448,140,53675,1,2
316,172,53847,1,0
316,172,54020,1,0
180,152,54192,1,2
180,152,54364,1,0
104,36,54536,6,0,B|96:76|100:120,2,85,0|2|0
188,80,55054,1,2
60,192,55226,1,8
224,152,55399,1,2
48,108,55571,6,0,B|44:152|60:192,1,85,4|2
192,220,55916,2,0,B|217:256|255:276,1,85,8|2
464,276,56261,6,0,B|468:232|452:192,1,85,8|2
320,164,56605,1,2
288,152,56692,1,0
256,160,56778,1,0
240,192,56864,1,0
252,224,56950,5,8
376,284,57123,1,8
208,280,57295,1,8
432,228,57640,6,0,B|384:112,1,127.499996200204
100,336,58330,6,0,B|92:292|100:252,1,85,4|2
16,212,58674,2,0,B|39:173|72:149,1,85,0|2
184,20,59019,2,0,B|192:64|184:104,1,85,0|2
100,64,59364,1,8
256,132,59536,5,0
312,56,59709,2,0,B|360:72|376:120|372:168|328:192,1,170,0|2
121,113,60226,2,0,B|144:72|192:68|240:84|256:132,1,170,0|2
196,192,60743,1,8
120,136,60916,5,0
48,192,61088,2,0,B|100:228|100:228|96:280|120:332,1,170,4|2
392,136,61778,1,0
464,192,61950,2,0,B|412:228|412:228|416:280|392:332,1,170,0|2
332,260,62467,2,0,B|384:256|412:220|404:164|368:136,1,170,0|2
284,180,62985,1,0
284,180,63071,1,0
284,180,63157,1,0
196,208,63330,1,2
64,180,63502,6,0,B|52:136|60:96,1,85,0|8
140,152,63847,2,0,B|160:216|116:272|52:260,2,170,4|0|0
256,292,64709,1,2
256,292,64881,1,0
256,200,65054,1,2
372,152,65226,6,0,B|352:216|396:272|460:260,2,170,4|0|0
448,180,66088,1,2
432,88,66261,1,0
280,164,66433,5,2
360,212,66605,2,0,B|368:256|360:296,1,85,4|2
152,172,66950,2,0,B|144:128|152:88,1,85,0|2
290,292,67295,6,0,B|256:320|217:334,1,85,0|2
221,91,67640,2,0,B|255:63|294:49,1,85,0|2
208,12,67985,5,0
176,24,68071,1,0
152,48,68157,1,0
144,80,68243,1,0
144,116,68330,1,0
160,144,68416,1,0
188,168,68502,1,0
220,172,68588,1,0
252,172,68674,6,0,B|264:216|264:256,1,85,0|2
116,336,69019,2,0,B|104:292|104:252,1,85,0|2
188,288,69364,2,0,B|248:352|344:344,1,170,4|2
432,324,69881,1,0
432,324,70054,1,2
372,60,70399,1,8
204,88,70571,5,0
296,108,70743,2,0,B|316:148|312:192,1,85,0|2
216,276,71088,2,0,B|196:236|200:192,1,85,0|2
308,296,71433,5,0
140,276,71605,1,0
140,276,71692,1,0
140,276,71778,1,2
296,208,71950,5,8
196,344,72123,2,0,B|160:364|112:364,1,85,4|2
192,212,72467,2,0,B|193:170|218:129,1,85,0|2
308,276,72812,2,0,B|342:298|363:341,2,85,0|2|0
212,280,73330,5,0
376,240,73502,2,0,B|416:208|416:160|384:116|336:120,1,170,0|2
136,144,74019,2,0,B|96:176|96:224|128:268|176:264,1,170,0|2
228,184,74536,6,0,B|272:196|292:236,1,85,4|0
236,308,74881,2,0,B|208:344|172:360|128:364|80:348,1,170,0|2
276,76,75571,2,0,B|304:40|340:24|384:20|432:36,1,170,0|2
484,112,76088,1,0
432,276,76261,2,0,B|440:236|436:192,1,85,0|2
268,164,76605,2,0,B|260:204|264:248,1,85,0|2
352,216,76950,5,2
352,216,77036,1,0
352,216,77123,1,0
256,56,77295,5,2
180,108,77467,1,0
188,200,77640,1,2
264,252,77812,1,0
352,216,77985,1,2
256,192,78071,12,4,80399
256,192,90054,12,0,91434
360,132,91778,5,2
428,196,91950,2,0,B|424:256|424:256|384:300|392:360,1,170,0|2
480,332,92467,1,0
328,256,92640,5,8
176,328,92812,2,0,B|120:332|96:296|92:244|136:212,1,170,0|2
172,44,93330,2,0,B|228:40|252:76|256:128|212:160,1,170,0|2
134,213,93847,1,0
134,213,93933,1,0
134,213,94019,1,0
44,192,94192,1,2
180,292,94364,1,8
144,130,94536,6,0,B|152:176|134:213,1,85,0|2
208,272,94881,2,0,B|182:310|144:326,1,85,0|2
68,268,95226,2,0,B|29:242|13:204,1,85,0|2
56,72,95571,6,0,B|80:40|124:20|180:24|216:36,1,170,0|2
256,116,96088,1,0
456,72,96261,2,0,B|432:40|388:20|332:24|296:36,1,170,0|2
256,116,96778,1,0
408,192,96950,2,0,B|416:232|408:276,1,85,0|8
320,312,97295,6,0,B|312:272|320:228,1,85,0|2
228,232,97640,2,0,B|236:192|228:148,1,85,0|2
188,64,97985,1,0
60,176,98157,1,8
60,84,98330,6,0,B|112:88|148:120|156:168|140:208,1,170,0|2
148,388,98847,2,0,B|152:336|184:300|232:292|272:308,1,170,0|2
340,368,99364,1,0
340,368,99536,1,0
220,304,99709,5,0
272,228,99881,1,2
312,312,100054,1,0
220,304,100226,1,2
364,244,100399,5,0
108,256,100571,1,2
312,312,100743,1,0
144,340,100916,1,2
272,228,101088,6,0,B|280:188|272:144,1,85,0|2
364,128,101433,2,0,B|344:92|310:63,1,85,0|2
224,32,101778,2,0,B|185:17|141:18,1,85,0|2
20,56,102123,5,8
12,88,102209,1,0
12,120,102295,1,0
24,152,102381,1,0
52,172,102467,1,12
364,128,102812,5,0
432,192,102985,1,0
432,192,103071,1,0
432,192,103157,1,2
260,184,103330,2,0,B|252:228|256:272,1,85,0|2
416,320,103674,5,8
476,248,103847,2,0,B|508:208|504:152|464:120|416:124,1,170,0|2
332,124,104364,2,0,B|300:164|304:220|344:252|392:248,2,170,0|2|0
476,32,105226,1,4
384,44,105399,1,0
216,16,105571,6,0,B|208:56|216:100,1,85,0|2
292,156,105916,1,0
296,368,106088,2,0,B|304:328|296:284,1,85,0|2
220,228,106433,5,8
168,304,106605,2,0,B|116:300|96:252|96:200|140:176,1,170,0|2
220,228,107123,1,0
52,260,107295,6,0,B|104:256|124:208|124:156|80:132,1,170,0|2
12,72,107812,1,0
12,72,107899,1,0
12,72,107985,1,4
12,164,108157,1,0
176,116,108330,6,0,B|186:153|217:190,1,85,0|2
176,272,108674,2,0,B|208:294|255:302,2,85,0|2|0
256,220,109192,1,8
344,192,109364,6,0,B|384:216|428:224|468:220|504:192,1,170,0|2
416,44,109881,2,0,B|376:20|332:12|292:16|256:44,1,170,0|2
344,192,110399,1,0
416,132,110571,1,2
256,184,110743,5,4
88,156,110916,2,0,B|44:160,2,42.5,0|0|2
168,208,111261,1,0
172,240,111347,1,0
176,272,111433,1,2
84,272,111605,1,0
80,308,111692,1,0
76,340,111778,1,2
28,196,111950,2,0,B|0:100|64:36,1,170
164,36,112467,5,10
164,36,112640,1,0
292,148,112812,1,8
292,148,112985,1,0
440,68,113157,1,8
448,100,113243,1,0
456,132,113330,1,0
464,164,113416,1,0
472,196,113502,6,0,B|480:236|472:280,1,85,4|2
308,328,113847,2,0,B|300:288|308:244,1,85,0|2
392,284,114192,1,0
364,196,114364,1,2
272,180,114536,1,0
228,264,114709,1,2
396,236,114881,6,0,B|428:208|424:164|424:164|416:116|372:96,1,170,0|2
288,48,115399,2,0,B|260:16|216:20|216:20|168:28|148:72,1,170,0|2
232,116,115916,1,8
72,64,116088,1,2
40,232,116261,6,0,B|32:272|40:316,1,85,4|2
128,292,116605,2,0,B|147:327|181:356,1,85,0|2
216,268,116950,2,0,B|254:282|298:282,1,85,0|2
332,272,117209,1,0
360,252,117295,1,8
296,116,117467,1,2
372,168,117640,6,0,B|436:188|448:236|448:280|428:320,1,170,0|2
77,304,118157,2,0,B|64:280|64:236|76:188|140:168,1,170,0|2
152,248,118674,6,0,B|196:244|216:200,1,85,8|2
192,32,119019,2,0,B|196:76|240:96,1,85,4|2
312,156,119364,1,0
312,156,119536,1,2
404,144,119709,2,0,B|400:100|356:80,1,85,0|2
264,96,120054,2,0,B|228:112|180:108,1,85,0|2
80,48,120399,6,0,B|48:80|40:132|60:176|96:196,1,170,0|2
216,368,120916,2,0,B|248:336|256:284|236:240|200:220,1,170,0|2
152,300,121433,1,0
84,364,121605,5,0
84,364,121778,1,4
216,368,121950,1,0
216,368,122123,1,2
220,232,122295,1,0
220,232,122468,1,2
88,228,122640,1,0
88,228,122813,1,0
272,304,122985,2,2,B|276:356|244:388,2,85,0|0|0
104,248,123502,6,0,B|92:208|100:164,2,85
180,192,124019,1,2
12,224,124192,1,0
176,268,124364,1,2
72,164,124536,6,0,B|76:120|112:92,1,85,4|2
248,108,124881,2,0,B|279:76|324:78,1,85,0|2
392,196,125226,6,0,B|436:192|469:222,1,85,0|2
300,208,125571,1,0
300,208,125657,1,0
300,208,125743,1,0
356,284,125916,5,8
188,296,126088,1,8
256,140,126261,1,8
28,256,126605,6,0,B|61:134,1,127.499996200204
368,284,127295,6,0,B|408:296|452:288,1,85,4|2
340,160,127640,2,0,B|300:148|256:156,1,85,0|2
88,188,127985,2,0,B|128:200|172:192,2,85,8|2|8
16,116,128502,5,0
108,120,128674,2,0,B|156:152|172:208|140:248|88:264,1,170,0|2
28,304,129192,2,0,B|60:256|116:240|156:272|172:324,1,170,0|2
220,380,129709,1,8
384,336,129881,6,0,B|396:292|392:252,1,85,0|6
320,192,130226,1,0
128,48,130399,2,0,B|116:92|120:132,1,85,0|2
192,192,130744,1,0
256,124,130916,1,0
256,124,131002,1,0
256,124,131088,1,2
224,36,131261,1,0
60,84,131433,6,0,B|40:140|40:140|64:192|40:248,2,170,0|2|0
180,228,132467,5,0
256,280,132640,1,8
328,220,132812,2,0,B|360:192|400:172|448:176|488:192,2,170,4|0|0
256,280,133674,1,2
256,188,133847,1,0
256,96,134019,1,2
184,164,134192,6,0,B|152:192|112:212|64:208|24:192,2,170,4|0|0
256,8,135054,1,2
184,68,135226,1,0
256,128,135399,1,2
328,68,135571,6,0,B|348:104|344:152,1,85,4|2
184,316,135916,2,0,B|164:280|168:232,1,85,0|2
397,169,136261,6,0,B|382:208|342:235,1,85,0|2
114,214,136605,2,0,B|129:175|169:148,1,85,0|2
136,60,136950,5,0
168,52,137036,1,0
200,56,137123,1,0
232,68,137209,1,0
252,96,137295,1,0
264,128,137381,1,0
264,160,137467,1,0
252,192,137554,1,0
228,216,137640,6,0,B|216:256|228:300,1,85,0|2
316,264,137985,2,0,B|332:302|369:328,1,85,0|2
408,244,138330,2,0,B|452:240|480:200|480:144|428:120,1,170,4|2
344,160,138847,1,0
344,160,139019,1,2
4,172,139364,1,0
96,192,139536,5,2
188,208,139709,2,0,B|196:248|192:292,1,85,0|2
32,348,140054,2,0,B|24:308|28:264,1,85,0|2
96,192,140399,1,0
260,236,140571,1,0
260,236,140657,1,0
260,236,140743,1,0
416,168,140916,5,2
432,344,141088,2,0,B|440:304|428:260,1,85,0|2
508,108,141433,2,0,B|469:122|438:155,1,85,0|2
268,168,141778,2,0,B|300:192|345:202,2,85,0|2|0
416,168,142295,1,0
368,272,142467,6,0,B|360:320|312:344|256:332|240:292,1,170,0|2
144,112,142985,2,0,B|152:64|200:40|256:52|272:92,1,170,0|2
64,240,143502,6,0,B|112:228|136:196,1,85
220,172,143847,2,0,B|260:208|276:248|272:292|256:328,1,170,0|2
136,124,144536,2,0,B|172:84|212:68|256:72|292:88,1,170,0|2
352,160,145054,1,0
404,324,145226,2,0,B|408:284|400:240,1,85,0|2
236,196,145571,2,0,B|232:236|240:280,1,85,0|2
320,232,145916,5,2
320,232,146002,1,0
320,232,146088,1,0
368,72,146261,5,2
452,108,146433,1,0
472,200,146605,1,4
408,268,146778,1,0
320,232,146950,1,2
256,192,147036,12,4,149364
