osu file format v14

[General]
AudioFilename: audio.mp3
AudioLeadIn: 0
PreviewTime: 47075
Countdown: 0
SampleSet: Soft
StackLeniency: 0.7
Mode: 0
LetterboxInBreaks: 0
WidescreenStoryboard: 0

[Editor]
Bookmarks: 6790,20504,34218,47932,61647,75361,89075,102789,116504,130218,143932,157647,171361,185075
DistanceSpacing: 1
BeatDivisor: 4
GridSize: 4
TimelineZoom: 1

[Metadata]
Title:I Will Try
TitleUnicode:I Will Try
Artist:Urselle
ArtistUnicode:Urselle
Creator:ReFaller
Version:Hard
Source:
Tags:chillout ambient The Best Of
BeatmapID:1291821
BeatmapSetID:612070

[Difficulty]
HPDrainRate:4
CircleSize:4
OverallDifficulty:4
ApproachRate:4
SliderMultiplier:1.8
SliderTickRate:1

[Events]
//Background and Video events
0,0,"sweet girl.jpg",0,0
//Break Periods
2,48132,60327
2,85847,87755
2,116704,128898
//Storyboard Layer 0 (Background)
//Storyboard Layer 1 (Fail)
//Storyboard Layer 2 (Pass)
//Storyboard Layer 3 (Foreground)
//Storyboard Sound Samples

[TimingPoints]
6790,857.142857142857,4,2,0,20,1,0
20504,-100,4,2,0,30,0,0
23075,-100,4,2,0,40,0,0
23932,-100,4,2,0,30,0,0
26504,-100,4,2,0,40,0,0
26718,-100,4,2,0,30,0,0
29932,-100,4,2,0,40,0,0
30147,-100,4,2,0,30,0,0
33361,-100,4,2,0,40,0,0
34218,-100,4,2,0,50,0,0
47932,-100,4,2,0,35,0,0
61647,-100,4,2,0,40,0,0
62504,-100,4,2,0,50,0,0
75361,-100,4,2,0,35,0,0
89075,-100,4,2,0,40,0,0
89289,-100,4,2,0,30,0,0
91647,-100,4,2,0,40,0,0
91861,-100,4,2,0,30,0,0
95075,-100,4,2,0,40,0,0
95289,-100,4,2,0,30,0,0
98504,-100,4,2,0,40,0,0
98718,-100,4,2,0,30,0,0
101932,-100,4,2,0,40,0,0
131075,-100,4,2,0,50,0,0
185075,-100,4,2,0,35,0,0

[Colours]
Combo1 : 255,94,55
Combo2 : 173,255,95
Combo3 : 17,254,176
Combo4 : 255,88,100

[HitObjects]
332,72,6790,6,0,P|376:64|424:64,2,90,0|2|2,0:0|0:0|0:0,0:0:0:0:
244,88,8076,1,0,0:0:0:0:
160,120,8504,2,0,P|155:190|192:292,1,180,2|2,0:0|0:0,0:0:0:0:
368,252,10218,6,0,P|416:256|460:264,2,90,0|2|2,0:0|0:0|0:0,0:0:0:0:
280,256,11504,1,0,0:0:0:0:
280,256,11933,2,0,P|288:300|284:344,1,90
196,352,12790,2,0,P|152:360|108:356,1,90,2|0,0:0|0:0,0:0:0:0:
28,312,13647,6,0,P|8:224|24:128,2,180,0|2|0,0:0|0:0|0:0,0:0:0:0:
107,355,15790,1,0,0:0:0:0:
196,344,16218,1,2,0:0:0:0:
248,272,16647,1,2,0:0:0:0:
296,192,17076,2,0,B|344:176|384:192|384:192|432:208|472:192,2,180,2|2|2,0:0|0:0|0:0,0:0:0:0:
160,88,20504,5,4,1:0:0:0:
340,112,21361,2,0,P|352:168|328:248,1,135,8|4,0:0|0:3,0:0:0:0:
344,284,22218,2,0,L|256:264,1,90,4|0,0:3|0:0,0:0:0:0:
168,284,23075,1,0,1:0:0:0:
168,284,23933,6,0,P|129:205|129:115,1,180,4|8,0:3|0:0,0:0:0:0:
224,20,25433,1,4,0:3:0:0:
224,20,25647,2,0,L|324:28,1,90,4|0,0:3|0:0,0:0:0:0:
380,88,26504,2,0,P|382:131|368:188,1,90,0|0,1:0|0:0,0:0:0:0:
320,252,27361,6,0,B|235:204|146:236,1,180,4|8,0:3|0:0,0:0:0:0:
68,192,28647,1,0,0:0:0:0:
68,192,29075,2,0,P|59:149|56:96,1,90,4|0,0:3|0:0,0:0:0:0:
120,40,29933,2,0,P|168:32|212:36,1,90,0|0,1:0|0:0,0:0:0:0:
256,112,30790,6,0,B|272:160|256:200|256:200|240:248|256:288,2,180,4|8|4,0:3|0:0|0:3,0:0:0:0:
256,112,33361,1,0,1:0:0:0:
372,248,34218,6,0,L|464:256,1,90,4|0,1:0|0:0,0:0:0:0:
436,340,35076,2,0,L|346:332,1,90,0|0,1:0|0:0,0:0:0:0:
256,336,35933,2,0,P|240:288|240:236,1,90,4|0,0:3|0:0,0:0:0:0:
276,168,36790,2,0,P|292:120|292:68,1,90,0|0,1:0|0:0,0:0:0:0:
208,56,37647,5,4,0:3:0:0:
120,60,38076,1,0,0:0:0:0:
100,148,38504,1,0,1:0:0:0:
188,144,38933,1,0,0:0:0:0:
276,168,39361,2,0,L|367:160,2,90,4|4|0,0:3|0:3|1:0,0:0:0:0:
212,232,40647,1,2,0:0:0:0:
212,232,41075,6,0,P|232:272|228:320,1,90,4|0,0:3|0:0,0:0:0:0:
144,288,41933,2,0,P|124:248|128:200,1,90,0|0,1:0|0:0,0:0:0:0:
192,144,42790,2,0,L|284:136,1,90,4|0,0:3|0:0,0:0:0:0:
284,44,43647,2,0,L|194:52,1,90,0|0,1:0|0:0,0:0:0:0:
104,60,44504,5,4,0:3:0:0:
104,148,44933,1,0,0:0:0:0:
192,144,45361,2,0,P|236:144|288:148,1,90,0|0,1:0|0:0,0:0:0:0:
360,192,46218,2,0,P|359:236|340:276,1,90,4|0,0:3|1:0,0:0:0:0:
256,304,47075,1,0,0:0:0:0:
256,304,47290,2,0,P|188:284|112:296,1,135,8|4,0:3|0:0,0:0:0:0:
256,192,61647,5,0,0:0:0:0:
256,192,62504,2,0,L|348:204,1,90,0|0,1:0|0:0,0:0:0:0:
432,184,63361,2,0,P|442:141|444:92,1,90,4|0,0:3|0:0,0:0:0:0:
384,28,64218,2,0,P|341:17|292:16,1,90,0|0,1:0|0:0,0:0:0:0:
212,52,65075,6,0,P|172:48|120:48,2,90,4|0|0,0:3|0:0|1:0,0:0:0:0:
284,104,66361,1,0,0:0:0:0:
372,116,66790,2,0,P|369:160|359:204,1,90,2|4,0:0|0:3,0:0:0:0:
344,292,67647,2,0,L|256:276,1,90,0|0,1:0|0:0,0:0:0:0:
172,304,68504,6,0,P|127:242|112:136,1,180,4|0,0:3|1:0,0:0:0:0:
124,52,69790,1,0,0:0:0:0:
124,52,70218,2,0,L|216:40,1,90,4|0,0:3|0:0,0:0:0:0:
296,80,71075,2,0,L|388:92,1,90,0|0,1:0|0:0,0:0:0:0:
468,128,71933,6,0,P|480:216|451:300,1,180,4|0,0:3|1:0,0:0:0:0:
284,368,73647,1,4,0:3:0:0:
284,368,74075,2,0,P|268:328|264:276,1,90,0|0,0:0|1:0,0:0:0:0:
272,192,74933,1,0,0:0:0:0:
256,104,75361,5,4,0:0:0:0:
256,104,78361,5,0,0:0:0:0:
172,72,78790,2,0,L|80:80,3,90,2|2|2|2,0:0|0:0|0:0|0:0,0:0:0:0:
20,144,80504,2,0,P|9:232|40:328,1,180,0|2,0:0|0:0,0:0:0:0:
256,192,82218,12,0,85647,0:0:0:0:
168,200,89075,6,0,B|213:189|255:192|255:192|307:195|347:184,1,180,4|8,1:0|0:0,0:0:0:0:
480,216,90575,1,4,0:3:0:0:
480,216,90790,2,0,P|478:257|460:312,1,90,4|0,0:3|0:0,0:0:0:0:
376,308,91647,2,0,P|332:300|280:296,1,90,0|0,1:0|0:0,0:0:0:0:
200,316,92504,6,0,P|116:308|20:304,1,180,4|8,0:3|0:0,0:0:0:0:
8,168,94004,1,4,0:3:0:0:
8,168,94218,2,0,P|4:128|12:78,1,90,4|4,0:3|0:3,0:0:0:0:
92,124,95075,2,0,P|100:80|96:36,1,90,0|0,1:0|0:0,0:0:0:0:
184,20,95932,6,0,L|368:8,1,180,4|8,0:3|0:0,0:0:0:0:
396,92,97218,1,0,0:0:0:0:
396,92,97647,2,0,L|488:84,2,90,4|0|0,0:3|0:0|1:0,0:0:0:0:
312,128,98933,1,0,0:0:0:0:
312,128,99361,6,0,L|284:216,1,90,4|0,0:3|0:0,0:0:0:0:
216,156,100218,2,0,L|188:68,1,90,8|0,0:0|0:0,0:0:0:0:
100,92,101075,2,0,P|88:160|108:272,1,180,4|0,0:3|1:0,0:0:0:0:
280,324,102790,6,0,P|325:317|372:316,1,90,4|0,1:0|0:0,0:0:0:0:
456,348,103647,2,0,P|480:288|476:212,1,135,0|4,1:0|0:3,0:0:0:0:
464,176,104504,2,0,P|419:174|374:167,1,90,4|0,0:3|0:0,0:0:0:0:
288,144,105361,1,0,1:0:0:0:
216,92,105790,1,0,0:0:0:0:
136,52,106218,6,0,P|92:48|44:64,2,90,4|0|0,0:3|0:0|1:0,0:0:0:0:
188,176,107718,1,4,0:3:0:0:
188,176,107933,2,0,P|201:218|197:263,1,90,4|4,0:3|0:3,0:0:0:0:
108,276,108790,2,0,L|16:288,1,90,0|0,1:0|0:0,0:0:0:0:
32,376,109647,6,0,L|210:352,1,180,4|0,0:3|1:0,0:0:0:0:
280,296,110933,1,0,0:0:0:0:
256,208,111361,2,0,P|249:153|252:108,1,90,4|0,0:3|0:0,0:0:0:0:
288,36,112218,2,0,P|340:32|388:32,1,90,0|0,1:0|0:0,0:0:0:0:
468,20,113075,5,4,0:3:0:0:
472,108,113504,1,0,0:0:0:0:
384,122,113933,2,0,P|320:114|248:118,1,135,0|4,1:0|0:3,0:0:0:0:
208,136,114790,2,0,P|216:181|200:224,1,90,4|0,0:3|0:0,0:0:0:0:
112,236,115647,2,0,P|83:201|74:155,1,90,0|0,1:0|0:0,0:0:0:0:
132,88,116504,5,4,0:0:0:0:
256,192,130218,5,0,0:0:0:0:
256,192,131076,2,0,L|160:204,1,90,0|0,1:0|0:0,0:0:0:0:
88,244,131933,2,0,P|90:288|100:332,1,90,4|0,0:3|0:0,0:0:0:0:
188,344,132790,2,0,P|232:336|280:332,1,90,0|0,1:0|0:0,0:0:0:0:
268,244,133647,6,0,P|224:248|176:256,2,90,4|0|0,0:3|0:0|1:0,0:0:0:0:
360,244,134933,1,0,0:0:0:0:
448,264,135361,2,0,P|458:220|461:175,1,90,2|4,0:0|0:3,0:0:0:0:
412,100,136218,2,0,L|324:84,1,90,0|0,1:0|0:0,0:0:0:0:
256,144,137075,6,0,P|270:221|240:320,1,180,4|0,0:3|1:0,0:0:0:0:
164,360,138361,1,0,0:0:0:0:
88,312,138790,2,0,P|72:268|76:222,1,90,4|0,0:3|0:0,0:0:0:0:
76,136,139647,2,0,L|168:124,1,90,0|0,1:0|0:0,0:0:0:0:
256,144,140504,6,0,P|348:128|440:128,2,180,4|0|4,0:3|1:0|0:3,0:0:0:0:
168,164,142647,1,0,0:0:0:0:
80,188,143075,2,0,P|88:236|100:276,1,90,0|0,1:0|0:0,0:0:0:0:
180,312,143933,6,0,P|223:299|267:292,1,90,4|0,0:3|0:0,0:0:0:0:
356,304,144790,2,0,P|384:244|384:172,1,135,0|4,1:0|0:3,0:0:0:0:
364,136,145647,2,0,L|456:128,1,90,4|0,0:3|0:0,0:0:0:0:
412,48,146504,2,0,L|322:55,1,90,0|0,1:0|0:0,0:0:0:0:
256,116,147361,6,0,P|260:160|252:208,1,90,4|0,0:3|0:0,0:0:0:0:
216,288,148218,2,0,B|156:268|80:280,1,135,0|4,1:0|0:3,0:0:0:0:
40,288,149075,1,2,0:0:0:0:
8,204,149504,1,0,0:0:0:0:
8,204,149933,2,0,P|0:159|0:114,1,90,0|0,1:0|0:0,0:0:0:0:
64,48,150790,6,0,P|152:32|242:33,1,180,4|0,0:3|1:0,0:0:0:0:
416,88,152504,2,0,L|408:184,2,90,4|0|0,0:3|0:0|1:0,0:0:0:0:
328,80,153790,1,0,0:0:0:0:
236,80,154218,6,0,L|140:88,1,90,4|0,0:3|0:0,0:0:0:0:
68,132,155075,2,0,P|65:176|76:228,1,90,0|0,1:0|0:0,0:0:0:0:
52,308,155933,1,4,0:3:0:0:
140,328,156361,1,0,0:0:0:0:
164,240,156790,1,0,1:0:0:0:
164,240,157004,2,0,P|212:252|256:252,1,90,8|4,0:3|0:3,0:0:0:0:
296,248,157647,5,4,1:0:0:0:
384,244,158075,2,0,L|472:260,1,90,0|0,0:0|1:0,0:0:0:0:
471,169,158933,1,0,0:0:0:0:
471,169,159361,2,0,L|382:152,1,90,4|0,0:3|0:0,0:0:0:0:
292,144,160218,1,0,1:0:0:0:
204,160,160647,1,0,0:0:0:0:
116,156,161075,6,0,P|104:112|96:64,2,90,4|0|0,0:3|0:0|1:0,0:0:0:0:
144,240,162361,1,0,0:0:0:0:
232,260,162790,2,0,L|324:260,1,90,4|4,0:3|0:3,0:0:0:0:
296,172,163647,2,0,L|206:172,1,90,0|2,1:0|0:0,0:0:0:0:
144,240,164504,5,4,0:3:0:0:
56,224,164933,1,0,0:0:0:0:
116,156,165361,1,0,1:0:0:0:
206,172,165790,1,0,0:0:0:0:
236,256,166218,2,0,L|228:356,1,90,4|0,0:3|0:0,0:0:0:0:
320,340,167075,2,0,L|420:348,1,90,0|0,1:0|0:0,0:0:0:0:
480,292,167933,6,0,B|496:244|480:204|480:204|464:156|480:116,2,180,4|0|4,0:3|1:0|0:3,0:0:0:0:
409,347,170075,1,0,1:0:0:0:
332,300,170504,1,4,0:0:0:0:
332,300,170718,2,0,P|308:237|313:170,1,135,8|4,0:3|1:0,0:0:0:0:
252,104,171790,6,0,L|160:92,2,90,0|0|0,0:0|1:0|0:0,0:0:0:0:
313,170,173075,1,4,0:3:0:0:
404,156,173504,1,0,0:0:0:0:
484,200,173933,2,0,P|504:236|500:288,1,90,0|0,1:0|0:0,0:0:0:0:
436,344,174790,6,0,L|344:340,2,90,4|0|0,0:3|0:0|1:0,0:0:0:0:
416,256,176075,1,0,0:0:0:0:
416,256,176504,2,0,P|428:212|428:168,1,90,4|4,0:3|0:3,0:0:0:0:
384,88,177361,2,0,P|348:84|292:80,1,90,0|2,1:0|0:0,0:0:0:0:
208,104,178218,5,4,0:3:0:0:
120,88,178647,1,0,0:0:0:0:
104,176,179075,1,0,1:0:0:0:
192,192,179504,1,0,0:0:0:0:
276,164,179933,2,0,P|319:153|364:154,1,90,4|0,0:3|0:0,0:0:0:0:
372,244,180790,2,0,P|376:288|388:348,1,90,0|0,1:0|0:0,0:0:0:0:
472,320,181647,6,0,P|464:224|452:140,1,180,4|0,0:3|1:0,0:0:0:0:
440,52,182933,1,0,0:0:0:0:
368,108,183361,2,0,L|276:96,1,90,4|0,0:3|1:0,0:0:0:0:
192,124,184218,1,0,0:0:0:0:
192,124,184433,2,0,P|183:167|190:212,1,90,8|4,0:3|0:3,0:0:0:0:
200,256,185075,5,4,0:0:0:0:
