osu file format v14

[General]
AudioFilename: audio.mp3
AudioLeadIn: 0
PreviewTime: 47075
Countdown: 0
SampleSet: Soft
StackLeniency: 0.7
Mode: 0
LetterboxInBreaks: 0
WidescreenStoryboard: 1

[Editor]
Bookmarks: 6790,20504,34218,47932,61647,75361,89075,102789,116504,130218,143932,157647,171361,185075
DistanceSpacing: 1
BeatDivisor: 4
GridSize: 4
TimelineZoom: 0.4999999

[Metadata]
Title:I Will Try
TitleUnicode:I Will Try
Artist:Urselle
ArtistUnicode:Urselle
Creator:ReFaller
Version:Easy
Source:
Tags:chillout ambient The Best Of
BeatmapID:1291820
BeatmapSetID:612070

[Difficulty]
HPDrainRate:1
CircleSize:3
OverallDifficulty:1
ApproachRate:1
SliderMultiplier:0.999999999999999
SliderTickRate:1

[Events]
//Background and Video events
0,0,"sweet girl.jpg",0,0
//Break Periods
2,48132,59967
2,116704,128538
//Storyboard Layer 0 (Background)
//Storyboard Layer 1 (Fail)
//Storyboard Layer 2 (Pass)
//Storyboard Layer 3 (Foreground)
//Storyboard Sound Samples

[TimingPoints]
6790,857.142857142857,4,2,0,20,1,0
20504,-100,4,2,0,30,0,0
23075,-100,4,2,0,40,0,0
23932,-100,4,2,0,30,0,0
26504,-100,4,2,0,40,0,0
26718,-100,4,2,0,30,0,0
29932,-100,4,2,0,40,0,0
30147,-100,4,2,0,30,0,0
33361,-100,4,2,0,40,0,0
34218,-100,4,2,0,50,0,0
47932,-100,4,2,0,35,0,0
61647,-100,4,2,0,40,0,0
62504,-100,4,2,0,50,0,0
75361,-100,4,2,0,35,0,0
89075,-100,4,2,0,40,0,0
89289,-100,4,2,0,30,0,0
91647,-100,4,2,0,40,0,0
91861,-100,4,2,0,30,0,0
95075,-100,4,2,0,40,0,0
95289,-100,4,2,0,30,0,0
98504,-100,4,2,0,40,0,0
98718,-100,4,2,0,30,0,0
101932,-100,4,2,0,40,0,0
131075,-100,4,2,0,50,0,0
185075,-100,4,2,0,35,0,0

[Colours]
Combo1 : 255,94,55
Combo2 : 173,255,95
Combo3 : 17,254,176
Combo4 : 255,88,100

[HitObjects]
160,120,6790,6,0,P|119:208|160:296,1,200
256,328,9361,1,2,0:0:0:0:
351,296,10218,2,0,P|392:208|352:120,1,200
256,88,12790,1,2,0:0:0:0:
256,184,13647,6,0,B|232:232|256:280|256:280|280:328|256:376,2,200
332,120,17933,1,2,0:0:0:0:
408,184,18790,1,2,0:0:0:0:
255,316,20504,6,0,P|215:344|166:343,1,99.9999999999999,4|8,1:0|0:0,0:0:0:0:
72,316,22218,1,4,0:3:0:0:
16,232,23075,1,0,1:0:0:0:
36,132,23933,6,0,P|76:103|125:104,1,99.9999999999999,4|8,0:3|0:0,0:0:0:0:
219,132,25647,1,4,0:3:0:0:
275,216,26504,1,0,1:0:0:0:
360,264,27361,6,0,P|408:272|464:272,1,99.9999999999999,4|8,0:3|0:0,0:0:0:0:
488,176,29075,2,0,P|496:128|496:72,1,99.9999999999999,4|0,0:3|1:0,0:0:0:0:
404,36,30790,2,0,B|356:20|308:36|308:36|260:52|207:37,1,200,4|4,0:3|0:3,0:0:0:0:
112,68,33361,1,0,1:0:0:0:
32,124,34218,6,0,P|31:173|48:228,1,99.9999999999999,4|0,1:0|1:0,0:0:0:0:
112,296,35933,2,0,L|212:268,1,99.9999999999999,4|0,0:3|1:0,0:0:0:0:
308,252,37647,2,0,P|360:256|412:280,2,99.9999999999999,4|0|4,0:3|1:0|0:3,0:0:0:0:
208,269,40218,1,0,1:0:0:0:
156,184,41075,6,0,P|136:140|136:84,1,99.9999999999999,4|0,0:3|1:0,0:0:0:0:
196,12,42790,1,4,0:3:0:0:
288,56,43647,1,0,1:0:0:0:
388,36,44504,2,0,P|456:104|464:208,1,200,4|4,0:3|0:3,0:0:0:0:
416,288,47075,2,0,P|368:280|312:280,1,99.9999999999999,8|4,0:3|0:0,0:0:0:0:
156,272,61647,6,0,L|52:296,2,99.9999999999999,0|0|4,0:0|1:0|0:3,0:0:0:0:
256,252,64218,1,0,1:0:0:0:
356,272,65075,2,0,L|460:296,1,99.9999999999999,4|0,0:3|1:0,0:0:0:0:
476,196,66790,2,0,L|378:173,1,99.9999999999999,2|0,0:0|1:0,0:0:0:0:
280,148,68504,5,4,0:3:0:0:
184,124,69361,1,0,1:0:0:0:
160,220,70218,1,4,0:3:0:0:
256,244,71075,1,0,1:0:0:0:
340,188,71933,6,0,P|368:92|304:20,1,200,4|4,0:3|0:3,0:0:0:0:
208,36,74504,1,0,1:0:0:0:
268,116,75361,1,4,0:0:0:0:
268,116,78790,6,0,B|304:104|340:116|340:116|376:128|415:116,2,150,2|0|2,0:0|0:0|0:0,0:0:0:0:
256,192,82218,12,0,85647,0:0:0:0:
160,208,89075,6,0,L|260:192,1,99.9999999999999,0|8,1:0|0:0,0:0:0:0:
320,272,90790,1,4,0:3:0:0:
364,180,91647,1,0,1:0:0:0:
420,264,92504,2,0,P|412:312|376:356,1,99.9999999999999,4|8,0:3|0:0,0:0:0:0:
284,364,94218,1,4,0:3:0:0:
320,272,95075,1,0,1:0:0:0:
220,288,95933,6,0,P|168:292|124:276,1,99.9999999999999,4|8,0:3|0:0,0:0:0:0:
88,180,97647,2,0,P|140:175|184:192,1,99.9999999999999,4|0,0:3|1:0,0:0:0:0:
284,196,99361,2,0,P|360:138|354:42,1,200,4|4,0:3|0:3,0:0:0:0:
256,24,101933,1,0,1:0:0:0:
158,42,102790,6,0,L|56:56,1,99.9999999999999,4|0,1:0|1:0,0:0:0:0:
56,156,104504,2,0,L|155:142,1,99.9999999999999,4|0,0:3|1:0,0:0:0:0:
248,100,106218,2,0,P|297:105|340:130,2,99.9999999999999,4|0|4,0:3|1:0|0:3,0:0:0:0:
155,142,108790,1,0,1:0:0:0:
68,192,109647,6,0,P|78:242|96:292,1,99.9999999999999,4|0,0:3|1:0,0:0:0:0:
172,352,111361,1,4,0:3:0:0:
192,256,112218,1,0,1:0:0:0:
268,320,113075,2,0,P|320:340|368:344,1,99.9999999999999,4|0,0:3|1:0,0:0:0:0:
464,364,114790,1,4,0:3:0:0:
432,268,115647,1,0,1:0:0:0:
363,344,116504,5,4,0:0:0:0:
356,272,130218,6,0,L|460:296,2,99.9999999999999,0|0|4,0:0|1:0|0:3,0:0:0:0:
256,252,132790,1,0,1:0:0:0:
156,272,133647,2,0,L|52:296,1,99.9999999999999,4|0,0:3|1:0,0:0:0:0:
36,196,135361,2,0,L|134:173,1,99.9999999999999,2|0,0:0|1:0,0:0:0:0:
232,148,137075,5,4,0:3:0:0:
328,124,137932,1,0,1:0:0:0:
352,220,138789,1,4,0:3:0:0:
256,244,139646,1,0,1:0:0:0:
160,220,140504,2,0,P|112:131|160:48,1,200,4|4,0:3|0:3,0:0:0:0:
256,36,143075,1,0,1:0:0:0:
356,50,143933,6,0,L|456:40,1,99.9999999999999,4|0,0:3|1:0,0:0:0:0:
512,124,145647,2,0,P|512:172|488:224,1,99.9999999999999,4|0,0:3|1:0,0:0:0:0:
392,228,147361,2,0,L|292:216,2,99.9999999999999,4|0|2,0:3|1:0|0:0,0:0:0:0:
408,328,149933,1,0,1:0:0:0:
308,324,150790,6,0,P|258:321|200:312,1,99.9999999999999,4|0,0:3|1:0,0:0:0:0:
108,324,152504,1,4,0:3:0:0:
92,224,153361,1,0,1:0:0:0:
192,216,154218,2,0,B|240:200|288:216|288:216|336:232|389:217,1,200,4|4,0:3|0:3,0:0:0:0:
484,192,156790,1,0,1:0:0:0:
416,116,157647,6,0,L|404:16,1,99.9999999999999,4|0,1:0|1:0,0:0:0:0:
308,48,159361,2,0,L|296:148,1,99.9999999999999,4|0,0:3|1:0,0:0:0:0:
200,124,161075,2,0,L|188:24,2,99.9999999999999,4|0|4,0:3|1:0|0:3,0:0:0:0:
104,160,163647,1,0,1:0:0:0:
40,236,164504,6,0,P|40:285|61:330,1,99.9999999999999,4|0,0:3|1:0,0:0:0:0:
152,368,166218,1,4,0:3:0:0:
244,324,167075,1,0,1:0:0:0:
336,360,167933,2,0,P|404:292|412:188,1,200,4|4,0:3|0:3,0:0:0:0:
392,96,170504,1,4,0:0:0:0:
304,48,171361,6,0,P|259:49|200:60,1,99.9999999999999,4|0,1:0|1:0,0:0:0:0:
204,160,173075,2,0,P|253:151|303:149,1,99.9999999999999,4|0,0:3|1:0,0:0:0:0:
300,248,174790,2,0,P|255:249|196:260,2,99.9999999999999,4|0|4,0:3|1:0|0:3,0:0:0:0:
400,256,177361,1,0,1:0:0:0:
460,176,178218,6,0,P|472:132|452:68,1,99.9999999999999,4|0,0:3|1:0,0:0:0:0:
380,20,179933,2,0,P|336:24|280:36,1,99.9999999999999,4|0,0:3|1:0,0:0:0:0:
240,124,181647,1,4,0:3:0:0:
280,216,182504,1,0,1:0:0:0:
232,304,183361,2,0,P|183:314|133:319,1,99.9999999999999,2|8,0:0|0:3,0:0:0:0:
32,324,185075,5,4,0:0:0:0:
