osu file format v14

[General]
AudioFilename: audio.mp3
AudioLeadIn: 0
PreviewTime: 47075
Countdown: 0
SampleSet: Soft
StackLeniency: 0.7
Mode: 0
LetterboxInBreaks: 0
WidescreenStoryboard: 1

[Editor]
Bookmarks: 6790,20504,34218,47932,61647,75361,89075,102789,116504,130218,143932,157647,171361,185075
DistanceSpacing: 1
BeatDivisor: 4
GridSize: 4
TimelineZoom: 0.75

[Metadata]
Title:I Will Try
TitleUnicode:I Will Try
Artist:Urselle
ArtistUnicode:Urselle
Creator:ReFaller
Version:Normal
Source:
Tags:chillout ambient The Best Of
BeatmapID:1455394
BeatmapSetID:612070

[Difficulty]
HPDrainRate:2
CircleSize:4
OverallDifficulty:2
ApproachRate:2
SliderMultiplier:1.4
SliderTickRate:1

[Events]
//Background and Video events
0,0,"sweet girl.jpg",0,0
//Break Periods
2,48132,60087
2,85847,87515
2,116704,128658
//Storyboard Layer 0 (Background)
//Storyboard Layer 1 (Fail)
//Storyboard Layer 2 (Pass)
//Storyboard Layer 3 (Foreground)
//Storyboard Sound Samples

[TimingPoints]
6790,857.142857142857,4,2,0,20,1,0
20504,-100,4,2,0,30,0,0
23075,-100,4,2,0,40,0,0
23932,-100,4,2,0,30,0,0
26504,-100,4,2,0,40,0,0
26718,-100,4,2,0,30,0,0
29932,-100,4,2,0,40,0,0
30147,-100,4,2,0,30,0,0
33361,-100,4,2,0,40,0,0
34218,-100,4,2,0,50,0,0
47932,-100,4,2,0,35,0,0
61647,-100,4,2,0,40,0,0
62504,-100,4,2,0,50,0,0
75361,-100,4,2,0,35,0,0
89075,-100,4,2,0,40,0,0
89289,-100,4,2,0,30,0,0
91647,-100,4,2,0,40,0,0
91861,-100,4,2,0,30,0,0
95075,-100,4,2,0,40,0,0
95289,-100,4,2,0,30,0,0
98504,-100,4,2,0,40,0,0
98718,-100,4,2,0,30,0,0
101932,-100,4,2,0,40,0,0
131075,-100,4,2,0,50,0,0
185075,-100,4,2,0,35,0,0

[Colours]
Combo1 : 255,94,55
Combo2 : 173,255,95
Combo3 : 17,254,176
Combo4 : 255,88,100

[HitObjects]
144,112,6790,6,0,P|74:104|16:140,2,140,0|2|2,0:0|0:0|0:0,0:0:0:0:
256,192,9361,1,2,0:0:0:0:
368,272,10218,2,0,P|438:280|496:244,2,140,0|2|2,0:0|0:0|0:0,0:0:0:0:
256,192,12790,1,2,0:0:0:0:
144,112,13647,6,0,L|4:140,1,140,0|2,0:0|0:0,0:0:0:0:
48,272,15361,2,0,L|185:244,1,140,2|2,0:0|0:0,0:0:0:0:
280,144,17075,1,0,0:0:0:0:
392,224,17932,1,2,0:0:0:0:
484,120,18790,1,2,0:0:0:0:
160,64,20504,5,4,1:0:0:0:
40,136,21361,2,0,P|32:192|48:244,1,105,8|4,0:0|0:3,0:0:0:0:
44,272,22218,2,0,P|109:252|180:256,1,140,4|0,0:3|1:0,0:0:0:0:
308,316,23932,6,0,L|456:300,1,140,4|8,0:3|0:0,0:0:0:0:
432,196,25432,1,4,0:3:0:0:
432,196,25647,2,0,L|292:211,1,140,4|0,0:3|1:0,0:0:0:0:
192,308,27361,6,0,P|156:244|156:172,1,140,4|8,0:3|0:0,0:0:0:0:
216,92,28861,1,0,0:0:0:0:
216,92,29075,2,0,L|356:77,1,140,4|0,0:3|1:0,0:0:0:0:
432,196,30789,6,0,L|292:211,2,140,4|8|4,0:3|0:0|0:3,0:0:0:0:
512,312,33361,1,0,1:0:0:0:
372,324,34218,6,0,L|272:334,2,70,4|0|0,1:0|0:0|1:0,0:0:0:0:
432,196,35932,2,0,L|501:188,2,70,4|0|0,0:3|0:0|1:0,0:0:0:0:
292,210,37647,5,4,0:3:0:0:
152,188,38504,1,0,1:0:0:0:
128,324,39361,1,4,0:3:0:0:
196,336,39789,1,4,0:3:0:0:
264,348,40218,1,0,1:0:0:0:
292,210,41075,6,0,P|304:176|304:132,2,70,4|0|0,0:3|0:0|1:0,0:0:0:0:
168,148,42789,2,0,P|156:114|156:70,2,70,4|0|0,0:3|0:0|1:0,0:0:0:0:
292,210,44504,6,0,P|346:196|432:198,1,140,4|0,0:3|1:0,0:0:0:0:
370,324,46218,1,4,0:3:0:0:
304,348,46647,1,0,1:0:0:0:
241,316,47075,2,0,B|176:277|97:304,1,140,8|4,0:3|0:0,0:0:0:0:
156,44,61647,6,0,P|228:36|312:32,1,140,0|0,0:0|1:0,0:0:0:0:
364,52,62932,1,0,0:0:0:0:
412,104,63361,2,0,P|424:172|400:240,1,140,4|0,0:3|1:0,0:0:0:0:
436,372,65075,5,4,0:3:0:0:
300,336,65932,1,0,1:0:0:0:
400,237,66789,2,0,P|420:204|423:171,2,70,2|4|0,0:0|0:3|1:0,0:0:0:0:
300,336,68504,6,0,L|156:352,1,140,4|0,0:3|1:0,0:0:0:0:
92,332,69789,1,0,0:0:0:0:
32,292,70218,2,0,P|4:224|12:160,1,140,4|0,0:3|1:0,0:0:0:0:
100,48,71932,6,0,L|244:64,1,140,4|0,0:3|1:0,0:0:0:0:
360,136,73647,1,4,0:3:0:0:
340,204,74075,1,0,0:0:0:0:
320,271,74504,2,0,P|259:305|191:299,1,140,0|4,1:0|0:0,0:0:0:0:
116,132,78361,5,0,0:0:0:0:
184,108,78789,2,0,B|224:100|256:108|256:108|292:116|324:108,1,140,2|0,0:0|0:0,0:0:0:0:
392,128,80075,2,0,P|412:216|372:328,1,210,2|0,0:0|0:0,0:0:0:0:
256,192,82218,12,0,85647,0:0:0:0:
72,212,89075,6,0,P|60:272|92:344,1,140,4|8,1:0|0:0,0:0:0:0:
164,264,90575,1,4,0:3:0:0:
164,264,90789,2,0,P|176:204|144:132,1,140,4|0,0:3|1:0,0:0:0:0:
256,48,92504,6,0,L|400:32,1,140,4|8,0:3|0:0,0:0:0:0:
492,72,94004,1,4,0:3:0:0:
492,72,94218,2,0,L|481:167,2,70,4|4|0,0:3|0:3|1:0,0:0:0:0:
368,140,95932,6,0,L|352:284,1,140,4|8,0:3|0:0,0:0:0:0:
256,324,97432,1,0,0:0:0:0:
256,324,97647,2,0,P|191:298|122:305,1,140,4|0,0:3|1:0,0:0:0:0:
28,200,99361,6,0,B|8:156|8:156|25:65,2,140,4|8|4,0:3|0:0|0:3,0:0:0:0:
122,305,101932,1,0,1:0:0:0:
126,309,102789,6,0,L|204:300,1,70,4|0,1:0|0:0,0:0:0:0:
264,320,103647,2,0,P|289:263|288:212,1,105,0|4,1:0|0:3,0:0:0:0:
284,188,104504,2,0,P|272:120|287:49,1,140,4|0,0:3|1:0,0:0:0:0:
424,20,106218,6,0,L|502:29,1,70,4|0,0:3|0:0,0:0:0:0:
496,100,107075,2,0,P|493:152|470:198,1,105,0|4,1:0|0:3,0:0:0:0:
472,232,107932,2,0,L|402:240,1,70,4|4,0:3|0:3,0:0:0:0:
336,268,108789,1,0,1:0:0:0:
200,308,109647,6,0,L|122:299,1,70,4|0,0:3|0:0,0:0:0:0:
64,328,110505,2,0,P|38:271|40:220,1,105,0|0,1:0|0:0,0:0:0:0:
52,196,111362,2,0,P|92:136|100:60,1,140,4|0,0:3|1:0,0:0:0:0:
232,16,113075,5,4,0:3:0:0:
101,69,113932,1,0,1:0:0:0:
236,24,114789,2,0,L|324:32,1,70,4|0,0:3|0:0,0:0:0:0:
376,40,115647,1,0,1:0:0:0:
292,152,116504,5,4,0:0:0:0:
308,24,130218,6,0,P|236:16|152:12,1,140,0|0,0:0|1:0,0:0:0:0:
100,32,131503,1,0,0:0:0:0:
44,80,131932,2,0,P|32:148|56:216,1,140,4|0,0:3|1:0,0:0:0:0:
192,240,133646,5,4,0:3:0:0:
160,376,134503,1,0,1:0:0:0:
24,352,135360,2,0,P|4:319|1:286,2,70,2|4|0,0:0|0:3|1:0,0:0:0:0:
156,304,137075,6,0,L|300:320,1,140,4|0,0:3|1:0,0:0:0:0:
360,288,138360,1,0,0:0:0:0:
416,240,138789,2,0,P|444:172|436:108,1,140,4|0,0:3|1:0,0:0:0:0:
316,32,140504,6,0,P|288:100|296:164,1,140,4|0,0:3|1:0,0:0:0:0:
208,272,142218,2,0,L|138:264,2,70,4|0|0,0:3|0:0|1:0,0:0:0:0:
272,304,143504,1,0,0:0:0:0:
336,336,143932,6,0,P|364:268|356:204,1,140,4|0,0:3|1:0,0:0:0:0:
312,108,145432,1,4,0:3:0:0:
312,108,145647,2,0,L|236:100,1,70,4|0,0:3|0:0,0:0:0:0:
180,68,146504,1,0,1:0:0:0:
68,156,147361,6,0,P|60:224|87:288,1,140,4|0,0:3|1:0,0:0:0:0:
192,316,148861,1,4,0:3:0:0:
192,316,149076,2,0,L|268:308,1,70,2|0,0:0|0:0,0:0:0:0:
332,300,149932,2,0,L|340:224,1,70,0|0,1:0|0:0,0:0:0:0:
384,176,150789,6,0,P|420:112|416:44,1,140,4|0,0:3|1:0,0:0:0:0:
280,80,152504,2,0,P|244:144|248:212,1,140,4|0,0:3|1:0,0:0:0:0:
208,268,153789,1,0,0:0:0:0:
168,328,154218,6,0,L|24:352,1,140,4|0,0:3|1:0,0:0:0:0:
12,212,155932,2,0,P|3:178|6:143,1,70,4|0,0:3|0:0,0:0:0:0:
40,80,156789,2,0,P|90:67|143:71,1,105,0|4,1:0|0:3,0:0:0:0:
176,84,157647,6,0,L|236:128,1,70,4|0,1:0|0:0,0:0:0:0:
304,120,158504,2,0,L|452:112,1,140,0|4,1:0|0:3,0:0:0:0:
496,160,159789,1,0,0:0:0:0:
500,232,160218,1,0,1:0:0:0:
412,340,161075,5,4,0:3:0:0:
300,252,161932,1,0,1:0:0:0:
160,244,162789,1,4,0:3:0:0:
92,264,163218,1,4,0:3:0:0:
36,220,163647,2,0,P|20:188|17:154,1,70,0|2,1:0|0:0,0:0:0:0:
52,92,164504,6,0,L|121:84,2,70,4|0|0,0:3|0:0|1:0,0:0:0:0:
172,164,166218,2,0,L|241:156,2,70,4|0|0,0:3|0:0|1:0,0:0:0:0:
292,236,167932,6,0,L|431:220,2,140,4|0|4,0:3|1:0|0:3,0:0:0:0:
228,268,170075,1,0,1:0:0:0:
160,292,170504,2,0,P|108:298|60:278,1,105,4|0,0:0|0:0,0:0:0:0:
28,284,171361,6,0,L|20:212,1,70,4|0,1:0|0:0,0:0:0:0:
48,148,172218,2,0,P|112:122|181:130,1,140,0|4,1:0|0:3,0:0:0:0:
248,156,173503,1,0,0:0:0:0:
292,212,173932,1,0,1:0:0:0:
432,200,174789,5,4,0:3:0:0:
364,76,175647,1,0,1:0:0:0:
248,156,176504,1,4,0:3:0:0:
181,130,176933,1,4,0:3:0:0:
112,112,177362,2,0,P|76:112|36:124,1,70,0|2,1:0|0:0,0:0:0:0:
12,184,178218,6,0,L|4:256,2,70,4|0|0,0:3|0:0|1:0,0:0:0:0:
132,256,179932,2,0,L|177:312,2,70,4|0|0,0:3|0:0|1:0,0:0:0:0:
267,222,181647,6,0,P|343:227|411:238,1,140,4|0,0:3|1:0,0:0:0:0:
328,356,183361,1,4,0:3:0:0:
272,312,183789,1,0,1:0:0:0:
204,288,184218,2,0,P|152:280|100:276,1,105,8|4,0:3|0:3,0:0:0:0:
64,276,185075,5,4,0:0:0:0:
