osu file format v6

[General]
AudioFilename: Urakabe Tae - Azurite.mp3
AudioLeadIn: 0
PreviewTime: 66492
Countdown: 0
SampleSet: Soft
StackLeniency: 0.7
Mode: 0
LetterboxInBreaks: 1

[Editor]
Bookmarks: 21822,89155,170155
DistanceSpacing: 1.20000004768372
BeatDivisor: 4
GridSize: 8

[Metadata]
Title:Azurite
Artist:Urakabe Tae
Creator:kioukiou
Version:Hard
Source:Heroic Age
Tags:Urakabe Tae Anime J-Pop Heroic Age

[Difficulty]
HPDrainRate:8
CircleSize:5
OverallDifficulty:6
SliderMultiplier:1.4
SliderTickRate:1

[Events]
//Background and Video events
0,0,"BG.jpg"
//Break Periods
2,158688,169105
//Storyboard Layer 0 (Background)
//Storyboard Layer 1 (Fail)
//Storyboard Layer 2 (Pass)
//Storyboard Layer 3 (Foreground)
//Storyboard Sound Samples
//Background Colour Transformations
3,100,163,162,255

[TimingPoints]
489,666.666666666667,4,2,1,55,1,0
67822,-100,4,2,1,70,0,0
86489,-100,4,2,1,0,0,0
88655,-100,4,2,1,55,0,0
137155,-100,4,2,1,70,0,0
155822,-100,4,2,1,0,0,0
158655,-100,4,2,1,55,0,0
201072,-100,4,2,1,50,0,0
201322,-100,4,2,1,70,0,0
211655,-100,4,2,1,50,0,0
211989,-100,4,2,1,70,0,0
219822,-100,4,2,1,0,0,0

[Colours]
Combo1 : 250,207,109
Combo2 : 255,255,255
Combo3 : 0,227,227

[HitObjects]
32,64,21822,1,0
112,48,22155,1,0
192,64,22489,2,0,B|280:24|328:136|392:24|480:72,1,280,2|2
464,152,24155,1,0
464,152,24489,1,0
32,272,25155,5,2
104,320,25489,1,0
168,264,25822,2,0,B|256:224|304:336|368:224|456:272,1,280
448,184,27489,5,0
408,112,27822,2,0,B|336:64|264:120,1,140,2|0
312,184,28822,1,0
312,184,29155,2,0,B|240:232|168:176,2,140,2|0|2
400,184,30822,1,0
456,248,31155,1,0
400,312,31489,1,0
400,312,31655,1,0
400,312,31822,2,0,B|312:312,2,70,2|0|0
400,224,32822,5,0
344,160,33155,2,0,L|272:104|216:104,1,140,2|0
224,192,34155,1,0
224,192,34489,2,0,L|175:192|103:136,1,140,2|0
104,48,35489,1,0
144,48,35655,1,0
184,48,35822,1,2
264,48,36155,1,0
352,48,36489,2,0,L|448:48,2,70,0|0|2
352,136,37489,1,0
352,216,37822,6,0,B|288:248|211:213,1,140,0|2
144,264,38822,1,0
144,184,39155,2,0,B|88:152|80:112,2,70,0|0|2
216,136,40155,1,0
288,96,40488,2,0,B|376:96,1,70
416,160,41155,2,0,B|336:160,1,70,2|0
296,224,41822,1,0
376,224,42155,1,0
376,224,42322,1,0
376,224,42488,2,0,B|456:224,2,70,2|0|0
320,288,43488,5,0
248,328,43822,1,2
176,288,44155,1,0
104,328,44488,1,0
32,288,44822,2,0,B|32:200,2,70,0|2|0
104,248,45822,1,0
176,208,46155,1,0
248,248,46488,2,0,B|336:304|384:208|472:272,1,210,2|0
456,176,47822,5,2
384,128,48155,1,0
312,176,48488,1,0
240,128,48822,2,0,B|200:96|152:104,2,70,0|2|0
176,184,49822,1,0
112,232,50155,2,0,B|152:264|200:256,2,70,0|2|0
40,184,51155,1,0
72,104,51488,1,0
136,48,51822,2,0,B|184:24|240:64|288:32,1,140,2|0
360,40,52822,1,0
400,40,52988,1,0
440,40,53155,1,2
416,120,53488,1,0
336,120,53822,6,0,B|240:120,2,70,0|0|2
376,192,54822,1,0
424,264,55155,2,0,B|512:264,2,70,0|0|2
336,264,56155,1,0
264,312,56488,1,0
224,328,56655,1,0
184,312,56822,1,0
224,240,57155,2,0,B|224:96,1,140,2|0
144,64,58155,5,0
312,128,58488,1,2
144,184,58822,1,0
304,240,59155,1,0
392,240,59488,6,0,B|472:240,2,70,0|2|0
352,168,60488,1,0
272,136,60822,1,0
232,120,60988,1,0
192,136,61155,1,2
232,208,61488,1,0
272,280,61822,1,0
232,296,61988,1,0
192,280,62155,1,0
152,208,62488,6,0,B|96:160|112:80,2,140,2|0|2
232,208,64155,1,0
320,208,64488,2,0,B|376:256|360:336,1,140,0|2
256,48,66488,6,0,B|208:96|312:128|240:176,2,140,0|0|0
336,48,68155,1,0
424,48,68488,1,0
424,128,68822,1,0
408,168,68988,1,0
424,208,69155,1,2
424,296,69488,2,0,B|384:320|336:280,1,70
288,248,70155,1,0
224,296,70488,2,0,B|184:320|136:280,1,70
192,224,71155,1,0
192,136,71488,1,0
192,136,71655,1,0
192,136,71822,1,2
264,96,72155,1,0
336,136,72488,5,0
408,96,72822,2,0,B|432:64|488:80,2,70
408,184,73822,2,0,B|408:344,1,140,0|2
328,344,74822,1,0
288,352,74988,1,0
248,344,75155,1,0
288,272,75488,2,0,B|288:184,2,70
200,272,76488,1,0
120,272,76822,1,0
120,272,76988,1,0
120,272,77155,2,0,B|72:288|32:240,2,70,2|0|0
176,208,78155,5,0
240,160,78489,2,0,B|288:144|328:192,2,70
240,248,79489,1,0
272,272,79655,1,0
312,280,79822,1,2
392,280,80155,1,0
480,280,80489,2,0,B|480:368,2,70
480,192,81489,1,0
480,112,81822,2,0,B|408:72|336:112,1,140,0|2
352,192,82822,5,0
352,192,83155,2,0,B|408:248,2,70
280,232,84155,1,0
208,192,84489,1,0
136,232,84822,1,0
64,192,85155,1,2
64,192,85489,2,0,B|8:136,2,70
256,192,86489,12,0,88489
256,64,89155,5,0
216,136,89489,1,0
296,136,89822,1,2
256,208,90155,1,0
256,208,90322,1,2
256,288,90655,1,0
256,288,90822,1,2
184,248,91155,5,0
184,248,91489,2,0,B|88:248,2,70,0|2|0
272,248,92489,2,0,B|344:280|432:240,1,140,0|2
344,192,93489,1,0
408,136,93822,2,0,B|336:104|248:144,1,140,0|2
208,192,94822,1,0
168,208,94989,1,0
128,192,95155,1,0
168,120,95489,1,0
168,120,95822,2,0,B|168:48,2,70,2|0|0
256,120,96822,6,0,B|312:64,1,70,0|2
304,168,97489,2,0,B|368:104,1,70
368,200,98155,2,0,B|312:256,1,70,0|2
400,256,98822,2,0,B|336:320,1,70
264,312,99489,5,0
224,328,99655,1,0
184,312,99822,1,2
224,240,100155,1,0
168,184,100489,1,0
104,128,100822,2,0,B|64:96|24:112,2,70,0|2|0
176,88,101822,6,0,B|248:64|336:96,1,140,0|2
368,152,102822,1,0
312,216,103155,2,0,B|240:240|152:208,1,140,0|2
120,152,104155,1,0
120,152,104489,2,0,B|48:152,2,70,0|0|2
200,128,105489,1,0
280,152,105822,1,0
360,120,106155,1,0
376,160,106322,1,0
360,200,106489,1,2
280,216,106822,1,0
200,216,107155,6,0,B|128:216,2,70,0|0|2
240,288,108155,1,0
240,288,108322,1,0
240,288,108489,1,0
320,320,108822,1,0
400,288,109155,1,2
384,208,109489,2,0,B|360:160|312:160,1,70
248,160,110155,1,0
248,160,110322,1,0
248,160,110489,2,0,B|168:160,2,70,2|0|0
312,112,111489,1,0
312,112,111655,1,0
312,112,111822,2,0,B|392:112,2,70,2|0|0
248,56,112822,5,0
168,64,113155,2,0,B|128:64|88:104,1,70,2|0
168,144,113822,2,0,B|144:169|104:169,1,70
152,240,114489,2,0,B|112:240|72:280,1,70,2|0
160,312,115155,2,0,B|200:312|240:272,1,70,0|0
280,224,115822,2,0,B|352:200|424:224,1,140,2|0
416,136,116822,1,0
416,136,116989,1,0
416,136,117155,1,2
352,80,117489,1,0
288,136,117822,5,0
208,112,118155,2,0,B|168:96|128:120,2,70,0|2|0
208,200,119155,2,0,B|256:256|344:208|400:320,1,210
312,328,120489,1,0
232,328,120822,2,0,B|160:328,2,70,0|2|0
272,256,121822,1,0
232,184,122155,1,0
272,176,122322,1,0
312,184,122489,2,0,B|384:184,2,70,2|0|0
312,96,123489,5,0
232,96,123822,2,0,B|160:64|80:104,1,140,2|0
96,184,124822,1,0
136,192,124989,1,0
176,184,125155,1,2
264,184,125489,1,0
344,184,125822,1,0
304,256,126155,2,0,B|304:344,2,70,0|2|0
304,168,127155,2,0,B|240:128|360:128|280:48,2,140,0|2|0
376,208,128822,5,0
376,288,129155,2,0,B|392:328|448:328,2,70,2|0|0
288,288,130155,1,0
248,288,130322,1,0
208,288,130489,1,2
152,224,130822,2,0,B|72:224,2,70
208,160,131822,2,0,B|280:136|368:168,1,140,2|0
344,248,132822,1,0
344,248,132989,1,0
344,248,133155,2,0,B|272:272|184:240,2,140,2|0|2
256,32,135822,6,0,B|312:88|200:120|272:176,2,140
168,32,137489,1,0
168,32,137822,1,0
136,112,138155,1,0
120,152,138322,1,0
136,192,138489,1,2
168,272,138822,2,0,B|112:328,2,70
256,272,139822,2,0,B|328:296|408:264,1,140
392,184,140822,1,0
408,144,140989,1,0
392,104,141155,2,0,B|392:32,2,70,2|0|0
320,144,142155,5,0
320,144,142489,2,0,B|240:128|176:144,1,140
224,216,143489,1,0
224,216,143822,2,0,B|144:232|80:216,2,140,2|0|0
312,216,145489,1,0
392,216,145822,1,0
352,288,146155,1,0
312,288,146322,1,0
272,288,146489,1,2
192,320,146822,1,0
112,288,147155,6,0,B|32:288,2,70
192,256,148155,1,0
192,168,148489,1,0
232,96,148822,1,0
192,80,148989,1,0
152,96,149155,1,2
104,168,149489,2,0,B|24:168,2,70
192,168,150489,1,0
272,168,150822,2,0,B|352:168,2,70
232,240,151822,2,0,B|88:240,1,140,2|0
48,168,152822,5,0
104,104,153155,2,0,B|72:72|72:32,2,70
160,168,154155,1,0
216,232,154489,2,0,B|248:264|248:304,2,70,2|0|0
272,168,155489,1,0
256,192,155822,12,0,158488
72,96,170155,5,0
152,72,170488,2,0,B|200:64|232:72,2,70,2|0|0
152,160,171488,1,0
152,160,171655,1,0
152,160,171822,1,2
152,240,172155,2,0,B|104:248|72:240,2,70
240,240,173155,2,0,B|312:272|392:232,1,140,2|0
400,160,174155,1,0
336,104,174488,1,2
256,88,174822,1,0
176,104,175155,1,0
112,160,175488,1,0
112,160,175655,1,0
112,160,175822,2,0,B|40:160,2,70,2|0|0
176,216,176822,5,0
176,216,176988,1,0
176,216,177155,2,0,B|256:248|320:208,1,140,2|0
312,128,178155,2,0,B|312:56,2,70,0|2|0
376,176,179155,1,0
400,256,179488,1,0
376,336,179822,1,2
256,344,181155,6,0,B|304:296|200:280|272:200,2,140
168,344,182822,1,0
168,344,183155,1,0
120,272,183488,1,0
136,232,183655,1,0
120,192,183822,2,0,B|120:104,2,70,2|0|0
200,176,184822,1,0
272,216,185155,1,0
344,176,185488,1,0
272,128,185822,1,0
232,56,186155,1,0
272,40,186322,1,0
312,56,186488,1,2
272,128,186822,1,0
272,208,187155,6,0,B|272:304,2,70,0|0|0
192,184,188155,1,0
112,208,188488,1,0
32,176,188822,1,0
32,176,188988,1,0
32,176,189155,1,2
112,144,189488,2,0,B|112:64,2,70
192,176,190488,2,0,B|192:320,1,140
272,336,191488,1,0
312,344,191655,1,0
352,336,191822,1,2
312,264,192155,1,0
312,176,192488,6,0,B|312:104,2,70
384,216,193488,1,0
456,176,193822,1,0
456,256,194155,1,0
432,296,194322,1,0
392,304,194488,2,0,B|328:336|248:304,1,140,2|0
184,264,195488,1,0
128,200,195822,1,0
136,120,196155,1,0
192,56,196488,1,0
272,40,196822,1,0
312,32,196988,1,0
352,40,197155,2,0,B|432:64|456:152,1,140,2|0
384,184,198155,6,0,B|384:272,2,70
304,152,199155,1,0
224,184,199488,1,0
224,184,199655,1,0
224,184,199822,2,0,B|224:104,2,70,2|0|0
160,240,200822,5,0
120,256,200988,1,0
80,240,201155,2,0,B|24:296,2,70,4|0|0
120,168,202155,1,0
160,152,202322,1,0
200,168,202488,2,0,B|256:112,2,70,2|0|0
256,232,203488,1,0
328,272,203822,1,0
400,232,204155,1,0
328,184,204488,1,0
328,104,204822,1,0
328,104,204988,1,0
328,104,205155,2,0,B|328:32,2,70,2|0|0
256,144,206155,5,0
256,144,206488,2,0,B|176:120|104:152,1,140
64,216,207488,1,0
64,216,207655,1,0
64,216,207822,1,2
120,280,208155,2,0,B|128:328|176:344,1,70
216,280,208822,2,0,B|245:287|253:335,1,70
304,264,209488,2,0,B|312:312|360:328,1,70
416,280,210155,1,0
432,240,210322,1,0
416,200,210488,2,0,B|416:112,2,70,2|0|0
336,176,211488,5,0
264,136,211822,2,0,B|208:104|176:112,2,70,4|0|0
264,224,212822,1,0
264,224,212988,1,0
264,224,213155,1,2
264,312,213488,2,0,B|208:344|176:336,2,70
264,224,214488,1,0
184,192,214822,1,0
104,224,215155,1,0
24,192,215488,1,0
24,192,215655,1,0
24,192,215822,2,0,B|24:280,2,70,2|0|0
104,160,216822,5,0
184,192,217155,2,0,B|336:192,1,140
400,152,218155,1,0
416,192,218322,1,0
400,232,218488,2,0,B|368:296|312:312,2,105,2|0|0
256,192,219822,12,0,222488
