osu file format v13

[General]
AudioFilename: Untitled Session 1_mixdown.mp3
AudioLeadIn: 0
PreviewTime: -1
Countdown: 1
SampleSet: None
StackLeniency: 0.7
Mode: 3
LetterboxInBreaks: 1
SpecialStyle: 0
WidescreenStoryboard: 0

[Editor]
DistanceSpacing: 1.2
BeatDivisor: 8
GridSize: 16
TimelineZoom: 0.8999998

[Metadata]
Title:Ayano no koufuku riron
TitleUnicode:アヤノの幸福理論
Artist:
ArtistUnicode:虞木童子
Creator:Zillah
Version:
Source:
Tags:-- l i c h -- the goddess
BeatmapID:478266
BeatmapSetID:202059

[Difficulty]
HPDrainRate:8
CircleSize:7
OverallDifficulty:8
ApproachRate:5
SliderMultiplier:1.4
SliderTickRate:1

[Events]
//Background and Video events
//Break Periods
//Storyboard Layer 0 (Background)
//Storyboard Layer 1 (Fail)
//Storyboard Layer 2 (Pass)
//Storyboard Layer 3 (Foreground)
//Storyboard Sound Samples
//Background Colour Transformations
3,100,163,162,255

[TimingPoints]
436,697.674418604651,4,2,0,21,1,0
315784,750.574418604652,4,2,0,21,1,0

[HitObjects]
329,192,436,5,0,0:0:0:0:
475,192,436,1,0,0:0:0:0:
402,192,784,1,0,0:0:0:0:
329,192,1133,1,0,0:0:0:0:
182,192,1133,1,0,0:0:0:0:
256,192,1482,1,0,0:0:0:0:
182,192,1831,1,0,0:0:0:0:
36,192,1831,1,0,0:0:0:0:
109,192,2180,1,0,0:0:0:0:
182,192,2529,1,0,0:0:0:0:
329,192,2529,1,0,0:0:0:0:
256,192,2877,1,0,0:0:0:0:
329,192,3226,1,0,0:0:0:0:
475,192,3226,1,0,0:0:0:0:
182,192,3226,1,0,0:0:0:0:
109,192,3575,1,0,0:0:0:0:
182,192,3924,1,0,0:0:0:0:
36,192,4273,1,0,0:0:0:0:
109,192,4622,1,0,0:0:0:0:
256,192,4622,1,0,0:0:0:0:
402,192,4622,1,0,0:0:0:0:
329,192,4970,1,0,0:0:0:0:
475,192,5319,1,0,0:0:0:0:
402,192,5668,1,0,0:0:0:0:
329,192,6017,1,0,0:0:0:0:
256,192,6017,1,0,0:0:0:0:
109,192,6017,1,0,0:0:0:0:
182,192,6366,1,0,0:0:0:0:
109,192,6715,1,0,0:0:0:0:
256,192,7063,1,0,0:0:0:0:
402,192,7412,1,0,0:0:0:0:
182,192,7412,1,0,0:0:0:0:
109,192,7412,1,0,0:0:0:0:
329,192,7761,1,0,0:0:0:0:
475,192,8110,1,0,0:0:0:0:
402,192,8459,1,0,0:0:0:0:
36,192,8808,1,0,0:0:0:0:
182,192,8808,1,0,0:0:0:0:
329,192,8808,1,0,0:0:0:0:
402,192,9156,1,0,0:0:0:0:
329,192,9505,1,0,0:0:0:0:
475,192,9854,1,0,0:0:0:0:
329,192,10552,1,0,0:0:0:0:
109,192,10901,1,0,0:0:0:0:
182,192,10901,1,0,0:0:0:0:
402,192,10901,1,0,0:0:0:0:
256,192,11249,1,0,0:0:0:0:
475,192,11249,1,0,0:0:0:0:
36,192,11249,1,0,0:0:0:0:
109,192,11598,1,0,0:0:0:0:
182,192,11598,1,0,0:0:0:0:
329,192,11598,1,0,0:0:0:0:
256,192,11947,1,0,0:0:0:0:
402,192,11947,1,0,0:0:0:0:
329,192,12296,1,0,0:0:0:0:
182,192,12296,1,0,0:0:0:0:
109,192,12645,1,0,0:0:0:0:
256,192,12645,1,0,0:0:0:0:
182,192,12994,1,0,0:0:0:0:
329,192,12994,1,0,0:0:0:0:
402,192,12994,1,0,0:0:0:0:
256,192,13342,1,0,0:0:0:0:
109,192,13342,1,0,0:0:0:0:
182,192,13691,1,0,0:0:0:0:
329,192,13691,1,0,0:0:0:0:
256,192,14040,1,0,0:0:0:0:
402,192,14040,1,0,0:0:0:0:
475,192,14389,1,0,0:0:0:0:
109,192,14389,1,0,0:0:0:0:
36,192,14389,1,0,0:0:0:0:
402,192,14738,1,0,0:0:0:0:
109,192,14738,1,0,0:0:0:0:
182,192,14738,1,0,0:0:0:0:
256,192,15087,1,0,0:0:0:0:
109,192,15436,1,0,0:0:0:0:
256,192,15784,1,0,0:0:0:0:
402,192,15784,1,0,0:0:0:0:
182,192,16133,1,0,0:0:0:0:
256,192,16482,1,0,0:0:0:0:
109,192,16482,1,0,0:0:0:0:
329,192,16831,1,0,0:0:0:0:
475,192,16831,1,0,0:0:0:0:
402,192,17180,1,0,0:0:0:0:
182,192,17180,1,0,0:0:0:0:
256,192,17180,1,0,0:0:0:0:
329,192,17529,1,0,0:0:0:0:
109,192,17529,1,0,0:0:0:0:
256,192,17877,1,0,0:0:0:0:
36,192,17877,1,0,0:0:0:0:
109,192,18226,1,0,0:0:0:0:
329,192,18226,1,0,0:0:0:0:
182,192,18575,1,0,0:0:0:0:
256,192,18575,1,0,0:0:0:0:
402,192,18575,1,0,0:0:0:0:
109,192,19273,128,0,19970:0:0:0:0:
402,192,19273,128,0,19970:0:0:0:0:
475,192,19970,128,0,20667:0:0:0:0:
36,192,19970,1,0,0:0:0:0:
256,192,19970,1,0,0:0:0:0:
182,192,19970,1,0,0:0:0:0:
329,192,20319,1,0,0:0:0:0:
109,192,20668,128,0,21017:0:0:0:0:
256,192,20668,1,0,0:0:0:0:
329,192,21017,1,0,0:0:0:0:
475,192,21017,1,0,0:0:0:0:
256,192,21366,128,0,21714:0:0:0:0:
329,192,21366,1,0,0:0:0:0:
109,192,21715,128,0,22064:0:0:0:0:
402,192,21715,1,0,0:0:0:0:
475,192,21715,1,0,0:0:0:0:
329,192,22063,1,0,0:0:0:0:
36,192,22412,128,0,22760:0:0:0:0:
402,192,22412,1,0,0:0:0:0:
256,192,22761,1,0,0:0:0:0:
329,192,22761,1,0,0:0:0:0:
475,192,22761,1,0,0:0:0:0:
36,192,23459,128,0,23808:0:0:0:0:
475,192,23808,1,0,0:0:0:0:
402,192,23808,1,0,0:0:0:0:
109,192,24156,128,0,24505:0:0:0:0:
256,192,24156,1,0,0:0:0:0:
182,192,24505,128,0,24854:0:0:0:0:
329,192,24505,1,0,0:0:0:0:
475,192,24505,1,0,0:0:0:0:
402,192,24854,1,0,0:0:0:0:
256,192,24854,1,0,0:0:0:0:
182,192,25203,128,0,25552:0:0:0:0:
329,192,25203,1,0,0:0:0:0:
402,192,25552,1,0,0:0:0:0:
475,192,25552,1,0,0:0:0:0:
36,192,25552,1,0,0:0:0:0:
182,192,26249,128,0,26598:0:0:0:0:
402,192,26249,1,0,0:0:0:0:
329,192,26598,1,0,0:0:0:0:
475,192,26598,1,0,0:0:0:0:
109,192,26947,128,0,27295:0:0:0:0:
256,192,26947,1,0,0:0:0:0:
182,192,27296,128,0,27645:0:0:0:0:
402,192,27296,1,0,0:0:0:0:
475,192,27296,1,0,0:0:0:0:
329,192,27645,1,0,0:0:0:0:
402,192,27645,1,0,0:0:0:0:
36,192,27994,128,0,28342:0:0:0:0:
256,192,28342,1,0,0:0:0:0:
475,192,28342,1,0,0:0:0:0:
402,192,28342,1,0,0:0:0:0:
36,192,29040,128,0,29389:0:0:0:0:
329,192,29040,1,0,0:0:0:0:
402,192,29389,1,0,0:0:0:0:
475,192,29389,1,0,0:0:0:0:
109,192,29738,128,0,30087:0:0:0:0:
256,192,29738,1,0,0:0:0:0:
182,192,30087,128,0,30436:0:0:0:0:
329,192,30087,1,0,0:0:0:0:
475,192,30087,1,0,0:0:0:0:
402,192,30435,1,0,0:0:0:0:
256,192,30435,1,0,0:0:0:0:
36,192,30435,1,0,0:0:0:0:
182,192,30784,128,0,31133:0:0:0:0:
329,192,30784,1,0,0:0:0:0:
475,192,31133,1,0,0:0:0:0:
402,192,31133,1,0,0:0:0:0:
36,192,31133,1,0,0:0:0:0:
109,192,31831,128,0,32180:0:0:0:0:
402,192,31831,1,0,0:0:0:0:
329,192,32180,1,0,0:0:0:0:
475,192,32180,1,0,0:0:0:0:
256,192,32529,128,0,32877:0:0:0:0:
329,192,32529,1,0,0:0:0:0:
109,192,32877,128,0,33226:0:0:0:0:
402,192,32877,1,0,0:0:0:0:
475,192,32877,1,0,0:0:0:0:
329,192,33226,1,0,0:0:0:0:
402,192,33226,1,0,0:0:0:0:
36,192,33575,128,0,33923:0:0:0:0:
256,192,33575,1,0,0:0:0:0:
402,192,33924,1,0,0:0:0:0:
475,192,33924,1,0,0:0:0:0:
182,192,33924,1,0,0:0:0:0:
36,192,34622,128,0,34971:0:0:0:0:
256,192,34622,1,0,0:0:0:0:
402,192,34970,1,0,0:0:0:0:
475,192,34970,1,0,0:0:0:0:
109,192,35319,128,0,35668:0:0:0:0:
256,192,35319,1,0,0:0:0:0:
182,192,35668,128,0,36017:0:0:0:0:
475,192,35668,1,0,0:0:0:0:
329,192,35668,1,0,0:0:0:0:
402,192,36017,1,0,0:0:0:0:
256,192,36017,1,0,0:0:0:0:
182,192,36366,128,0,36715:0:0:0:0:
329,192,36366,1,0,0:0:0:0:
402,192,36715,1,0,0:0:0:0:
475,192,36715,1,0,0:0:0:0:
36,192,36715,1,0,0:0:0:0:
109,192,37412,128,0,37761:0:0:0:0:
402,192,37412,1,0,0:0:0:0:
329,192,37761,1,0,0:0:0:0:
475,192,37761,1,0,0:0:0:0:
256,192,38110,128,0,38458:0:0:0:0:
329,192,38110,1,0,0:0:0:0:
109,192,38459,128,0,38808:0:0:0:0:
402,192,38459,1,0,0:0:0:0:
475,192,38459,1,0,0:0:0:0:
329,192,38808,1,0,0:0:0:0:
256,192,38808,1,0,0:0:0:0:
36,192,39156,128,0,39504:0:0:0:0:
329,192,39156,1,0,0:0:0:0:
402,192,39505,1,0,0:0:0:0:
475,192,39505,1,0,0:0:0:0:
182,192,39505,1,0,0:0:0:0:
36,192,40203,128,0,40552:0:0:0:0:
256,192,40203,1,0,0:0:0:0:
402,192,40552,1,0,0:0:0:0:
475,192,40552,1,0,0:0:0:0:
109,192,40901,128,0,41250:0:0:0:0:
329,192,40901,1,0,0:0:0:0:
182,192,41249,128,0,41598:0:0:0:0:
402,192,41249,1,0,0:0:0:0:
475,192,41249,1,0,0:0:0:0:
329,192,41598,1,0,0:0:0:0:
402,192,41598,1,0,0:0:0:0:
36,192,41598,1,0,0:0:0:0:
182,192,41947,128,0,42296:0:0:0:0:
329,192,41947,1,0,0:0:0:0:
36,192,42296,128,0,42994:0:0:0:0:
475,192,42645,1,0,0:0:0:0:
109,192,42645,128,0,42994:0:0:0:0:
402,192,42819,1,0,0:0:0:0:
182,192,42994,1,0,0:0:0:0:
329,192,42994,128,0,43691:0:0:0:0:
109,192,43342,1,0,0:0:0:0:
475,192,43342,128,0,43691:0:0:0:0:
182,192,43517,1,0,0:0:0:0:
402,192,43691,128,0,44389:0:0:0:0:
256,192,43866,1,0,0:0:0:0:
475,192,44040,1,0,0:0:0:0:
329,192,44040,128,0,44389:0:0:0:0:
109,192,44389,128,0,45087:0:0:0:0:
36,192,44738,1,0,0:0:0:0:
256,192,44738,128,0,45087:0:0:0:0:
402,192,45087,1,0,0:0:0:0:
182,192,45087,1,0,0:0:0:0:
475,192,45087,128,0,45784:0:0:0:0:
329,192,45435,128,0,45784:0:0:0:0:
109,192,45436,1,0,0:0:0:0:
256,192,45784,1,0,0:0:0:0:
182,192,45784,128,0,46482:0:0:0:0:
402,192,45959,1,0,0:0:0:0:
109,192,46133,1,0,0:0:0:0:
475,192,46133,128,0,46482:0:0:0:0:
36,192,46482,128,0,47180:0:0:0:0:
402,192,46831,1,0,0:0:0:0:
109,192,46831,128,0,47180:0:0:0:0:
182,192,47180,1,0,0:0:0:0:
256,192,47180,128,0,47877:0:0:0:0:
329,192,47529,1,0,0:0:0:0:
109,192,47529,128,0,47877:0:0:0:0:
402,192,47877,1,0,0:0:0:0:
475,192,47877,128,0,48575:0:0:0:0:
36,192,48226,1,0,0:0:0:0:
256,192,48226,128,0,48575:0:0:0:0:
109,192,48401,1,0,0:0:0:0:
36,192,48575,1,0,0:0:0:0:
402,192,48575,128,0,49273:0:0:0:0:
475,192,48924,1,0,0:0:0:0:
182,192,48924,128,0,49273:0:0:0:0:
256,192,49098,1,0,0:0:0:0:
109,192,49273,128,0,49970:0:0:0:0:
329,192,49447,1,0,0:0:0:0:
182,192,49622,1,0,0:0:0:0:
402,192,49622,128,0,49970:0:0:0:0:
36,192,49970,128,0,50668:0:0:0:0:
109,192,50319,1,0,0:0:0:0:
329,192,50319,128,0,50668:0:0:0:0:
182,192,50494,1,0,0:0:0:0:
402,192,50668,1,0,0:0:0:0:
475,192,50668,1,0,0:0:0:0:
256,192,50668,128,0,52063:0:0:0:0:
109,192,51017,1,0,0:0:0:0:
329,192,51017,1,0,0:0:0:0:
182,192,51366,1,0,0:0:0:0:
475,192,51366,1,0,0:0:0:0:
402,192,51715,1,0,0:0:0:0:
109,192,52063,1,0,0:0:0:0:
182,192,52063,128,0,52412:0:0:0:0:
475,192,52412,1,0,0:0:0:0:
329,192,52412,128,0,52761:0:0:0:0:
402,192,52761,1,0,0:0:0:0:
182,192,52761,128,0,53110:0:0:0:0:
109,192,52936,1,0,0:0:0:0:
36,192,53110,1,0,0:0:0:0:
329,192,53110,128,0,53459:0:0:0:0:
256,192,53459,1,0,0:0:0:0:
402,192,53459,1,0,0:0:0:0:
475,192,53459,128,0,54156:0:0:0:0:
109,192,53808,1,0,0:0:0:0:
329,192,53808,128,0,54156:0:0:0:0:
182,192,53982,1,0,0:0:0:0:
256,192,54156,1,0,0:0:0:0:
36,192,54156,128,0,54854:0:0:0:0:
402,192,54505,1,0,0:0:0:0:
182,192,54505,128,0,54854:0:0:0:0:
475,192,54680,1,0,0:0:0:0:
109,192,54854,128,0,55552:0:0:0:0:
402,192,55029,1,0,0:0:0:0:
36,192,55203,1,0,0:0:0:0:
329,192,55203,128,0,55552:0:0:0:0:
256,192,55552,128,0,56249:0:0:0:0:
109,192,55901,1,0,0:0:0:0:
402,192,55901,128,0,56249:0:0:0:0:
182,192,56249,1,0,0:0:0:0:
475,192,56249,1,0,0:0:0:0:
36,192,56249,128,0,57645:0:0:0:0:
329,192,56598,1,0,0:0:0:0:
109,192,56598,1,0,0:0:0:0:
402,192,56947,1,0,0:0:0:0:
182,192,56947,1,0,0:0:0:0:
475,192,57296,1,0,0:0:0:0:
256,192,57296,1,0,0:0:0:0:
109,192,57645,1,0,0:0:0:0:
182,192,57645,1,0,0:0:0:0:
475,192,57645,128,0,58342:0:0:0:0:
402,192,57994,1,0,0:0:0:0:
256,192,57994,128,0,58342:0:0:0:0:
182,192,58342,1,0,0:0:0:0:
329,192,58342,128,0,59040:0:0:0:0:
109,192,58517,1,0,0:0:0:0:
36,192,58691,1,0,0:0:0:0:
402,192,58691,128,0,59040:0:0:0:0:
475,192,59040,1,0,0:0:0:0:
256,192,59040,1,0,0:0:0:0:
182,192,59040,128,0,59738:0:0:0:0:
36,192,59389,1,0,0:0:0:0:
329,192,59389,128,0,59738:0:0:0:0:
109,192,59563,1,0,0:0:0:0:
256,192,59738,1,0,0:0:0:0:
475,192,59738,128,0,60435:0:0:0:0:
182,192,60087,1,0,0:0:0:0:
402,192,60087,128,0,60435:0:0:0:0:
329,192,60261,1,0,0:0:0:0:
109,192,60435,128,0,61133:0:0:0:0:
182,192,60784,1,0,0:0:0:0:
402,192,60784,128,0,61133:0:0:0:0:
256,192,61133,1,0,0:0:0:0:
36,192,61133,128,0,61831:0:0:0:0:
182,192,61308,1,0,0:0:0:0:
402,192,61482,1,0,0:0:0:0:
109,192,61482,128,0,61831:0:0:0:0:
256,192,61831,1,0,0:0:0:0:
475,192,61831,128,0,63226:0:0:0:0:
329,192,62180,1,0,0:0:0:0:
182,192,62180,1,0,0:0:0:0:
109,192,62529,1,0,0:0:0:0:
256,192,62529,1,0,0:0:0:0:
182,192,62877,1,0,0:0:0:0:
329,192,62877,1,0,0:0:0:0:
36,192,63052,1,0,0:0:0:0:
402,192,63226,128,0,63575:0:0:0:0:
182,192,63575,1,0,0:0:0:0:
329,192,63924,128,0,64273:0:0:0:0:
109,192,64273,1,0,0:0:0:0:
36,192,64622,128,0,65319:0:0:0:0:
475,192,64970,1,0,0:0:0:0:
182,192,64970,1,0,0:0:0:0:
402,192,65145,1,0,0:0:0:0:
329,192,65319,1,0,0:0:0:0:
256,192,65319,1,0,0:0:0:0:
109,192,65668,1,0,0:0:0:0:
402,192,65668,1,0,0:0:0:0:
182,192,65842,1,0,0:0:0:0:
329,192,66017,1,0,0:0:0:0:
475,192,66017,128,0,66715:0:0:0:0:
256,192,66191,1,0,0:0:0:0:
329,192,66366,1,0,0:0:0:0:
182,192,66366,1,0,0:0:0:0:
256,192,66715,128,0,67412:0:0:0:0:
36,192,67063,1,0,0:0:0:0:
109,192,67238,1,0,0:0:0:0:
402,192,67412,1,0,0:0:0:0:
475,192,67412,128,0,68110:0:0:0:0:
109,192,67761,1,0,0:0:0:0:
329,192,67761,1,0,0:0:0:0:
256,192,68110,1,0,0:0:0:0:
36,192,68110,1,0,0:0:0:0:
329,192,68284,1,0,0:0:0:0:
475,192,68459,1,0,0:0:0:0:
182,192,68459,1,0,0:0:0:0:
36,192,68808,128,0,69505:0:0:0:0:
256,192,68808,1,0,0:0:0:0:
402,192,69156,1,0,0:0:0:0:
329,192,69156,1,0,0:0:0:0:
475,192,69505,1,0,0:0:0:0:
256,192,69505,128,0,70203:0:0:0:0:
109,192,69680,1,0,0:0:0:0:
402,192,69854,1,0,0:0:0:0:
475,192,70203,128,0,70901:0:0:0:0:
36,192,70552,1,0,0:0:0:0:
402,192,70552,1,0,0:0:0:0:
109,192,70726,1,0,0:0:0:0:
36,192,70901,1,0,0:0:0:0:
329,192,70901,1,0,0:0:0:0:
182,192,71249,1,0,0:0:0:0:
256,192,71424,1,0,0:0:0:0:
36,192,71598,128,0,72296:0:0:0:0:
109,192,71598,1,0,0:0:0:0:
329,192,71773,1,0,0:0:0:0:
402,192,71947,1,0,0:0:0:0:
256,192,72296,128,0,72994:0:0:0:0:
329,192,72645,1,0,0:0:0:0:
182,192,72819,1,0,0:0:0:0:
36,192,72994,1,0,0:0:0:0:
402,192,72994,1,0,0:0:0:0:
475,192,72994,128,0,73691:0:0:0:0:
109,192,73342,1,0,0:0:0:0:
182,192,73691,1,0,0:0:0:0:
256,192,74040,1,0,0:0:0:0:
402,192,74040,1,0,0:0:0:0:
36,192,74389,128,0,75087:0:0:0:0:
109,192,74389,1,0,0:0:0:0:
329,192,74738,1,0,0:0:0:0:
182,192,75087,1,0,0:0:0:0:
256,192,75087,128,0,75784:0:0:0:0:
36,192,75435,1,0,0:0:0:0:
475,192,75784,128,0,76482:0:0:0:0:
109,192,76133,1,0,0:0:0:0:
329,192,76133,1,0,0:0:0:0:
256,192,76482,1,0,0:0:0:0:
182,192,76482,1,0,0:0:0:0:
402,192,76831,1,0,0:0:0:0:
109,192,76831,1,0,0:0:0:0:
475,192,77005,1,0,0:0:0:0:
36,192,77180,128,0,77877:0:0:0:0:
402,192,77354,1,0,0:0:0:0:
329,192,77529,1,0,0:0:0:0:
182,192,77529,1,0,0:0:0:0:
256,192,77877,128,0,78575:0:0:0:0:
475,192,77877,1,0,0:0:0:0:
109,192,78226,1,0,0:0:0:0:
182,192,78575,1,0,0:0:0:0:
475,192,78575,1,0,0:0:0:0:
36,192,78575,128,0,79273:0:0:0:0:
329,192,78924,1,0,0:0:0:0:
109,192,78924,1,0,0:0:0:0:
402,192,79273,1,0,0:0:0:0:
182,192,79273,1,0,0:0:0:0:
475,192,79447,1,0,0:0:0:0:
402,192,79622,1,0,0:0:0:0:
475,192,79970,128,0,80668:0:0:0:0:
402,192,80319,1,0,0:0:0:0:
256,192,80668,128,0,81366:0:0:0:0:
329,192,80668,1,0,0:0:0:0:
109,192,80842,1,0,0:0:0:0:
36,192,81366,1,0,0:0:0:0:
475,192,81366,128,0,82063:0:0:0:0:
109,192,81715,1,0,0:0:0:0:
182,192,81889,1,0,0:0:0:0:
256,192,82063,1,0,0:0:0:0:
329,192,82063,1,0,0:0:0:0:
329,192,82412,1,0,0:0:0:0:
402,192,82412,1,0,0:0:0:0:
402,192,82761,1,0,0:0:0:0:
36,192,82761,128,0,83459:0:0:0:0:
475,192,82761,1,0,0:0:0:0:
475,192,83110,1,0,0:0:0:0:
182,192,83110,1,0,0:0:0:0:
329,192,83459,1,0,0:0:0:0:
256,192,83633,1,0,0:0:0:0:
109,192,83808,1,0,0:0:0:0:
256,192,84156,1,0,0:0:0:0:
475,192,84156,128,0,86249:0:0:0:0:
329,192,84505,1,0,0:0:0:0:
182,192,84854,1,0,0:0:0:0:
402,192,84854,128,0,86249:0:0:0:0:
109,192,85203,1,0,0:0:0:0:
36,192,85377,1,0,0:0:0:0:
329,192,85552,128,0,86249:0:0:0:0:
182,192,85901,1,0,0:0:0:0:
256,192,86249,1,0,0:0:0:0:
36,192,86249,1,0,0:0:0:0:
329,192,86598,1,0,0:0:0:0:
109,192,86598,1,0,0:0:0:0:
182,192,86598,1,0,0:0:0:0:
475,192,86947,1,0,0:0:0:0:
36,192,86947,1,0,0:0:0:0:
402,192,86947,1,0,0:0:0:0:
182,192,86947,128,0,87993:0:0:0:0:
256,192,87645,1,0,0:0:0:0:
329,192,87994,1,0,0:0:0:0:
402,192,87994,1,0,0:0:0:0:
36,192,87994,128,0,88343:0:0:0:0:
256,192,88342,1,0,0:0:0:0:
109,192,88342,128,0,89736:0:0:0:0:
475,192,88691,1,0,0:0:0:0:
402,192,88691,1,0,0:0:0:0:
402,192,89040,1,0,0:0:0:0:
256,192,89040,1,0,0:0:0:0:
475,192,89389,1,0,0:0:0:0:
36,192,89738,1,0,0:0:0:0:
182,192,89738,128,0,90784:0:0:0:0:
329,192,89738,1,0,0:0:0:0:
402,192,89738,1,0,0:0:0:0:
256,192,90435,1,0,0:0:0:0:
402,192,90784,1,0,0:0:0:0:
475,192,90784,1,0,0:0:0:0:
36,192,90784,1,0,0:0:0:0:
109,192,90959,1,0,0:0:0:0:
329,192,91133,1,0,0:0:0:0:
182,192,91133,1,0,0:0:0:0:
402,192,91482,1,0,0:0:0:0:
475,192,91482,1,0,0:0:0:0:
109,192,91482,128,0,91831:0:0:0:0:
256,192,91831,1,0,0:0:0:0:
402,192,91831,1,0,0:0:0:0:
182,192,91831,128,0,92528:0:0:0:0:
329,192,92180,1,0,0:0:0:0:
402,192,92529,1,0,0:0:0:0:
475,192,92529,1,0,0:0:0:0:
36,192,92529,1,0,0:0:0:0:
109,192,92529,128,0,93226:0:0:0:0:
256,192,92529,128,0,93226:0:0:0:0:
329,192,93226,1,0,0:0:0:0:
182,192,93226,128,0,93924:0:0:0:0:
36,192,93226,128,0,93924:0:0:0:0:
475,192,93575,1,0,0:0:0:0:
256,192,93924,1,0,0:0:0:0:
475,192,93924,128,0,94621:0:0:0:0:
329,192,93924,128,0,94621:0:0:0:0:
182,192,94273,1,0,0:0:0:0:
109,192,94273,1,0,0:0:0:0:
256,192,94622,1,0,0:0:0:0:
36,192,94622,128,0,95319:0:0:0:0:
402,192,94622,128,0,95319:0:0:0:0:
109,192,94970,1,0,0:0:0:0:
475,192,95319,1,0,0:0:0:0:
329,192,95319,1,0,0:0:0:0:
182,192,95319,128,0,96017:0:0:0:0:
109,192,96017,1,0,0:0:0:0:
475,192,96017,1,0,0:0:0:0:
329,192,96017,128,0,96714:0:0:0:0:
182,192,96366,1,0,0:0:0:0:
256,192,96366,1,0,0:0:0:0:
402,192,96715,1,0,0:0:0:0:
475,192,96715,1,0,0:0:0:0:
109,192,96715,128,0,97413:0:0:0:0:
329,192,97063,1,0,0:0:0:0:
182,192,97063,1,0,0:0:0:0:
36,192,97412,1,0,0:0:0:0:
402,192,97412,1,0,0:0:0:0:
475,192,97412,1,0,0:0:0:0:
256,192,97412,1,0,0:0:0:0:
329,192,97761,1,0,0:0:0:0:
402,192,97761,1,0,0:0:0:0:
182,192,97761,1,0,0:0:0:0:
109,192,98110,1,0,0:0:0:0:
256,192,98110,1,0,0:0:0:0:
475,192,98110,1,0,0:0:0:0:
36,192,98110,128,0,98808:0:0:0:0:
182,192,98459,1,0,0:0:0:0:
329,192,98808,1,0,0:0:0:0:
256,192,98808,128,0,99505:0:0:0:0:
182,192,98808,128,0,100203:0:0:0:0:
109,192,99156,1,0,0:0:0:0:
402,192,99156,1,0,0:0:0:0:
475,192,99156,1,0,0:0:0:0:
36,192,99505,128,0,100901:0:0:0:0:
329,192,99505,128,0,100203:0:0:0:0:
109,192,99680,1,0,0:0:0:0:
402,192,99854,1,0,0:0:0:0:
475,192,99854,1,0,0:0:0:0:
109,192,100203,1,0,0:0:0:0:
475,192,100203,128,0,101598:0:0:0:0:
329,192,100552,1,0,0:0:0:0:
402,192,100901,1,0,0:0:0:0:
256,192,100901,1,0,0:0:0:0:
109,192,100901,1,0,0:0:0:0:
182,192,100901,128,0,101598:0:0:0:0:
329,192,101249,1,0,0:0:0:0:
109,192,101598,1,0,0:0:0:0:
402,192,101598,128,0,102296:0:0:0:0:
329,192,101598,128,0,102994:0:0:0:0:
182,192,101773,1,0,0:0:0:0:
256,192,101947,1,0,0:0:0:0:
36,192,102296,128,0,103691:0:0:0:0:
109,192,102383,1,0,0:0:0:0:
182,192,102470,1,0,0:0:0:0:
402,192,102645,1,0,0:0:0:0:
182,192,102994,1,0,0:0:0:0:
475,192,102994,128,0,103691:0:0:0:0:
256,192,103081,1,0,0:0:0:0:
329,192,103168,1,0,0:0:0:0:
109,192,103342,1,0,0:0:0:0:
402,192,103691,1,0,0:0:0:0:
182,192,103691,128,0,105087:0:0:0:0:
329,192,104040,1,0,0:0:0:0:
475,192,104389,128,0,105784:0:0:0:0:
402,192,104389,1,0,0:0:0:0:
36,192,104738,1,0,0:0:0:0:
256,192,104738,1,0,0:0:0:0:
329,192,105087,1,0,0:0:0:0:
109,192,105087,128,0,106482:0:0:0:0:
402,192,105435,1,0,0:0:0:0:
256,192,105784,1,0,0:0:0:0:
36,192,105784,1,0,0:0:0:0:
182,192,105784,1,0,0:0:0:0:
329,192,105784,128,0,107180:0:0:0:0:
402,192,106133,1,0,0:0:0:0:
475,192,106133,1,0,0:0:0:0:
36,192,106482,1,0,0:0:0:0:
256,192,106482,1,0,0:0:0:0:
182,192,106482,128,0,107180:0:0:0:0:
402,192,106831,1,0,0:0:0:0:
256,192,107180,1,0,0:0:0:0:
475,192,107180,1,0,0:0:0:0:
109,192,107180,128,0,107877:0:0:0:0:
329,192,107529,1,0,0:0:0:0:
182,192,107877,1,0,0:0:0:0:
36,192,107877,1,0,0:0:0:0:
402,192,107877,128,0,108575:0:0:0:0:
256,192,108226,1,0,0:0:0:0:
475,192,108226,1,0,0:0:0:0:
329,192,108226,1,0,0:0:0:0:
109,192,108226,128,0,108575:0:0:0:0:
329,192,108575,1,0,0:0:0:0:
182,192,108575,1,0,0:0:0:0:
402,192,108924,1,0,0:0:0:0:
182,192,108924,1,0,0:0:0:0:
36,192,108924,1,0,0:0:0:0:
109,192,109273,1,0,0:0:0:0:
256,192,109273,1,0,0:0:0:0:
329,192,109273,1,0,0:0:0:0:
475,192,109273,128,0,109970:0:0:0:0:
402,192,109622,1,0,0:0:0:0:
329,192,109970,1,0,0:0:0:0:
256,192,109970,1,0,0:0:0:0:
109,192,109970,1,0,0:0:0:0:
36,192,109970,128,0,110668:0:0:0:0:
182,192,110319,1,0,0:0:0:0:
475,192,110319,1,0,0:0:0:0:
402,192,110494,1,0,0:0:0:0:
329,192,110581,1,0,0:0:0:0:
256,192,110668,1,0,0:0:0:0:
109,192,110668,128,0,111366:0:0:0:0:
329,192,111017,1,0,0:0:0:0:
182,192,111017,1,0,0:0:0:0:
475,192,111017,1,0,0:0:0:0:
402,192,111366,1,0,0:0:0:0:
256,192,111366,1,0,0:0:0:0:
36,192,111366,1,0,0:0:0:0:
182,192,111366,128,0,112063:0:0:0:0:
329,192,111715,1,0,0:0:0:0:
256,192,112063,1,0,0:0:0:0:
475,192,112063,128,0,112412:0:0:0:0:
329,192,112063,128,0,112412:0:0:0:0:
36,192,112412,1,0,0:0:0:0:
402,192,112412,128,0,112761:0:0:0:0:
256,192,112412,128,0,112761:0:0:0:0:
109,192,112761,1,0,0:0:0:0:
182,192,112761,128,0,113110:0:0:0:0:
329,192,112761,128,0,113110:0:0:0:0:
36,192,113110,1,0,0:0:0:0:
256,192,113110,128,0,113459:0:0:0:0:
402,192,113110,128,0,113459:0:0:0:0:
475,192,113459,128,0,114156:0:0:0:0:
109,192,113459,1,0,0:0:0:0:
182,192,113459,1,0,0:0:0:0:
329,192,113808,1,0,0:0:0:0:
109,192,113808,1,0,0:0:0:0:
36,192,113808,1,0,0:0:0:0:
182,192,114156,1,0,0:0:0:0:
256,192,114156,1,0,0:0:0:0:
402,192,114156,1,0,0:0:0:0:
36,192,114156,128,0,114854:0:0:0:0:
329,192,114505,1,0,0:0:0:0:
109,192,114680,1,0,0:0:0:0:
182,192,114767,1,0,0:0:0:0:
256,192,114854,1,0,0:0:0:0:
475,192,114854,128,0,115552:0:0:0:0:
402,192,115203,1,0,0:0:0:0:
256,192,115552,1,0,0:0:0:0:
109,192,115552,1,0,0:0:0:0:
329,192,115552,128,0,116249:0:0:0:0:
182,192,115901,1,0,0:0:0:0:
475,192,116075,1,0,0:0:0:0:
402,192,116162,1,0,0:0:0:0:
256,192,116249,1,0,0:0:0:0:
36,192,116249,128,0,116947:0:0:0:0:
402,192,116598,1,0,0:0:0:0:
475,192,116598,1,0,0:0:0:0:
109,192,116598,128,0,117296:0:0:0:0:
329,192,116947,1,0,0:0:0:0:
256,192,116947,1,0,0:0:0:0:
182,192,116947,128,0,117645:0:0:0:0:
475,192,117296,1,0,0:0:0:0:
36,192,117296,128,0,118342:0:0:0:0:
402,192,117383,1,0,0:0:0:0:
329,192,117470,1,0,0:0:0:0:
256,192,117558,1,0,0:0:0:0:
475,192,117645,128,0,119040:0:0:0:0:
182,192,117994,1,0,0:0:0:0:
329,192,117994,1,0,0:0:0:0:
329,192,118342,1,0,0:0:0:0:
109,192,118342,128,0,119738:0:0:0:0:
402,192,118691,1,0,0:0:0:0:
182,192,118691,1,0,0:0:0:0:
256,192,118866,1,0,0:0:0:0:
182,192,118953,1,0,0:0:0:0:
329,192,119040,128,0,119738:0:0:0:0:
402,192,119389,1,0,0:0:0:0:
182,192,119389,1,0,0:0:0:0:
36,192,119389,1,0,0:0:0:0:
256,192,119738,1,0,0:0:0:0:
475,192,119738,1,0,0:0:0:0:
36,192,119738,128,0,120435:0:0:0:0:
182,192,120087,1,0,0:0:0:0:
475,192,120261,1,0,0:0:0:0:
402,192,120348,1,0,0:0:0:0:
256,192,120435,1,0,0:0:0:0:
329,192,120435,128,0,121133:0:0:0:0:
109,192,120435,128,0,121133:0:0:0:0:
182,192,120784,1,0,0:0:0:0:
402,192,120784,1,0,0:0:0:0:
475,192,121133,1,0,0:0:0:0:
256,192,121133,128,0,121831:0:0:0:0:
36,192,121133,128,0,121831:0:0:0:0:
402,192,121482,1,0,0:0:0:0:
109,192,121656,1,0,0:0:0:0:
182,192,121744,1,0,0:0:0:0:
329,192,121831,128,0,122529:0:0:0:0:
475,192,121831,128,0,122529:0:0:0:0:
109,192,122180,1,0,0:0:0:0:
36,192,122180,1,0,0:0:0:0:
256,192,122180,1,0,0:0:0:0:
402,192,122529,1,0,0:0:0:0:
109,192,122529,1,0,0:0:0:0:
182,192,122529,128,0,123226:0:0:0:0:
329,192,122877,128,0,123226:0:0:0:0:
475,192,123226,1,0,0:0:0:0:
402,192,123226,1,0,0:0:0:0:
36,192,123226,128,0,123575:0:0:0:0:
256,192,123226,128,0,123575:0:0:0:0:
109,192,123575,128,0,123924:0:0:0:0:
329,192,123575,128,0,124622:0:0:0:0:
182,192,123924,1,0,0:0:0:0:
256,192,123924,1,0,0:0:0:0:
402,192,123924,128,0,124622:0:0:0:0:
475,192,124273,128,0,124622:0:0:0:0:
256,192,124360,1,0,0:0:0:0:
182,192,124447,1,0,0:0:0:0:
109,192,124534,1,0,0:0:0:0:
256,192,124622,1,0,0:0:0:0:
36,192,124622,128,0,125319:0:0:0:0:
182,192,124970,1,0,0:0:0:0:
109,192,124970,1,0,0:0:0:0:
329,192,124970,1,0,0:0:0:0:
256,192,125319,1,0,0:0:0:0:
402,192,125319,128,0,126017:0:0:0:0:
109,192,125668,1,0,0:0:0:0:
329,192,125668,1,0,0:0:0:0:
475,192,126017,1,0,0:0:0:0:
36,192,126017,1,0,0:0:0:0:
182,192,126017,1,0,0:0:0:0:
256,192,126017,1,0,0:0:0:0:
329,192,126715,128,0,127064:0:0:0:0:
36,192,126715,1,0,0:0:0:0:
475,192,126715,1,0,0:0:0:0:
402,192,126715,1,0,0:0:0:0:
256,192,127063,128,0,127412:0:0:0:0:
475,192,127063,1,0,0:0:0:0:
109,192,127412,128,0,127760:0:0:0:0:
402,192,127412,1,0,0:0:0:0:
329,192,127412,1,0,0:0:0:0:
36,192,127761,128,0,128110:0:0:0:0:
256,192,127761,1,0,0:0:0:0:
182,192,127761,1,0,0:0:0:0:
329,192,128110,128,0,128459:0:0:0:0:
475,192,128110,1,0,0:0:0:0:
402,192,128110,1,0,0:0:0:0:
109,192,128110,1,0,0:0:0:0:
475,192,128459,128,0,129853:0:0:0:0:
36,192,128459,128,0,129853:0:0:0:0:
109,192,128808,1,0,0:0:0:0:
402,192,128808,1,0,0:0:0:0:
182,192,128808,1,0,0:0:0:0:
329,192,129156,1,0,0:0:0:0:
256,192,129505,1,0,0:0:0:0:
182,192,129505,1,0,0:0:0:0:
402,192,129505,1,0,0:0:0:0:
109,192,129854,1,0,0:0:0:0:
182,192,129941,1,0,0:0:0:0:
475,192,130203,1,0,0:0:0:0:
329,192,130203,1,0,0:0:0:0:
109,192,130203,1,0,0:0:0:0:
402,192,130552,1,0,0:0:0:0:
182,192,130552,1,0,0:0:0:0:
36,192,130552,1,0,0:0:0:0:
256,192,130901,1,0,0:0:0:0:
109,192,130901,1,0,0:0:0:0:
475,192,130901,1,0,0:0:0:0:
329,192,130901,1,0,0:0:0:0:
329,192,131249,1,0,0:0:0:0:
402,192,131424,1,0,0:0:0:0:
256,192,131598,1,0,0:0:0:0:
329,192,131598,1,0,0:0:0:0:
109,192,131598,1,0,0:0:0:0:
475,192,131598,128,0,134389:0:0:0:0:
182,192,131947,1,0,0:0:0:0:
402,192,132296,1,0,0:0:0:0:
109,192,132296,1,0,0:0:0:0:
36,192,132296,1,0,0:0:0:0:
256,192,132296,1,0,0:0:0:0:
329,192,132645,1,0,0:0:0:0:
182,192,132645,1,0,0:0:0:0:
36,192,132819,1,0,0:0:0:0:
109,192,132906,1,0,0:0:0:0:
402,192,132994,1,0,0:0:0:0:
256,192,132994,1,0,0:0:0:0:
182,192,132994,1,0,0:0:0:0:
109,192,133342,1,0,0:0:0:0:
329,192,133342,1,0,0:0:0:0:
182,192,133691,1,0,0:0:0:0:
256,192,133691,1,0,0:0:0:0:
402,192,133691,1,0,0:0:0:0:
109,192,134040,1,0,0:0:0:0:
329,192,134040,1,0,0:0:0:0:
256,192,134389,1,0,0:0:0:0:
182,192,134389,1,0,0:0:0:0:
36,192,134389,128,0,135784:0:0:0:0:
329,192,134738,1,0,0:0:0:0:
402,192,134738,1,0,0:0:0:0:
475,192,135087,1,0,0:0:0:0:
402,192,135087,1,0,0:0:0:0:
109,192,135087,128,0,135784:0:0:0:0:
182,192,135435,1,0,0:0:0:0:
256,192,135523,1,0,0:0:0:0:
329,192,135610,1,0,0:0:0:0:
402,192,135697,1,0,0:0:0:0:
475,192,135784,1,0,0:0:0:0:
182,192,135784,128,0,136482:0:0:0:0:
329,192,136133,1,0,0:0:0:0:
475,192,136482,1,0,0:0:0:0:
36,192,136482,1,0,0:0:0:0:
256,192,136482,1,0,0:0:0:0:
402,192,136482,128,0,137180:0:0:0:0:
329,192,136831,1,0,0:0:0:0:
109,192,136831,1,0,0:0:0:0:
182,192,137180,1,0,0:0:0:0:
256,192,137180,1,0,0:0:0:0:
475,192,137180,1,0,0:0:0:0:
36,192,137180,128,0,137877:0:0:0:0:
475,192,137877,1,0,0:0:0:0:
109,192,137877,1,0,0:0:0:0:
182,192,137877,128,0,138575:0:0:0:0:
329,192,138226,1,0,0:0:0:0:
256,192,138226,128,0,138924:0:0:0:0:
36,192,138401,1,0,0:0:0:0:
109,192,138488,1,0,0:0:0:0:
402,192,138575,1,0,0:0:0:0:
329,192,138575,128,0,139273:0:0:0:0:
475,192,138924,1,0,0:0:0:0:
182,192,138924,1,0,0:0:0:0:
402,192,139273,1,0,0:0:0:0:
256,192,139273,1,0,0:0:0:0:
109,192,139273,1,0,0:0:0:0:
36,192,139273,1,0,0:0:0:0:
329,192,139622,1,0,0:0:0:0:
256,192,139970,1,0,0:0:0:0:
109,192,139970,1,0,0:0:0:0:
402,192,139970,1,0,0:0:0:0:
475,192,139970,128,0,140668:0:0:0:0:
182,192,140319,1,0,0:0:0:0:
329,192,140668,1,0,0:0:0:0:
402,192,140668,1,0,0:0:0:0:
109,192,140668,1,0,0:0:0:0:
36,192,140668,128,0,141366:0:0:0:0:
402,192,141017,1,0,0:0:0:0:
182,192,141191,1,0,0:0:0:0:
256,192,141279,1,0,0:0:0:0:
329,192,141366,1,0,0:0:0:0:
109,192,141366,1,0,0:0:0:0:
402,192,141366,128,0,142063:0:0:0:0:
256,192,141715,1,0,0:0:0:0:
329,192,142063,1,0,0:0:0:0:
182,192,142063,1,0,0:0:0:0:
36,192,142063,1,0,0:0:0:0:
475,192,142063,1,0,0:0:0:0:
109,192,142063,128,0,142761:0:0:0:0:
402,192,142412,1,0,0:0:0:0:
256,192,142412,1,0,0:0:0:0:
329,192,142761,1,0,0:0:0:0:
182,192,142761,1,0,0:0:0:0:
475,192,142761,128,0,144156:0:0:0:0:
402,192,143110,1,0,0:0:0:0:
256,192,143459,1,0,0:0:0:0:
36,192,143459,1,0,0:0:0:0:
182,192,143459,1,0,0:0:0:0:
329,192,143459,1,0,0:0:0:0:
402,192,143808,1,0,0:0:0:0:
109,192,143808,1,0,0:0:0:0:
182,192,143982,1,0,0:0:0:0:
256,192,144069,1,0,0:0:0:0:
329,192,144156,1,0,0:0:0:0:
36,192,144156,128,0,145552:0:0:0:0:
182,192,144505,1,0,0:0:0:0:
475,192,144854,1,0,0:0:0:0:
402,192,144854,1,0,0:0:0:0:
256,192,144854,1,0,0:0:0:0:
109,192,144854,128,0,145552:0:0:0:0:
329,192,145203,1,0,0:0:0:0:
256,192,145552,1,0,0:0:0:0:
475,192,145552,1,0,0:0:0:0:
182,192,145552,128,0,146947:0:0:0:0:
329,192,145901,1,0,0:0:0:0:
109,192,145901,1,0,0:0:0:0:
402,192,146249,1,0,0:0:0:0:
475,192,146249,1,0,0:0:0:0:
36,192,146249,1,0,0:0:0:0:
329,192,146598,1,0,0:0:0:0:
109,192,146598,1,0,0:0:0:0:
475,192,146773,1,0,0:0:0:0:
402,192,146860,1,0,0:0:0:0:
329,192,146947,1,0,0:0:0:0:
36,192,146947,128,0,148342:0:0:0:0:
256,192,147296,1,0,0:0:0:0:
402,192,147296,1,0,0:0:0:0:
329,192,147645,1,0,0:0:0:0:
182,192,147645,128,0,148342:0:0:0:0:
256,192,147994,1,0,0:0:0:0:
109,192,147994,1,0,0:0:0:0:
329,192,148342,1,0,0:0:0:0:
402,192,148342,1,0,0:0:0:0:
475,192,148342,128,0,149738:0:0:0:0:
256,192,148691,1,0,0:0:0:0:
36,192,148691,1,0,0:0:0:0:
329,192,149040,1,0,0:0:0:0:
402,192,149040,1,0,0:0:0:0:
109,192,149040,1,0,0:0:0:0:
256,192,149389,1,0,0:0:0:0:
182,192,149563,1,0,0:0:0:0:
109,192,149738,1,0,0:0:0:0:
329,192,149738,1,0,0:0:0:0:
36,192,149738,128,0,150435:0:0:0:0:
182,192,150087,1,0,0:0:0:0:
402,192,150087,1,0,0:0:0:0:
109,192,150436,1,0,0:0:0:0:
256,192,150436,1,0,0:0:0:0:
329,192,150436,1,0,0:0:0:0:
402,192,150784,1,0,0:0:0:0:
182,192,150784,1,0,0:0:0:0:
475,192,150784,1,0,0:0:0:0:
329,192,150959,1,0,0:0:0:0:
256,192,151046,1,0,0:0:0:0:
182,192,151133,1,0,0:0:0:0:
109,192,151133,1,0,0:0:0:0:
402,192,151133,1,0,0:0:0:0:
36,192,151133,1,0,0:0:0:0:
256,192,151831,1,0,0:0:0:0:
109,192,151831,128,0,152180:0:0:0:0:
329,192,151831,1,0,0:0:0:0:
475,192,152180,1,0,0:0:0:0:
182,192,152529,128,0,152878:0:0:0:0:
402,192,152529,1,0,0:0:0:0:
256,192,152529,1,0,0:0:0:0:
475,192,152877,1,0,0:0:0:0:
109,192,152877,128,0,153226:0:0:0:0:
329,192,152877,1,0,0:0:0:0:
256,192,153226,1,0,0:0:0:0:
329,192,153226,1,0,0:0:0:0:
36,192,153575,128,0,153923:0:0:0:0:
402,192,153575,1,0,0:0:0:0:
256,192,153924,1,0,0:0:0:0:
329,192,153924,1,0,0:0:0:0:
475,192,153924,1,0,0:0:0:0:
402,192,154273,1,0,0:0:0:0:
256,192,154622,1,0,0:0:0:0:
329,192,154622,1,0,0:0:0:0:
36,192,154622,128,0,154971:0:0:0:0:
475,192,154970,1,0,0:0:0:0:
109,192,155319,128,0,155668:0:0:0:0:
256,192,155319,1,0,0:0:0:0:
402,192,155319,1,0,0:0:0:0:
329,192,155668,1,0,0:0:0:0:
475,192,155668,1,0,0:0:0:0:
182,192,155668,128,0,156017:0:0:0:0:
329,192,156017,1,0,0:0:0:0:
256,192,156017,1,0,0:0:0:0:
182,192,156366,128,0,156715:0:0:0:0:
402,192,156366,1,0,0:0:0:0:
109,192,156715,1,0,0:0:0:0:
475,192,156715,1,0,0:0:0:0:
36,192,156715,1,0,0:0:0:0:
329,192,157063,1,0,0:0:0:0:
36,192,157412,128,0,157761:0:0:0:0:
402,192,157412,1,0,0:0:0:0:
475,192,157412,1,0,0:0:0:0:
329,192,157761,1,0,0:0:0:0:
109,192,158110,128,0,158459:0:0:0:0:
256,192,158110,1,0,0:0:0:0:
402,192,158110,1,0,0:0:0:0:
182,192,158459,128,0,158808:0:0:0:0:
329,192,158459,1,0,0:0:0:0:
475,192,158459,1,0,0:0:0:0:
329,192,158808,1,0,0:0:0:0:
256,192,158808,1,0,0:0:0:0:
182,192,159156,128,0,159505:0:0:0:0:
402,192,159156,1,0,0:0:0:0:
475,192,159505,1,0,0:0:0:0:
36,192,159505,1,0,0:0:0:0:
109,192,159505,1,0,0:0:0:0:
329,192,159854,1,0,0:0:0:0:
182,192,160203,128,0,160552:0:0:0:0:
402,192,160203,1,0,0:0:0:0:
475,192,160203,1,0,0:0:0:0:
329,192,160552,1,0,0:0:0:0:
109,192,160901,128,0,161249:0:0:0:0:
256,192,160901,1,0,0:0:0:0:
402,192,160901,1,0,0:0:0:0:
182,192,161249,128,0,161598:0:0:0:0:
475,192,161249,1,0,0:0:0:0:
329,192,161249,1,0,0:0:0:0:
329,192,161598,1,0,0:0:0:0:
402,192,161598,1,0,0:0:0:0:
36,192,161947,128,0,162295:0:0:0:0:
402,192,162296,1,0,0:0:0:0:
475,192,162296,128,0,162994:0:0:0:0:
182,192,162296,1,0,0:0:0:0:
109,192,162645,128,0,162994:0:0:0:0:
256,192,162645,1,0,0:0:0:0:
329,192,162819,1,0,0:0:0:0:
402,192,162994,128,0,163691:0:0:0:0:
329,192,163342,128,0,163691:0:0:0:0:
256,192,163342,1,0,0:0:0:0:
182,192,163517,1,0,0:0:0:0:
109,192,163691,128,0,164389:0:0:0:0:
36,192,163691,1,0,0:0:0:0:
256,192,163866,1,0,0:0:0:0:
182,192,164040,128,0,164389:0:0:0:0:
329,192,164040,1,0,0:0:0:0:
402,192,164389,128,0,165087:0:0:0:0:
475,192,164389,1,0,0:0:0:0:
182,192,164738,128,0,165087:0:0:0:0:
475,192,164738,1,0,0:0:0:0:
329,192,164912,1,0,0:0:0:0:
256,192,165087,128,0,165784:0:0:0:0:
475,192,165087,1,0,0:0:0:0:
109,192,165435,128,0,165784:0:0:0:0:
329,192,165435,1,0,0:0:0:0:
182,192,165784,128,0,166482:0:0:0:0:
402,192,165784,1,0,0:0:0:0:
109,192,166133,128,0,166482:0:0:0:0:
256,192,166133,1,0,0:0:0:0:
36,192,166482,128,0,167180:0:0:0:0:
182,192,166831,128,0,167180:0:0:0:0:
329,192,166831,1,0,0:0:0:0:
109,192,167180,1,0,0:0:0:0:
402,192,167180,128,0,167877:0:0:0:0:
256,192,167180,1,0,0:0:0:0:
329,192,167529,128,0,167877:0:0:0:0:
182,192,167529,1,0,0:0:0:0:
109,192,167877,128,0,168575:0:0:0:0:
182,192,168226,128,0,168575:0:0:0:0:
256,192,168226,1,0,0:0:0:0:
329,192,168401,1,0,0:0:0:0:
402,192,168575,128,0,169273:0:0:0:0:
256,192,168924,128,0,169273:0:0:0:0:
36,192,168924,1,0,0:0:0:0:
329,192,169098,1,0,0:0:0:0:
109,192,169098,1,0,0:0:0:0:
182,192,169273,128,0,169970:0:0:0:0:
475,192,169447,1,0,0:0:0:0:
329,192,169622,128,0,169970:0:0:0:0:
402,192,169622,1,0,0:0:0:0:
109,192,169970,1,0,0:0:0:0:
402,192,169970,128,0,170668:0:0:0:0:
329,192,170319,128,0,170668:0:0:0:0:
36,192,170319,1,0,0:0:0:0:
109,192,170494,1,0,0:0:0:0:
182,192,170668,128,0,171366:0:0:0:0:
256,192,171017,128,0,171366:0:0:0:0:
402,192,171017,1,0,0:0:0:0:
329,192,171366,128,0,172063:0:0:0:0:
256,192,171715,128,0,172063:0:0:0:0:
36,192,171715,1,0,0:0:0:0:
109,192,172063,128,0,172761:0:0:0:0:
182,192,172412,128,0,173110:0:0:0:0:
402,192,172412,1,0,0:0:0:0:
329,192,172761,128,0,173459:0:0:0:0:
256,192,172761,1,0,0:0:0:0:
109,192,173110,1,0,0:0:0:0:
36,192,173459,128,0,174156:0:0:0:0:
182,192,173808,128,0,174156:0:0:0:0:
256,192,173808,1,0,0:0:0:0:
329,192,173982,1,0,0:0:0:0:
402,192,174156,128,0,174854:0:0:0:0:
329,192,174505,128,0,174854:0:0:0:0:
256,192,174505,1,0,0:0:0:0:
182,192,174680,1,0,0:0:0:0:
109,192,174767,1,0,0:0:0:0:
36,192,174854,128,0,175552:0:0:0:0:
182,192,175029,1,0,0:0:0:0:
109,192,175203,128,0,175552:0:0:0:0:
256,192,175203,1,0,0:0:0:0:
182,192,175552,1,0,0:0:0:0:
329,192,175552,128,0,176249:0:0:0:0:
256,192,175901,128,0,176249:0:0:0:0:
36,192,175901,1,0,0:0:0:0:
182,192,175988,1,0,0:0:0:0:
109,192,176075,1,0,0:0:0:0:
402,192,176249,128,0,176947:0:0:0:0:
182,192,176249,1,0,0:0:0:0:
182,192,176598,128,0,176947:0:0:0:0:
36,192,176598,1,0,0:0:0:0:
256,192,176947,128,0,177645:0:0:0:0:
109,192,176947,1,0,0:0:0:0:
36,192,177122,1,0,0:0:0:0:
182,192,177296,128,0,177645:0:0:0:0:
36,192,177645,128,0,178342:0:0:0:0:
109,192,177994,128,0,178342:0:0:0:0:
475,192,177994,1,0,0:0:0:0:
329,192,178342,1,0,0:0:0:0:
182,192,178342,128,0,179040:0:0:0:0:
475,192,178517,1,0,0:0:0:0:
402,192,178691,128,0,179040:0:0:0:0:
329,192,178779,1,0,0:0:0:0:
256,192,178866,1,0,0:0:0:0:
109,192,179040,128,0,179738:0:0:0:0:
182,192,179389,128,0,179738:0:0:0:0:
329,192,179389,1,0,0:0:0:0:
402,192,179563,1,0,0:0:0:0:
475,192,179738,128,0,180435:0:0:0:0:
329,192,180087,128,0,180435:0:0:0:0:
36,192,180087,1,0,0:0:0:0:
109,192,180261,1,0,0:0:0:0:
182,192,180435,128,0,181133:0:0:0:0:
256,192,180784,128,0,181133:0:0:0:0:
475,192,180784,1,0,0:0:0:0:
109,192,181133,128,0,181831:0:0:0:0:
402,192,181133,1,0,0:0:0:0:
329,192,181308,1,0,0:0:0:0:
182,192,181482,128,0,181831:0:0:0:0:
256,192,181482,1,0,0:0:0:0:
36,192,181831,1,0,0:0:0:0:
475,192,181831,128,0,183226:0:0:0:0:
109,192,182180,1,0,0:0:0:0:
402,192,182180,1,0,0:0:0:0:
182,192,182267,1,0,0:0:0:0:
256,192,182441,1,0,0:0:0:0:
329,192,182529,1,0,0:0:0:0:
402,192,182529,128,0,183575:0:0:0:0:
256,192,182877,1,0,0:0:0:0:
329,192,182877,128,0,183924:0:0:0:0:
182,192,183226,1,0,0:0:0:0:
256,192,183226,128,0,183924:0:0:0:0:
109,192,183575,1,0,0:0:0:0:
36,192,183924,1,0,0:0:0:0:
475,192,183924,1,0,0:0:0:0:
402,192,184273,1,0,0:0:0:0:
329,192,184622,1,0,0:0:0:0:
182,192,184622,1,0,0:0:0:0:
109,192,184622,1,0,0:0:0:0:
475,192,184622,128,0,185319:0:0:0:0:
182,192,184970,1,0,0:0:0:0:
402,192,184970,128,0,185319:0:0:0:0:
256,192,185319,1,0,0:0:0:0:
109,192,185319,1,0,0:0:0:0:
36,192,185319,128,0,186017:0:0:0:0:
182,192,185668,1,0,0:0:0:0:
402,192,185668,128,0,186017:0:0:0:0:
256,192,185842,1,0,0:0:0:0:
182,192,185930,1,0,0:0:0:0:
109,192,186017,1,0,0:0:0:0:
475,192,186017,1,0,0:0:0:0:
402,192,186366,1,0,0:0:0:0:
329,192,186366,1,0,0:0:0:0:
36,192,186366,1,0,0:0:0:0:
109,192,186715,1,0,0:0:0:0:
182,192,187063,1,0,0:0:0:0:
256,192,187412,1,0,0:0:0:0:
329,192,187412,1,0,0:0:0:0:
475,192,187412,1,0,0:0:0:0:
36,192,187412,1,0,0:0:0:0:
475,192,187761,1,0,0:0:0:0:
182,192,187761,1,0,0:0:0:0:
402,192,187848,1,0,0:0:0:0:
329,192,187935,1,0,0:0:0:0:
109,192,187935,1,0,0:0:0:0:
256,192,188023,1,0,0:0:0:0:
182,192,188110,1,0,0:0:0:0:
475,192,188110,1,0,0:0:0:0:
36,192,188110,1,0,0:0:0:0:
182,192,188459,1,0,0:0:0:0:
256,192,188575,1,0,0:0:0:0:
329,192,188720,1,0,0:0:0:0:
402,192,188764,1,0,0:0:0:0:
475,192,188808,1,0,0:0:0:0:
402,192,189156,1,0,0:0:0:0:
256,192,189156,1,0,0:0:0:0:
182,192,189505,1,0,0:0:0:0:
109,192,189505,1,0,0:0:0:0:
329,192,189854,1,0,0:0:0:0:
182,192,189854,1,0,0:0:0:0:
36,192,190203,1,0,0:0:0:0:
475,192,190203,1,0,0:0:0:0:
109,192,190203,128,0,190552:0:0:0:0:
402,192,190203,128,0,190901:0:0:0:0:
256,192,190552,128,0,190901:0:0:0:0:
109,192,190900,1,0,0:0:0:0:
109,192,190901,128,0,191598:0:0:0:0:
256,192,191249,128,0,191598:0:0:0:0:
402,192,191249,128,0,191947:0:0:0:0:
182,192,191598,1,0,0:0:0:0:
475,192,191598,1,0,0:0:0:0:
329,192,191947,1,0,0:0:0:0:
36,192,191947,1,0,0:0:0:0:
109,192,191947,128,0,192645:0:0:0:0:
256,192,192296,128,0,192645:0:0:0:0:
475,192,192645,128,0,193691:0:0:0:0:
329,192,192645,128,0,193691:0:0:0:0:
36,192,192993,1,0,0:0:0:0:
256,192,192993,1,0,0:0:0:0:
182,192,193342,1,0,0:0:0:0:
256,192,193691,1,0,0:0:0:0:
109,192,193691,128,0,194389:0:0:0:0:
402,192,193691,128,0,194389:0:0:0:0:
182,192,194040,1,0,0:0:0:0:
475,192,194389,1,0,0:0:0:0:
329,192,194389,128,0,195087:0:0:0:0:
182,192,194389,128,0,195087:0:0:0:0:
36,192,194738,1,0,0:0:0:0:
402,192,194738,1,0,0:0:0:0:
109,192,195087,1,0,0:0:0:0:
256,192,195087,128,0,195784:0:0:0:0:
475,192,195087,128,0,195784:0:0:0:0:
402,192,195436,1,0,0:0:0:0:
36,192,195784,1,0,0:0:0:0:
109,192,195784,1,0,0:0:0:0:
329,192,195784,1,0,0:0:0:0:
182,192,195784,128,0,196831:0:0:0:0:
402,192,196133,1,0,0:0:0:0:
329,192,196482,1,0,0:0:0:0:
475,192,196831,1,0,0:0:0:0:
402,192,197005,1,0,0:0:0:0:
109,192,197005,1,0,0:0:0:0:
329,192,197180,1,0,0:0:0:0:
256,192,197180,1,0,0:0:0:0:
36,192,197180,1,0,0:0:0:0:
475,192,197180,128,0,198226:0:0:0:0:
36,192,197529,1,0,0:0:0:0:
182,192,197529,1,0,0:0:0:0:
402,192,197877,1,0,0:0:0:0:
329,192,197877,1,0,0:0:0:0:
329,192,198226,1,0,0:0:0:0:
256,192,198401,1,0,0:0:0:0:
402,192,198401,1,0,0:0:0:0:
109,192,198575,1,0,0:0:0:0:
329,192,198575,1,0,0:0:0:0:
182,192,198575,128,0,199622:0:0:0:0:
329,192,199273,1,0,0:0:0:0:
475,192,199622,1,0,0:0:0:0:
402,192,199796,1,0,0:0:0:0:
109,192,199796,1,0,0:0:0:0:
329,192,199970,1,0,0:0:0:0:
256,192,199970,1,0,0:0:0:0:
36,192,199970,128,0,201366:0:0:0:0:
182,192,200319,1,0,0:0:0:0:
329,192,200319,1,0,0:0:0:0:
109,192,200319,128,0,201366:0:0:0:0:
402,192,200668,1,0,0:0:0:0:
475,192,200668,1,0,0:0:0:0:
182,192,200668,128,0,201366:0:0:0:0:
256,192,201017,128,0,201366:0:0:0:0:
329,192,201366,1,0,0:0:0:0:
475,192,201366,128,0,202761:0:0:0:0:
402,192,201715,1,0,0:0:0:0:
256,192,201715,1,0,0:0:0:0:
329,192,202063,1,0,0:0:0:0:
109,192,202063,1,0,0:0:0:0:
402,192,202412,1,0,0:0:0:0:
182,192,202412,1,0,0:0:0:0:
36,192,202412,1,0,0:0:0:0:
109,192,202761,1,0,0:0:0:0:
256,192,202761,1,0,0:0:0:0:
329,192,202761,128,0,203459:0:0:0:0:
182,192,203110,1,0,0:0:0:0:
402,192,203110,1,0,0:0:0:0:
475,192,203110,1,0,0:0:0:0:
36,192,203459,1,0,0:0:0:0:
256,192,203459,128,0,204156:0:0:0:0:
109,192,203808,1,0,0:0:0:0:
402,192,203808,1,0,0:0:0:0:
182,192,204156,1,0,0:0:0:0:
475,192,204156,1,0,0:0:0:0:
329,192,204156,128,0,205203:0:0:0:0:
402,192,204505,1,0,0:0:0:0:
36,192,204505,1,0,0:0:0:0:
109,192,204505,1,0,0:0:0:0:
256,192,204505,128,0,205203:0:0:0:0:
475,192,204854,1,0,0:0:0:0:
182,192,204854,128,0,205203:0:0:0:0:
109,192,204854,1,0,0:0:0:0:
402,192,205203,1,0,0:0:0:0:
475,192,205552,1,0,0:0:0:0:
402,192,205552,1,0,0:0:0:0:
329,192,205552,1,0,0:0:0:0:
36,192,205552,128,0,206249:0:0:0:0:
402,192,205901,1,0,0:0:0:0:
329,192,205901,1,0,0:0:0:0:
182,192,205901,1,0,0:0:0:0:
256,192,206249,1,0,0:0:0:0:
109,192,206424,1,0,0:0:0:0:
329,192,206424,1,0,0:0:0:0:
182,192,206598,1,0,0:0:0:0:
402,192,206598,1,0,0:0:0:0:
109,192,206773,1,0,0:0:0:0:
329,192,206773,1,0,0:0:0:0:
256,192,206947,1,0,0:0:0:0:
36,192,206947,1,0,0:0:0:0:
475,192,206947,128,0,209738:0:0:0:0:
402,192,207296,1,0,0:0:0:0:
329,192,207645,1,0,0:0:0:0:
182,192,207645,1,0,0:0:0:0:
256,192,207645,1,0,0:0:0:0:
109,192,207994,1,0,0:0:0:0:
256,192,208342,1,0,0:0:0:0:
402,192,208342,1,0,0:0:0:0:
329,192,208691,1,0,0:0:0:0:
182,192,209040,1,0,0:0:0:0:
109,192,209040,1,0,0:0:0:0:
402,192,209040,1,0,0:0:0:0:
256,192,209389,1,0,0:0:0:0:
182,192,209563,1,0,0:0:0:0:
109,192,209738,1,0,0:0:0:0:
329,192,209738,1,0,0:0:0:0:
402,192,209738,128,0,210435:0:0:0:0:
182,192,210087,1,0,0:0:0:0:
475,192,210435,128,0,211482:0:0:0:0:
182,192,210435,1,0,0:0:0:0:
256,192,210436,1,0,0:0:0:0:
36,192,210436,1,0,0:0:0:0:
109,192,210784,1,0,0:0:0:0:
329,192,210784,128,0,211482:0:0:0:0:
182,192,210959,1,0,0:0:0:0:
256,192,211133,1,0,0:0:0:0:
402,192,211133,1,0,0:0:0:0:
36,192,211482,1,0,0:0:0:0:
182,192,211482,1,0,0:0:0:0:
109,192,211482,128,0,212180:0:0:0:0:
402,192,211831,1,0,0:0:0:0:
475,192,211831,1,0,0:0:0:0:
182,192,211831,128,0,212529:0:0:0:0:
329,192,212180,1,0,0:0:0:0:
36,192,212180,1,0,0:0:0:0:
402,192,212180,128,0,212877:0:0:0:0:
256,192,212354,1,0,0:0:0:0:
109,192,212529,1,0,0:0:0:0:
329,192,212529,1,0,0:0:0:0:
475,192,212529,128,0,213226:0:0:0:0:
256,192,212877,1,0,0:0:0:0:
182,192,213226,1,0,0:0:0:0:
256,192,213226,128,0,213575:0:0:0:0:
402,192,213226,128,0,213924:0:0:0:0:
36,192,213575,1,0,0:0:0:0:
329,192,213575,128,0,213924:0:0:0:0:
475,192,213575,128,0,214273:0:0:0:0:
109,192,213749,1,0,0:0:0:0:
182,192,213837,1,0,0:0:0:0:
256,192,213924,128,0,214622:0:0:0:0:
182,192,214273,1,0,0:0:0:0:
329,192,214273,128,0,214622:0:0:0:0:
182,192,214622,1,0,0:0:0:0:
36,192,214622,1,0,0:0:0:0:
402,192,214622,128,0,215319:0:0:0:0:
256,192,214970,1,0,0:0:0:0:
36,192,214970,128,0,215319:0:0:0:0:
182,192,215145,1,0,0:0:0:0:
109,192,215319,1,0,0:0:0:0:
256,192,215319,1,0,0:0:0:0:
475,192,215319,128,0,216017:0:0:0:0:
329,192,215668,128,0,216017:0:0:0:0:
256,192,216017,1,0,0:0:0:0:
182,192,216017,1,0,0:0:0:0:
36,192,216017,128,0,216715:0:0:0:0:
109,192,216366,1,0,0:0:0:0:
182,192,216540,1,0,0:0:0:0:
256,192,216715,1,0,0:0:0:0:
402,192,216715,1,0,0:0:0:0:
475,192,216715,1,0,0:0:0:0:
109,192,216715,128,0,217412:0:0:0:0:
329,192,217063,1,0,0:0:0:0:
182,192,217063,1,0,0:0:0:0:
36,192,217412,1,0,0:0:0:0:
256,192,217412,1,0,0:0:0:0:
475,192,217412,1,0,0:0:0:0:
182,192,217412,128,0,218110:0:0:0:0:
329,192,217761,1,0,0:0:0:0:
402,192,218110,1,0,0:0:0:0:
109,192,218110,1,0,0:0:0:0:
36,192,218110,1,0,0:0:0:0:
475,192,218110,128,0,220203:0:0:0:0:
329,192,218459,1,0,0:0:0:0:
256,192,218808,1,0,0:0:0:0:
182,192,218808,1,0,0:0:0:0:
402,192,218808,1,0,0:0:0:0:
109,192,219156,1,0,0:0:0:0:
182,192,219331,1,0,0:0:0:0:
256,192,219505,1,0,0:0:0:0:
402,192,219505,1,0,0:0:0:0:
329,192,219854,1,0,0:0:0:0:
182,192,219854,1,0,0:0:0:0:
256,192,220203,1,0,0:0:0:0:
109,192,220203,1,0,0:0:0:0:
36,192,220203,1,0,0:0:0:0:
182,192,220377,1,0,0:0:0:0:
402,192,220377,1,0,0:0:0:0:
109,192,220552,1,0,0:0:0:0:
329,192,220552,1,0,0:0:0:0:
182,192,220726,1,0,0:0:0:0:
36,192,220726,1,0,0:0:0:0:
256,192,220813,1,0,0:0:0:0:
329,192,220901,1,0,0:0:0:0:
402,192,220901,1,0,0:0:0:0:
475,192,220901,1,0,0:0:0:0:
109,192,220901,128,0,222296:0:0:0:0:
182,192,221249,1,0,0:0:0:0:
329,192,221249,1,0,0:0:0:0:
256,192,221598,1,0,0:0:0:0:
329,192,221598,1,0,0:0:0:0:
475,192,221598,128,0,222994:0:0:0:0:
402,192,221946,1,0,0:0:0:0:
329,192,222121,1,0,0:0:0:0:
36,192,222295,1,0,0:0:0:0:
256,192,222295,1,0,0:0:0:0:
182,192,222296,128,0,223691:0:0:0:0:
329,192,222644,1,0,0:0:0:0:
256,192,222993,1,0,0:0:0:0:
402,192,222994,128,0,224389:0:0:0:0:
329,192,223342,1,0,0:0:0:0:
256,192,223516,1,0,0:0:0:0:
109,192,223691,1,0,0:0:0:0:
475,192,223691,128,0,224389:0:0:0:0:
329,192,224040,1,0,0:0:0:0:
182,192,224389,1,0,0:0:0:0:
36,192,224389,1,0,0:0:0:0:
109,192,224389,1,0,0:0:0:0:
256,192,224738,1,0,0:0:0:0:
36,192,224738,1,0,0:0:0:0:
329,192,224912,1,0,0:0:0:0:
109,192,224912,1,0,0:0:0:0:
402,192,225087,1,0,0:0:0:0:
475,192,225087,1,0,0:0:0:0:
182,192,225087,1,0,0:0:0:0:
256,192,225436,1,0,0:0:0:0:
109,192,225436,1,0,0:0:0:0:
36,192,225436,1,0,0:0:0:0:
329,192,225610,1,0,0:0:0:0:
109,192,225610,1,0,0:0:0:0:
402,192,225697,1,0,0:0:0:0:
182,192,225697,1,0,0:0:0:0:
475,192,225784,1,0,0:0:0:0:
256,192,225784,1,0,0:0:0:0:
36,192,225872,1,0,0:0:0:0:
109,192,225872,1,0,0:0:0:0:
329,192,225959,1,0,0:0:0:0:
402,192,225959,1,0,0:0:0:0:
182,192,226133,1,0,0:0:0:0:
256,192,226133,1,0,0:0:0:0:
329,192,226308,1,0,0:0:0:0:
402,192,226308,1,0,0:0:0:0:
475,192,226482,1,0,0:0:0:0:
256,192,226482,1,0,0:0:0:0:
36,192,226482,1,0,0:0:0:0:
182,192,226482,128,0,227529:0:0:0:0:
402,192,226831,1,0,0:0:0:0:
109,192,226831,1,0,0:0:0:0:
256,192,226831,1,0,0:0:0:0:
36,192,227180,1,0,0:0:0:0:
256,192,227180,1,0,0:0:0:0:
329,192,227180,1,0,0:0:0:0:
475,192,227180,1,0,0:0:0:0:
109,192,227354,1,0,0:0:0:0:
256,192,227529,128,0,227703:0:0:0:0:
402,192,227529,1,0,0:0:0:0:
475,192,227529,1,0,0:0:0:0:
329,192,227703,128,0,227877:0:0:0:0:
402,192,227877,128,0,228226:0:0:0:0:
475,192,227877,1,0,0:0:0:0:
109,192,227877,1,0,0:0:0:0:
182,192,227877,1,0,0:0:0:0:
329,192,228226,128,0,228575:0:0:0:0:
109,192,228226,1,0,0:0:0:0:
36,192,228226,1,0,0:0:0:0:
182,192,228401,1,0,0:0:0:0:
256,192,228575,128,0,228924:0:0:0:0:
402,192,228575,1,0,0:0:0:0:
475,192,228575,1,0,0:0:0:0:
109,192,228749,1,0,0:0:0:0:
182,192,228924,128,0,229098:0:0:0:0:
402,192,228924,1,0,0:0:0:0:
109,192,229098,128,0,229273:0:0:0:0:
329,192,229098,1,0,0:0:0:0:
475,192,229273,128,0,229970:0:0:0:0:
402,192,229273,1,0,0:0:0:0:
256,192,229273,1,0,0:0:0:0:
36,192,229273,1,0,0:0:0:0:
329,192,229273,1,0,0:0:0:0:
182,192,229622,1,0,0:0:0:0:
329,192,229970,128,0,230668:0:0:0:0:
36,192,229970,1,0,0:0:0:0:
109,192,229970,1,0,0:0:0:0:
256,192,229970,1,0,0:0:0:0:
475,192,230319,1,0,0:0:0:0:
182,192,230668,128,0,231191:0:0:0:0:
402,192,230668,1,0,0:0:0:0:
475,192,230668,1,0,0:0:0:0:
109,192,230668,1,0,0:0:0:0:
402,192,231017,1,0,0:0:0:0:
329,192,231017,1,0,0:0:0:0:
182,192,231366,128,0,232063:0:0:0:0:
36,192,231366,1,0,0:0:0:0:
475,192,231366,1,0,0:0:0:0:
109,192,231366,1,0,0:0:0:0:
256,192,231715,1,0,0:0:0:0:
475,192,231889,1,0,0:0:0:0:
402,192,231976,1,0,0:0:0:0:
329,192,232063,128,0,232761:0:0:0:0:
36,192,232063,1,0,0:0:0:0:
109,192,232063,1,0,0:0:0:0:
256,192,232412,1,0,0:0:0:0:
402,192,232761,128,0,233459:0:0:0:0:
182,192,232761,1,0,0:0:0:0:
109,192,232761,1,0,0:0:0:0:
475,192,232761,1,0,0:0:0:0:
256,192,233110,1,0,0:0:0:0:
182,192,233459,128,0,234156:0:0:0:0:
36,192,233459,1,0,0:0:0:0:
109,192,233459,1,0,0:0:0:0:
475,192,233459,1,0,0:0:0:0:
329,192,233808,1,0,0:0:0:0:
402,192,233808,1,0,0:0:0:0:
109,192,234156,128,0,234854:0:0:0:0:
256,192,234156,1,0,0:0:0:0:
329,192,234156,1,0,0:0:0:0:
475,192,234156,1,0,0:0:0:0:
402,192,234505,1,0,0:0:0:0:
36,192,234854,128,0,235901:0:0:0:0:
256,192,234854,1,0,0:0:0:0:
475,192,234854,1,0,0:0:0:0:
182,192,234854,1,0,0:0:0:0:
402,192,235203,1,0,0:0:0:0:
256,192,235552,1,0,0:0:0:0:
329,192,235552,1,0,0:0:0:0:
475,192,235552,1,0,0:0:0:0:
109,192,235901,128,0,236075:0:0:0:0:
329,192,235901,1,0,0:0:0:0:
182,192,236075,128,0,236598:0:0:0:0:
36,192,236249,128,0,236598:0:0:0:0:
402,192,236249,1,0,0:0:0:0:
475,192,236249,1,0,0:0:0:0:
329,192,236424,1,0,0:0:0:0:
109,192,236598,128,0,236947:0:0:0:0:
256,192,236598,128,0,236947:0:0:0:0:
182,192,236947,128,0,237296:0:0:0:0:
329,192,236947,128,0,237296:0:0:0:0:
402,192,236947,1,0,0:0:0:0:
475,192,236947,1,0,0:0:0:0:
256,192,237296,128,0,237645:0:0:0:0:
402,192,237296,128,0,237645:0:0:0:0:
36,192,237296,1,0,0:0:0:0:
182,192,237470,1,0,0:0:0:0:
109,192,237558,1,0,0:0:0:0:
475,192,237645,128,0,238691:0:0:0:0:
329,192,237645,128,0,238691:0:0:0:0:
36,192,237645,1,0,0:0:0:0:
182,192,237645,1,0,0:0:0:0:
109,192,237994,1,0,0:0:0:0:
402,192,238342,1,0,0:0:0:0:
256,192,238342,1,0,0:0:0:0:
182,192,238342,1,0,0:0:0:0:
256,192,238691,128,0,238866:0:0:0:0:
182,192,238691,1,0,0:0:0:0:
329,192,238866,128,0,239040:0:0:0:0:
36,192,238866,1,0,0:0:0:0:
109,192,238953,1,0,0:0:0:0:
256,192,239040,128,0,239738:0:0:0:0:
402,192,239040,128,0,239738:0:0:0:0:
182,192,239040,1,0,0:0:0:0:
109,192,239215,1,0,0:0:0:0:
182,192,239389,1,0,0:0:0:0:
36,192,239389,1,0,0:0:0:0:
329,192,239738,128,0,240261:0:0:0:0:
475,192,239738,128,0,240261:0:0:0:0:
109,192,239738,1,0,0:0:0:0:
182,192,239738,1,0,0:0:0:0:
36,192,240087,1,0,0:0:0:0:
256,192,240087,1,0,0:0:0:0:
109,192,240261,1,0,0:0:0:0:
182,192,240348,1,0,0:0:0:0:
329,192,240436,128,0,241482:0:0:0:0:
475,192,240436,128,0,241482:0:0:0:0:
256,192,240436,1,0,0:0:0:0:
182,192,240784,1,0,0:0:0:0:
36,192,241133,1,0,0:0:0:0:
109,192,241133,1,0,0:0:0:0:
402,192,241133,1,0,0:0:0:0:
256,192,241482,128,0,241656:0:0:0:0:
36,192,241482,1,0,0:0:0:0:
182,192,241656,128,0,241831:0:0:0:0:
402,192,241656,1,0,0:0:0:0:
329,192,241744,1,0,0:0:0:0:
109,192,241831,128,0,242529:0:0:0:0:
256,192,241831,1,0,0:0:0:0:
475,192,241831,1,0,0:0:0:0:
402,192,242180,1,0,0:0:0:0:
182,192,242180,1,0,0:0:0:0:
256,192,242529,128,0,243226:0:0:0:0:
475,192,242529,1,0,0:0:0:0:
402,192,242529,1,0,0:0:0:0:
36,192,242529,1,0,0:0:0:0:
182,192,242877,1,0,0:0:0:0:
475,192,243052,1,0,0:0:0:0:
402,192,243139,1,0,0:0:0:0:
36,192,243226,128,0,243575:0:0:0:0:
329,192,243226,1,0,0:0:0:0:
182,192,243226,1,0,0:0:0:0:
109,192,243226,1,0,0:0:0:0:
256,192,243575,128,0,244273:0:0:0:0:
402,192,243575,1,0,0:0:0:0:
182,192,243924,1,0,0:0:0:0:
109,192,243924,1,0,0:0:0:0:
475,192,243924,1,0,0:0:0:0:
329,192,244273,128,0,244622:0:0:0:0:
475,192,244273,1,0,0:0:0:0:
36,192,244273,1,0,0:0:0:0:
109,192,244447,1,0,0:0:0:0:
182,192,244534,1,0,0:0:0:0:
256,192,244622,128,0,244970:0:0:0:0:
475,192,244622,1,0,0:0:0:0:
402,192,244622,1,0,0:0:0:0:
182,192,244970,128,0,245319:0:0:0:0:
402,192,244970,1,0,0:0:0:0:
329,192,244970,1,0,0:0:0:0:
109,192,245319,128,0,245668:0:0:0:0:
256,192,245319,1,0,0:0:0:0:
329,192,245319,1,0,0:0:0:0:
475,192,245319,1,0,0:0:0:0:
182,192,245668,128,0,246017:0:0:0:0:
329,192,245668,1,0,0:0:0:0:
402,192,245668,1,0,0:0:0:0:
36,192,246017,128,0,247412:0:0:0:0:
256,192,246017,128,0,248808:0:0:0:0:
475,192,246017,1,0,0:0:0:0:
109,192,246017,1,0,0:0:0:0:
402,192,246366,1,0,0:0:0:0:
329,192,246366,1,0,0:0:0:0:
182,192,246366,1,0,0:0:0:0:
475,192,246715,1,0,0:0:0:0:
402,192,246889,1,0,0:0:0:0:
182,192,246889,1,0,0:0:0:0:
329,192,247063,1,0,0:0:0:0:
182,192,247412,128,0,248110:0:0:0:0:
109,192,247412,1,0,0:0:0:0:
329,192,247412,1,0,0:0:0:0:
402,192,247412,1,0,0:0:0:0:
475,192,247761,1,0,0:0:0:0:
109,192,247936,1,0,0:0:0:0:
36,192,247936,1,0,0:0:0:0:
329,192,248110,128,0,248808:0:0:0:0:
475,192,248110,1,0,0:0:0:0:
402,192,248110,1,0,0:0:0:0:
36,192,248110,1,0,0:0:0:0:
36,192,248459,1,0,0:0:0:0:
109,192,248459,1,0,0:0:0:0:
402,192,248633,1,0,0:0:0:0:
182,192,248808,1,0,0:0:0:0:
36,192,248808,1,0,0:0:0:0:
475,192,248808,128,0,249505:0:0:0:0:
109,192,249156,1,0,0:0:0:0:
182,192,249505,1,0,0:0:0:0:
329,192,249505,128,0,250203:0:0:0:0:
256,192,249505,1,0,0:0:0:0:
402,192,249505,1,0,0:0:0:0:
36,192,249854,1,0,0:0:0:0:
256,192,250203,1,0,0:0:0:0:
475,192,250203,128,0,250552:0:0:0:0:
109,192,250203,1,0,0:0:0:0:
182,192,250203,1,0,0:0:0:0:
402,192,250552,128,0,250901:0:0:0:0:
36,192,250552,1,0,0:0:0:0:
182,192,250552,1,0,0:0:0:0:
256,192,250901,1,0,0:0:0:0:
329,192,250901,128,0,251249:0:0:0:0:
182,192,250901,1,0,0:0:0:0:
36,192,250901,1,0,0:0:0:0:
109,192,251249,1,0,0:0:0:0:
256,192,251249,128,0,251598:0:0:0:0:
182,192,251598,1,0,0:0:0:0:
402,192,251598,1,0,0:0:0:0:
475,192,251598,1,0,0:0:0:0:
36,192,251947,1,0,0:0:0:0:
182,192,252296,1,0,0:0:0:0:
329,192,252296,128,0,252994:0:0:0:0:
475,192,252296,1,0,0:0:0:0:
402,192,252296,1,0,0:0:0:0:
36,192,252645,1,0,0:0:0:0:
256,192,252994,1,0,0:0:0:0:
402,192,252994,128,0,253342:0:0:0:0:
182,192,252994,1,0,0:0:0:0:
109,192,253342,1,0,0:0:0:0:
475,192,253342,128,0,253691:0:0:0:0:
36,192,253342,1,0,0:0:0:0:
256,192,253691,1,0,0:0:0:0:
329,192,253691,128,0,254040:0:0:0:0:
182,192,253691,1,0,0:0:0:0:
36,192,253691,1,0,0:0:0:0:
109,192,254040,1,0,0:0:0:0:
475,192,254040,128,0,254389:0:0:0:0:
36,192,254215,1,0,0:0:0:0:
109,192,254302,1,0,0:0:0:0:
182,192,254389,1,0,0:0:0:0:
402,192,254389,128,0,254738:0:0:0:0:
256,192,254389,1,0,0:0:0:0:
36,192,254738,1,0,0:0:0:0:
329,192,254738,128,0,254999:0:0:0:0:
329,192,255087,128,0,255436:0:0:0:0:
475,192,255087,1,0,0:0:0:0:
256,192,255087,1,0,0:0:0:0:
182,192,255087,1,0,0:0:0:0:
402,192,255436,128,0,255784:0:0:0:0:
109,192,255436,1,0,0:0:0:0:
329,192,255784,1,0,0:0:0:0:
256,192,255784,128,0,256133:0:0:0:0:
109,192,255784,1,0,0:0:0:0:
36,192,255784,1,0,0:0:0:0:
329,192,256133,1,0,0:0:0:0:
182,192,256133,128,0,256482:0:0:0:0:
475,192,256133,1,0,0:0:0:0:
402,192,256482,1,0,0:0:0:0:
109,192,256482,128,0,256831:0:0:0:0:
329,192,256482,1,0,0:0:0:0:
256,192,256831,1,0,0:0:0:0:
36,192,256831,128,0,257180:0:0:0:0:
329,192,257005,1,0,0:0:0:0:
402,192,257092,1,0,0:0:0:0:
182,192,257180,1,0,0:0:0:0:
109,192,257180,128,0,257877:0:0:0:0:
475,192,257180,1,0,0:0:0:0:
256,192,257180,1,0,0:0:0:0:
182,192,257529,1,0,0:0:0:0:
475,192,257645,1,0,0:0:0:0:
402,192,257761,1,0,0:0:0:0:
329,192,257877,1,0,0:0:0:0:
182,192,257877,128,0,258575:0:0:0:0:
256,192,257877,1,0,0:0:0:0:
36,192,258226,1,0,0:0:0:0:
475,192,258401,1,0,0:0:0:0:
402,192,258488,1,0,0:0:0:0:
329,192,258575,1,0,0:0:0:0:
109,192,258575,128,0,258924:0:0:0:0:
256,192,258575,1,0,0:0:0:0:
475,192,258749,1,0,0:0:0:0:
402,192,258749,1,0,0:0:0:0:
36,192,258749,1,0,0:0:0:0:
329,192,258924,128,0,259098:0:0:0:0:
182,192,258924,1,0,0:0:0:0:
402,192,259098,128,0,259273:0:0:0:0:
36,192,259098,1,0,0:0:0:0:
256,192,259098,1,0,0:0:0:0:
109,192,259273,1,0,0:0:0:0:
182,192,259273,1,0,0:0:0:0:
256,192,259360,1,0,0:0:0:0:
475,192,259360,1,0,0:0:0:0:
182,192,259447,1,0,0:0:0:0:
402,192,259447,1,0,0:0:0:0:
109,192,259534,1,0,0:0:0:0:
329,192,259534,1,0,0:0:0:0:
182,192,259622,1,0,0:0:0:0:
402,192,259622,1,0,0:0:0:0:
109,192,259709,1,0,0:0:0:0:
329,192,259709,1,0,0:0:0:0:
182,192,259796,1,0,0:0:0:0:
402,192,259796,1,0,0:0:0:0:
256,192,259883,1,0,0:0:0:0:
475,192,259883,1,0,0:0:0:0:
36,192,259970,1,0,0:0:0:0:
329,192,259970,1,0,0:0:0:0:
402,192,259970,128,0,261366:0:0:0:0:
109,192,259970,1,0,0:0:0:0:
182,192,260319,1,0,0:0:0:0:
475,192,260319,1,0,0:0:0:0:
36,192,260668,1,0,0:0:0:0:
109,192,260668,1,0,0:0:0:0:
182,192,261017,1,0,0:0:0:0:
329,192,261017,1,0,0:0:0:0:
109,192,261366,1,0,0:0:0:0:
475,192,261366,128,0,262063:0:0:0:0:
36,192,261366,1,0,0:0:0:0:
256,192,261715,1,0,0:0:0:0:
182,192,261715,1,0,0:0:0:0:
109,192,262063,1,0,0:0:0:0:
329,192,262063,128,0,262761:0:0:0:0:
36,192,262063,1,0,0:0:0:0:
402,192,262063,1,0,0:0:0:0:
256,192,262412,1,0,0:0:0:0:
182,192,262587,1,0,0:0:0:0:
109,192,262674,1,0,0:0:0:0:
36,192,262761,1,0,0:0:0:0:
475,192,262761,128,0,263110:0:0:0:0:
402,192,262761,1,0,0:0:0:0:
182,192,263110,1,0,0:0:0:0:
402,192,263110,128,0,263459:0:0:0:0:
329,192,263110,1,0,0:0:0:0:
36,192,263459,1,0,0:0:0:0:
329,192,263459,128,0,263808:0:0:0:0:
109,192,263459,1,0,0:0:0:0:
182,192,263808,1,0,0:0:0:0:
256,192,263808,128,0,264156:0:0:0:0:
402,192,263808,1,0,0:0:0:0:
109,192,264156,1,0,0:0:0:0:
402,192,264156,128,0,264854:0:0:0:0:
36,192,264156,1,0,0:0:0:0:
182,192,264505,1,0,0:0:0:0:
329,192,264854,1,0,0:0:0:0:
182,192,264854,1,0,0:0:0:0:
256,192,264970,1,0,0:0:0:0:
109,192,264970,1,0,0:0:0:0:
182,192,265087,1,0,0:0:0:0:
36,192,265087,1,0,0:0:0:0:
109,192,265203,1,0,0:0:0:0:
256,192,265203,1,0,0:0:0:0:
329,192,265377,1,0,0:0:0:0:
36,192,265377,1,0,0:0:0:0:
402,192,265465,1,0,0:0:0:0:
182,192,265552,1,0,0:0:0:0:
475,192,265552,1,0,0:0:0:0:
109,192,265552,1,0,0:0:0:0:
329,192,265552,128,0,266947:0:0:0:0:
36,192,265901,1,0,0:0:0:0:
402,192,265901,1,0,0:0:0:0:
256,192,265901,1,0,0:0:0:0:
109,192,265901,1,0,0:0:0:0:
182,192,266249,1,0,0:0:0:0:
109,192,266424,1,0,0:0:0:0:
256,192,266424,1,0,0:0:0:0:
36,192,266598,1,0,0:0:0:0:
182,192,266598,1,0,0:0:0:0:
256,192,266947,128,0,268342:0:0:0:0:
182,192,266947,1,0,0:0:0:0:
475,192,266947,1,0,0:0:0:0:
109,192,266947,128,0,268342:0:0:0:0:
402,192,266947,128,0,268342:0:0:0:0:
182,192,268342,1,0,0:0:0:0:
36,192,268691,1,0,0:0:0:0:
109,192,268866,1,0,0:0:0:0:
402,192,269040,1,0,0:0:0:0:
182,192,269040,1,0,0:0:0:0:
329,192,269388,1,0,0:0:0:0:
475,192,269389,1,0,0:0:0:0:
402,192,269563,1,0,0:0:0:0:
36,192,269563,1,0,0:0:0:0:
329,192,269651,1,0,0:0:0:0:
182,192,269738,1,0,0:0:0:0:
256,192,269738,1,0,0:0:0:0:
109,192,269912,1,0,0:0:0:0:
182,192,270086,1,0,0:0:0:0:
329,192,270087,1,0,0:0:0:0:
109,192,270435,1,0,0:0:0:0:
402,192,270435,1,0,0:0:0:0:
475,192,270435,1,0,0:0:0:0:
109,192,270784,1,0,0:0:0:0:
36,192,270959,1,0,0:0:0:0:
475,192,271133,1,0,0:0:0:0:
182,192,271133,1,0,0:0:0:0:
402,192,271177,1,0,0:0:0:0:
329,192,271220,1,0,0:0:0:0:
109,192,271482,1,0,0:0:0:0:
256,192,271482,1,0,0:0:0:0:
182,192,271830,1,0,0:0:0:0:
329,192,271831,1,0,0:0:0:0:
402,192,272005,1,0,0:0:0:0:
109,192,272179,1,0,0:0:0:0:
475,192,272180,1,0,0:0:0:0:
329,192,272354,1,0,0:0:0:0:
475,192,272441,1,0,0:0:0:0:
36,192,272528,1,0,0:0:0:0:
402,192,272529,1,0,0:0:0:0:
109,192,272529,1,0,0:0:0:0:
182,192,272877,1,0,0:0:0:0:
329,192,272877,1,0,0:0:0:0:
109,192,273226,1,0,0:0:0:0:
402,192,273226,1,0,0:0:0:0:
475,192,273401,1,0,0:0:0:0:
329,192,273575,1,0,0:0:0:0:
475,192,273749,1,0,0:0:0:0:
329,192,273837,1,0,0:0:0:0:
109,192,273923,1,0,0:0:0:0:
402,192,273924,1,0,0:0:0:0:
182,192,274272,1,0,0:0:0:0:
475,192,274273,1,0,0:0:0:0:
402,192,274621,1,0,0:0:0:0:
109,192,274622,1,0,0:0:0:0:
256,192,274970,1,0,0:0:0:0:
36,192,274970,1,0,0:0:0:0:
329,192,275144,1,0,0:0:0:0:
109,192,275145,1,0,0:0:0:0:
182,192,275319,1,0,0:0:0:0:
109,192,275494,1,0,0:0:0:0:
402,192,275494,1,0,0:0:0:0:
329,192,275668,1,0,0:0:0:0:
36,192,275668,1,0,0:0:0:0:
402,192,276016,1,0,0:0:0:0:
109,192,276016,1,0,0:0:0:0:
329,192,276365,1,0,0:0:0:0:
36,192,276366,1,0,0:0:0:0:
109,192,276540,1,0,0:0:0:0:
475,192,276540,1,0,0:0:0:0:
36,192,276627,1,0,0:0:0:0:
182,192,276714,1,0,0:0:0:0:
402,192,276715,1,0,0:0:0:0:
329,192,276715,1,0,0:0:0:0:
256,192,277063,1,0,0:0:0:0:
475,192,277063,1,0,0:0:0:0:
402,192,277063,1,0,0:0:0:0:
329,192,277412,1,0,0:0:0:0:
109,192,277412,1,0,0:0:0:0:
256,192,277412,1,0,0:0:0:0:
256,192,277761,1,0,0:0:0:0:
475,192,277935,1,0,0:0:0:0:
402,192,278023,1,0,0:0:0:0:
109,192,278109,1,0,0:0:0:0:
329,192,278110,1,0,0:0:0:0:
36,192,278110,1,0,0:0:0:0:
182,192,278458,1,0,0:0:0:0:
256,192,278545,1,0,0:0:0:0:
402,192,278546,1,0,0:0:0:0:
109,192,278720,1,0,0:0:0:0:
329,192,278807,1,0,0:0:0:0:
182,192,278807,1,0,0:0:0:0:
36,192,278982,1,0,0:0:0:0:
475,192,278982,1,0,0:0:0:0:
402,192,279156,1,0,0:0:0:0:
256,192,279156,1,0,0:0:0:0:
109,192,279156,1,0,0:0:0:0:
329,192,279331,1,0,0:0:0:0:
36,192,279505,1,0,0:0:0:0:
256,192,279505,1,0,0:0:0:0:
475,192,279505,1,0,0:0:0:0:
182,192,279854,1,0,0:0:0:0:
329,192,279854,1,0,0:0:0:0:
402,192,280202,1,0,0:0:0:0:
256,192,280203,1,0,0:0:0:0:
256,192,280552,1,0,0:0:0:0:
475,192,280552,1,0,0:0:0:0:
182,192,280639,1,0,0:0:0:0:
109,192,280726,1,0,0:0:0:0:
402,192,280726,1,0,0:0:0:0:
475,192,280901,1,0,0:0:0:0:
329,192,280901,1,0,0:0:0:0:
36,192,280901,1,0,0:0:0:0:
402,192,281075,1,0,0:0:0:0:
109,192,281249,1,0,0:0:0:0:
329,192,281249,1,0,0:0:0:0:
475,192,281337,1,0,0:0:0:0:
402,192,281424,1,0,0:0:0:0:
475,192,281511,1,0,0:0:0:0:
182,192,281598,1,0,0:0:0:0:
329,192,281598,1,0,0:0:0:0:
256,192,281947,1,0,0:0:0:0:
475,192,281947,1,0,0:0:0:0:
182,192,282034,1,0,0:0:0:0:
109,192,282121,1,0,0:0:0:0:
329,192,282122,1,0,0:0:0:0:
402,192,282295,1,0,0:0:0:0:
256,192,282296,1,0,0:0:0:0:
36,192,282296,1,0,0:0:0:0:
182,192,282644,1,0,0:0:0:0:
329,192,282645,1,0,0:0:0:0:
256,192,282993,1,0,0:0:0:0:
402,192,282994,1,0,0:0:0:0:
182,192,283342,1,0,0:0:0:0:
329,192,283342,1,0,0:0:0:0:
402,192,283430,1,0,0:0:0:0:
475,192,283517,1,0,0:0:0:0:
36,192,283691,128,0,284389:0:0:0:0:
256,192,283691,1,0,0:0:0:0:
109,192,283691,1,0,0:0:0:0:
475,192,284040,1,0,0:0:0:0:
182,192,284040,1,0,0:0:0:0:
402,192,284215,1,0,0:0:0:0:
329,192,284388,1,0,0:0:0:0:
475,192,284389,1,0,0:0:0:0:
256,192,284389,1,0,0:0:0:0:
109,192,284389,128,0,285087:0:0:0:0:
402,192,284563,1,0,0:0:0:0:
475,192,284738,1,0,0:0:0:0:
402,192,284825,1,0,0:0:0:0:
329,192,284912,1,0,0:0:0:0:
475,192,285087,1,0,0:0:0:0:
36,192,285087,1,0,0:0:0:0:
182,192,285087,128,0,285784:0:0:0:0:
329,192,285261,1,0,0:0:0:0:
402,192,285435,1,0,0:0:0:0:
475,192,285784,1,0,0:0:0:0:
256,192,285784,128,0,286482:0:0:0:0:
329,192,285784,1,0,0:0:0:0:
329,192,286133,1,0,0:0:0:0:
36,192,286133,1,0,0:0:0:0:
402,192,286308,1,0,0:0:0:0:
182,192,286482,1,0,0:0:0:0:
109,192,286482,128,0,287180:0:0:0:0:
475,192,286482,1,0,0:0:0:0:
402,192,286831,1,0,0:0:0:0:
182,192,286831,1,0,0:0:0:0:
36,192,287180,128,0,287877:0:0:0:0:
475,192,287180,1,0,0:0:0:0:
256,192,287180,1,0,0:0:0:0:
329,192,287354,1,0,0:0:0:0:
109,192,287529,1,0,0:0:0:0:
402,192,287529,1,0,0:0:0:0:
475,192,287877,128,0,288749:0:0:0:0:
329,192,288226,128,0,288924:0:0:0:0:
182,192,288575,128,0,289098:0:0:0:0:
475,192,288924,1,0,0:0:0:0:
329,192,289098,1,0,0:0:0:0:
182,192,289273,1,0,0:0:0:0:
36,192,289273,1,0,0:0:0:0:
402,192,289273,1,0,0:0:0:0:
475,192,289273,1,0,0:0:0:0:
36,192,289970,1,0,0:0:0:0:
402,192,289970,1,0,0:0:0:0:
109,192,289970,128,0,291017:0:0:0:0:
475,192,289970,1,0,0:0:0:0:
182,192,290319,1,0,0:0:0:0:
256,192,290494,1,0,0:0:0:0:
329,192,290581,1,0,0:0:0:0:
402,192,290668,128,0,291715:0:0:0:0:
475,192,290668,1,0,0:0:0:0:
182,192,291017,1,0,0:0:0:0:
36,192,291366,128,0,292412:0:0:0:0:
256,192,291366,1,0,0:0:0:0:
329,192,291366,1,0,0:0:0:0:
475,192,291366,1,0,0:0:0:0:
256,192,291715,1,0,0:0:0:0:
182,192,291715,1,0,0:0:0:0:
109,192,291889,1,0,0:0:0:0:
182,192,291976,1,0,0:0:0:0:
256,192,292063,128,0,293110:0:0:0:0:
402,192,292063,1,0,0:0:0:0:
475,192,292063,1,0,0:0:0:0:
329,192,292412,1,0,0:0:0:0:
402,192,292587,1,0,0:0:0:0:
475,192,292761,128,0,293808:0:0:0:0:
109,192,292761,1,0,0:0:0:0:
36,192,292761,1,0,0:0:0:0:
109,192,293110,1,0,0:0:0:0:
182,192,293284,1,0,0:0:0:0:
109,192,293372,1,0,0:0:0:0:
36,192,293459,128,0,294505:0:0:0:0:
329,192,293459,1,0,0:0:0:0:
402,192,293459,1,0,0:0:0:0:
109,192,293808,1,0,0:0:0:0:
182,192,293808,1,0,0:0:0:0:
256,192,293982,1,0,0:0:0:0:
329,192,294156,128,0,295203:0:0:0:0:
402,192,294156,1,0,0:0:0:0:
475,192,294156,1,0,0:0:0:0:
182,192,294156,1,0,0:0:0:0:
256,192,294505,1,0,0:0:0:0:
182,192,294680,1,0,0:0:0:0:
109,192,294767,1,0,0:0:0:0:
36,192,294854,128,0,295901:0:0:0:0:
402,192,294854,1,0,0:0:0:0:
475,192,294854,1,0,0:0:0:0:
256,192,294854,1,0,0:0:0:0:
109,192,295203,1,0,0:0:0:0:
182,192,295377,1,0,0:0:0:0:
256,192,295552,128,0,296598:0:0:0:0:
329,192,295552,1,0,0:0:0:0:
402,192,295552,1,0,0:0:0:0:
109,192,295901,1,0,0:0:0:0:
329,192,296075,1,0,0:0:0:0:
402,192,296162,1,0,0:0:0:0:
475,192,296249,128,0,297296:0:0:0:0:
182,192,296249,1,0,0:0:0:0:
109,192,296249,1,0,0:0:0:0:
36,192,296249,1,0,0:0:0:0:
329,192,296598,1,0,0:0:0:0:
402,192,296598,1,0,0:0:0:0:
36,192,296773,1,0,0:0:0:0:
109,192,296947,128,0,297994:0:0:0:0:
182,192,296947,1,0,0:0:0:0:
329,192,296947,1,0,0:0:0:0:
256,192,296947,1,0,0:0:0:0:
36,192,297296,1,0,0:0:0:0:
256,192,297470,1,0,0:0:0:0:
329,192,297558,1,0,0:0:0:0:
402,192,297645,128,0,298691:0:0:0:0:
36,192,297645,1,0,0:0:0:0:
475,192,297645,1,0,0:0:0:0:
182,192,297645,1,0,0:0:0:0:
329,192,297994,128,0,298342:0:0:0:0:
182,192,297994,128,0,298342:0:0:0:0:
256,192,298342,128,0,299389:0:0:0:0:
36,192,298342,1,0,0:0:0:0:
109,192,298342,1,0,0:0:0:0:
475,192,298691,1,0,0:0:0:0:
182,192,298866,1,0,0:0:0:0:
109,192,298953,1,0,0:0:0:0:
36,192,299040,128,0,300087:0:0:0:0:
329,192,299040,1,0,0:0:0:0:
402,192,299040,1,0,0:0:0:0:
475,192,299040,1,0,0:0:0:0:
475,192,299389,128,0,300087:0:0:0:0:
109,192,299389,1,0,0:0:0:0:
182,192,299738,128,0,300087:0:0:0:0:
329,192,299738,128,0,300087:0:0:0:0:
256,192,299738,1,0,0:0:0:0:
402,192,300087,128,0,301133:0:0:0:0:
109,192,300087,1,0,0:0:0:0:
109,192,300435,128,0,301133:0:0:0:0:
256,192,300435,1,0,0:0:0:0:
329,192,300784,1,0,0:0:0:0:
36,192,301133,128,0,301831:0:0:0:0:
475,192,301133,128,0,301831:0:0:0:0:
182,192,301133,1,0,0:0:0:0:
256,192,301133,1,0,0:0:0:0:
109,192,301482,1,0,0:0:0:0:
402,192,301656,1,0,0:0:0:0:
109,192,301831,128,0,303226:0:0:0:0:
256,192,301831,1,0,0:0:0:0:
329,192,301831,1,0,0:0:0:0:
402,192,302180,1,0,0:0:0:0:
182,192,302529,128,0,303924:0:0:0:0:
256,192,302529,1,0,0:0:0:0:
329,192,302529,1,0,0:0:0:0:
475,192,302529,1,0,0:0:0:0:
36,192,302877,1,0,0:0:0:0:
256,192,303226,128,0,304622:0:0:0:0:
402,192,303226,1,0,0:0:0:0:
475,192,303226,1,0,0:0:0:0:
109,192,303575,1,0,0:0:0:0:
329,192,303924,128,0,305319:0:0:0:0:
402,192,303924,1,0,0:0:0:0:
475,192,303924,1,0,0:0:0:0:
182,192,304273,1,0,0:0:0:0:
475,192,304447,1,0,0:0:0:0:
402,192,304622,128,0,306017:0:0:0:0:
109,192,304622,1,0,0:0:0:0:
36,192,304622,1,0,0:0:0:0:
182,192,304970,1,0,0:0:0:0:
256,192,304970,1,0,0:0:0:0:
109,192,305319,128,0,306017:0:0:0:0:
36,192,305319,1,0,0:0:0:0:
475,192,305319,1,0,0:0:0:0:
182,192,305319,1,0,0:0:0:0:
182,192,305668,1,0,0:0:0:0:
256,192,305755,1,0,0:0:0:0:
329,192,305842,1,0,0:0:0:0:
475,192,305930,1,0,0:0:0:0:
36,192,306017,128,0,307412:0:0:0:0:
182,192,306017,1,0,0:0:0:0:
256,192,306017,1,0,0:0:0:0:
329,192,306366,1,0,0:0:0:0:
182,192,306715,1,0,0:0:0:0:
256,192,306715,1,0,0:0:0:0:
109,192,307063,1,0,0:0:0:0:
329,192,307238,1,0,0:0:0:0:
402,192,307325,1,0,0:0:0:0:
256,192,307412,1,0,0:0:0:0:
182,192,307412,1,0,0:0:0:0:
329,192,307761,1,0,0:0:0:0:
36,192,308110,128,0,310203:0:0:0:0:
182,192,308110,1,0,0:0:0:0:
256,192,308110,1,0,0:0:0:0:
109,192,308459,1,0,0:0:0:0:
402,192,308633,1,0,0:0:0:0:
329,192,308720,1,0,0:0:0:0:
182,192,308808,1,0,0:0:0:0:
109,192,308808,1,0,0:0:0:0:
475,192,308808,128,0,310203:0:0:0:0:
402,192,309505,128,0,310203:0:0:0:0:
256,192,310203,1,0,0:0:0:0:
109,192,310203,128,0,310552:0:0:0:0:
475,192,310552,1,0,0:0:0:0:
329,192,310552,1,0,0:0:0:0:
182,192,310552,128,0,310901:0:0:0:0:
329,192,310901,1,0,0:0:0:0:
36,192,311249,128,0,311598:0:0:0:0:
475,192,311250,1,0,0:0:0:0:
402,192,311250,1,0,0:0:0:0:
329,192,311598,1,0,0:0:0:0:
402,192,311947,1,0,0:0:0:0:
36,192,312296,128,0,312645:0:0:0:0:
475,192,312296,1,0,0:0:0:0:
329,192,312296,1,0,0:0:0:0:
256,192,312296,1,0,0:0:0:0:
109,192,312645,1,0,0:0:0:0:
109,192,312994,128,0,313342:0:0:0:0:
182,192,312994,1,0,0:0:0:0:
256,192,312994,1,0,0:0:0:0:
182,192,313342,128,0,313691:0:0:0:0:
402,192,313343,1,0,0:0:0:0:
475,192,313343,1,0,0:0:0:0:
256,192,313691,1,0,0:0:0:0:
475,192,314040,1,0,0:0:0:0:
182,192,314040,128,0,314389:0:0:0:0:
256,192,314389,1,0,0:0:0:0:
329,192,314389,1,0,0:0:0:0:
475,192,315087,1,0,0:0:0:0:
402,192,315087,1,0,0:0:0:0:
109,192,315087,128,0,315435:0:0:0:0:
402,192,315784,1,0,0:0:0:0:
182,192,315784,128,0,316156:0:0:0:0:
256,192,315784,1,0,0:0:0:0:
109,192,316159,128,0,316534:0:0:0:0:
475,192,316159,1,0,0:0:0:0:
329,192,316159,1,0,0:0:0:0:
256,192,316534,1,0,0:0:0:0:
182,192,316909,128,0,317285:0:0:0:0:
475,192,316909,1,0,0:0:0:0:
402,192,317285,1,0,0:0:0:0:
256,192,317285,1,0,0:0:0:0:
182,192,317660,1,0,0:0:0:0:
329,192,317660,1,0,0:0:0:0:
109,192,318035,128,0,318411:0:0:0:0:
256,192,318035,1,0,0:0:0:0:
402,192,318035,1,0,0:0:0:0:
475,192,318035,1,0,0:0:0:0:
329,192,318536,1,0,0:0:0:0:
256,192,318536,1,0,0:0:0:0:
475,192,318973,1,0,0:0:0:0:
402,192,318973,1,0,0:0:0:0:
36,192,318973,128,0,319536:0:0:0:0:
182,192,319534,128,0,319909:0:0:0:0:
329,192,319534,1,0,0:0:0:0:
475,192,319534,1,0,0:0:0:0:
402,192,320668,1,0,0:0:0:0:
109,192,320668,1,0,0:0:0:0:
475,192,321802,1,0,0:0:0:0:
36,192,321802,1,0,0:0:0:0:
