osu file format v14

[General]
AudioFilename: Untitled Project Of Maks_SF - No Mercy (Alien Shooter TD Soundtrack).mp3
AudioLeadIn: 0
PreviewTime: 98455
Countdown: 0
SampleSet: Normal
StackLeniency: 0.7
Mode: 0
LetterboxInBreaks: 0
WidescreenStoryboard: 0

[Editor]
Bookmarks: 54800
DistanceSpacing: 2
BeatDivisor: 4
GridSize: 16
TimelineZoom: 6.499996

[Metadata]
Title:No Mercy
TitleUnicode:No Mercy
Artist:Untitled Project Of Maks_SF
ArtistUnicode:Untitled Project Of Maks_SF
Creator:CircleChu
Version:Tough
Source:Alien Shooter TD
Tags:Team Sigma OST
BeatmapID:1482133
BeatmapSetID:696314

[Difficulty]
HPDrainRate:5.6
CircleSize:3.5
OverallDifficulty:7.6
ApproachRate:8.1
SliderMultiplier:1.7
SliderTickRate:1

[Events]
//Background and Video events
0,0,"alienbg.jpg",0,0
//Break Periods
2,69907,75179
//Storyboard Layer 0 (Background)
//Storyboard Layer 1 (Fail)
//Storyboard Layer 2 (Pass)
//Storyboard Layer 3 (Foreground)
//Storyboard Sound Samples

[TimingPoints]
1845,413.793103448276,4,2,0,40,1,0
1845,-200,4,2,0,20,0,0
5155,-166.666666666667,4,2,0,25,0,0
6810,-142.857142857143,4,2,0,30,0,0
8465,-125,4,2,0,35,0,0
11776,-111.111111111111,4,2,0,40,0,0
13431,-100,4,2,0,50,0,0
13845,-100,4,2,0,55,0,0
14258,-100,4,2,0,60,0,0
14672,-100,4,2,0,65,0,0
15086,-76.9230769230769,4,1,0,75,0,1
41569,-100,4,2,0,50,0,0
98672,-100,4,2,0,20,0,0
99500,-76.9230769230769,4,1,0,75,0,1
125982,-100,4,2,0,50,0,0
133431,-95.2380952380952,4,2,0,50,0,0
134258,-90.9090909090909,4,2,0,50,0,0
135086,-86.9565217391304,4,2,0,50,0,0
135913,-83.3333333333333,4,2,0,50,0,0
136741,-80,4,2,0,50,0,0
137569,-76.9230769230769,4,2,0,50,0,0
138396,-71.4285714285714,4,2,0,50,0,0
139845,-133.333333333333,4,1,0,5,0,0
139948,-133.333333333333,4,1,0,10,0,0
140051,-133.333333333333,4,1,0,15,0,0
140155,-133.333333333333,4,1,0,20,0,0
140258,-133.333333333333,4,1,0,25,0,0
140362,-133.333333333333,4,1,0,30,0,0
140465,-133.333333333333,4,1,0,35,0,0
140569,-133.333333333333,4,1,0,40,0,0
140672,-133.333333333333,4,1,0,45,0,0
140776,-133.333333333333,4,1,0,50,0,0
140879,-133.333333333333,4,1,0,60,0,0
140982,-133.333333333333,4,2,0,40,0,0
144189,-133.333333333333,4,2,0,5,0,0

[Colours]
Combo1 : 162,166,4
Combo2 : 0,89,0
Combo3 : 6,215,189
Combo4 : 11,5,201

[HitObjects]
386,318,1845,5,4,0:0:0:0:
386,318,2258,2,0,P|377:297|379:263,1,42.5,0|0,0:0|0:0,0:0:0:0:
382,171,2672,1,8,0:0:0:0:
382,171,3086,2,0,P|391:150|389:116,1,42.5,0|0,0:0|0:0,0:0:0:0:
238,63,3500,5,0,0:0:0:0:
238,63,3913,2,0,P|262:61|294:51,1,42.5,0|0,0:0|0:0,0:0:0:0:
192,127,4327,2,0,P|160:129|130:140,1,63.75,8|0,0:0|0:0,0:0:0:0:
130,140,4741,2,0,L|133:198,1,42.5,0|0,0:0|0:0,0:0:0:0:
299,190,5155,5,0,0:0:0:0:
299,190,5569,2,0,P|274:188|243:178,1,50.9999984436036,0|0,0:0|0:0,0:0:0:0:
338,267,5982,2,0,P|376:270|412:282,1,76.4999976654053,8|0,0:0|0:0,0:0:0:0:
412,282,6396,2,0,L|409:339,1,50.9999984436036,0|0,0:0|0:0,0:0:0:0:
498,174,6810,6,0,L|492:305,1,118.999996368408,0|0,0:0|0:0,0:0:0:0:
423,208,7431,2,0,L|413:179,1,29.7499990921021,0|0,0:0|0:0,0:0:0:0:
413,179,7638,2,0,B|402:138|402:138|417:94,1,89.2499972763062,8|0,0:0|0:0,0:0:0:0:
416,93,8051,2,0,P|388:101|359:100,1,59.4999981842042,0|0,0:0|0:0,0:0:0:0:
264,35,8465,6,0,P|244:82|248:133,1,102,0|0,0:0|0:0,0:0:0:0:
262,164,8879,2,0,P|294:202|341:221,1,102,0|0,0:0|0:0,0:0:0:0:
375,228,9293,2,0,P|425:231|472:212,1,102,8|0,0:0|0:0,0:0:0:0:
472,213,9707,2,0,B|475:157|475:157|466:169,1,68,0|0,0:0|0:0,0:0:0:0:
407,353,10120,6,0,B|362:328|362:328|312:350,1,102,0|0,0:0|0:0,0:0:0:0:
284,361,10534,2,0,B|234:346|234:346|214:295,1,102,0|0,0:0|0:0,0:0:0:0:
207,266,10948,2,0,B|162:241|162:241|112:263,1,102,8|0,0:0|0:0,0:0:0:0:
116,261,11362,2,0,P|101:292|105:325,1,68,0|0,0:0|0:0,0:0:0:0:
293,281,11776,6,0,P|297:240|279:204,1,76.4999976654053,0|0,0:0|0:0,0:0:0:0:
366,156,12189,2,0,P|340:124|302:111,1,76.4999976654053,0|0,0:0|0:0,0:0:0:0:
348,23,12603,2,0,P|291:17|240:41,1,114.749996498108,8|0,0:0|0:0,0:0:0:0:
240,41,13017,2,0,B|202:51|202:51|163:40,1,76.4999976654053,0|0,0:0|0:0,0:0:0:0:
89,108,13431,6,0,L|101:161,3,42.5,0|0|2|2,0:0|0:0|3:0|3:0,0:0:0:0:
95,228,13845,2,0,L|85:269,3,42.5,0|0|0|0,3:0|3:0|3:0|3:0,0:0:0:0:
163,183,14258,5,2,3:0:0:0:
183,187,14362,1,2,3:0:0:0:
199,199,14465,1,2,3:0:0:0:
211,216,14569,1,2,3:0:0:0:
217,236,14672,6,0,P|234:248|254:254,1,42.5,0|0,3:0|3:0,0:0:0:0:
275,256,14879,6,0,L|268:287,2,21.25,0|0|0,3:0|3:0|3:0,0:0:0:0:
357,285,15086,6,0,P|359:230|334:182,1,110.499994941712,4|0,0:0|0:0,0:0:0:0:
334,182,15500,1,0,0:0:0:0:
421,47,15707,1,0,3:0:0:0:
417,74,15810,1,0,3:0:0:0:
413,101,15913,2,0,P|444:142|440:58,1,220.999989883423,8|0,0:0|0:0,0:0:0:0:
293,118,16534,6,0,P|239:127|189:104,1,110.499994941712,2|0,3:0|0:0,0:0:0:0:
63,213,16948,2,0,P|85:262|77:316,1,110.499994941712,2|0,3:0|0:0,0:0:0:0:
109,147,17362,1,0,3:0:0:0:
90,126,17465,1,0,3:0:0:0:
69,106,17569,2,0,B|24:71|24:71|30:124,1,110.499994941712,8|0,0:0|0:0,0:0:0:0:
186,147,17982,2,0,B|238:125|238:125|189:104,1,110.499994941712,0|0,0:0|0:0,0:0:0:0:
76,315,18396,6,0,P|123:343|177:335,1,110.499994941712,0|0,0:0|0:0,0:0:0:0:
177,335,18810,1,0,0:0:0:0:
315,243,19017,1,0,3:0:0:0:
327,267,19120,1,0,3:0:0:0:
338,292,19224,2,0,P|322:350|301:268,1,220.999989883423,8|0,0:0|0:0,0:0:0:0:
451,228,19845,6,0,P|414:188|417:134,1,110.499994941712,2|0,3:0|0:0,0:0:0:0:
251,145,20258,2,0,P|304:142|341:102,1,110.499994941712,2|0,3:0|0:0,0:0:0:0:
151,105,20672,1,0,3:0:0:0:
157,131,20776,1,0,3:0:0:0:
164,157,20879,5,10,0:0:0:0:
265,58,21086,1,0,0:0:0:0:
340,244,21293,1,2,0:0:0:0:
341,102,21500,1,0,0:0:0:0:
422,308,21707,6,0,P|381:345|327:345,1,110.499994941712,4|0,0:0|0:0,0:0:0:0:
328,345,22120,1,0,0:0:0:0:
141,276,22327,1,0,3:0:0:0:
149,301,22430,1,0,3:0:0:0:
159,326,22534,2,0,P|211:355|168:282,1,220.999989883423,8|0,0:0|0:0,0:0:0:0:
328,345,23155,6,0,P|330:290|309:239,1,110.499994941712,2|0,3:0|0:0,0:0:0:0:
161,178,23569,2,0,P|112:203|78:246,1,110.499994941712,2|0,3:0|0:0,0:0:0:0:
238,201,23982,1,0,3:0:0:0:
241,173,24086,1,0,3:0:0:0:
246,146,24189,2,0,B|251:87|251:87|293:115,1,110.499994941712,8|0,0:0|0:0,0:0:0:0:
182,31,24603,2,0,B|177:90|177:90|135:62,1,110.499994941712,0|0,0:0|0:0,0:0:0:0:
327,213,25017,6,0,P|373:183|395:133,1,110.499994941712,0|0,0:0|0:0,0:0:0:0:
395,133,25431,1,0,0:0:0:0:
482,273,25638,1,0,3:0:0:0:
459,258,25741,1,0,3:0:0:0:
434,244,25845,2,0,P|388:273|366:323,2,110.499994941712,8|2|2,0:0|0:0|0:0,0:0:0:0:
269,267,26465,6,0,B|224:233|224:233|213:179,1,110.499994941712,2|0,0:0|0:0,0:0:0:0:
118,338,26879,2,0,B|169:316|169:316|220:333,1,110.499994941712,0|0,0:0|0:0,0:0:0:0:
97,221,27293,1,0,3:0:0:0:
88,194,27396,1,0,3:0:0:0:
79,167,27500,2,0,L|90:53,2,110.499994941712,8|0|2,0:0|0:0|3:0,0:0:0:0:
60,146,28017,1,2,3:0:0:0:
42,125,28120,2,0,L|47:70,1,55.2499974708558,2|2,3:0|3:0,0:0:0:0:
186,65,28327,6,0,P|198:119|178:169,1,110.499994941712,4|0,0:0|0:0,0:0:0:0:
178,169,28741,1,0,0:0:0:0:
261,312,28948,1,0,3:0:0:0:
256,284,29051,1,0,3:0:0:0:
251,256,29155,2,0,P|336:284|263:335,1,220.999989883423,8|0,0:0|0:0,0:0:0:0:
98,361,29776,6,0,B|135:313|135:313|184:305,1,110.499994941712,2|0,3:0|0:0,0:0:0:0:
247,153,30189,2,0,B|270:209|270:209|251:255,1,110.499994941712,2|0,3:0|0:0,0:0:0:0:
91,209,30603,1,0,3:0:0:0:
95,181,30707,1,0,3:0:0:0:
100,153,30810,2,0,B|85:113|85:113|44:169,1,110.499994941712,8|0,0:0|0:0,0:0:0:0:
82,329,31224,2,0,B|97:368|97:368|138:313,1,110.499994941712,0|0,0:0|0:0,0:0:0:0:
302,352,31638,6,0,P|357:343|409:359,1,110.499994941712,0|0,0:0|0:0,0:0:0:0:
409,359,32051,1,0,0:0:0:0:
491,215,32258,1,0,3:0:0:0:
487,242,32362,1,0,3:0:0:0:
482,268,32465,2,0,P|397:269|461:195,1,220.999989883423,8|0,0:0|0:0,0:0:0:0:
349,58,33086,6,0,P|393:89|447:93,1,110.499994941712,2|0,3:0|0:0,0:0:0:0:
281,108,33500,2,0,P|275:162|299:211,1,110.499994941712,2|0,3:0|0:0,0:0:0:0:
159,123,33913,1,0,3:0:0:0:
178,103,34017,1,0,3:0:0:0:
195,81,34120,5,10,0:0:0:0:
217,222,34327,1,0,0:0:0:0:
110,53,34534,1,2,0:0:0:0:
25,168,34741,1,0,0:0:0:0:
201,299,34948,6,0,P|180:349|130:369,1,110.499994941712,4|0,0:0|0:0,0:0:0:0:
130,369,35362,1,0,0:0:0:0:
281,302,35569,1,0,3:0:0:0:
287,328,35672,1,0,3:0:0:0:
295,354,35776,2,0,P|375:340|307:272,1,220.999989883423,8|0,0:0|0:0,0:0:0:0:
147,317,36396,6,0,B|94:333|94:333|43:311,1,110.499994941712,2|0,3:0|0:0,0:0:0:0:
201,259,36810,2,0,B|150:237|150:237|97:253,1,110.499994941712,2|0,3:0|0:0,0:0:0:0:
81,87,37224,1,0,3:0:0:0:
88,113,37327,1,0,3:0:0:0:
95,138,37431,2,0,B|132:159|132:159|109:94,1,110.499994941712,8|0,0:0|0:0,0:0:0:0:
255,149,37845,2,0,B|218:129|218:129|241:194,1,110.499994941712,0|0,0:0|0:0,0:0:0:0:
98,13,38258,6,0,P|50:37|31:88,1,110.499994941712,0|0,0:0|0:0,0:0:0:0:
31,88,38672,1,0,0:0:0:0:
95,240,38879,1,0,3:0:0:0:
103,213,38982,1,0,3:0:0:0:
110,185,39086,2,0,P|180:241|94:265,1,220.999989883423,8|0,0:0|0:0,0:0:0:0:
266,189,39707,6,0,P|277:248|259:302,1,110.499994941712,0|0,0:0|0:0,0:0:0:0:
262,295,39965,6,0,L|274:344,1,27.6249987354279,0|0,0:0|0:0,0:0:0:0:
341,299,40120,2,0,L|354:353,1,55.2499974708558,0|0,0:0|0:0,0:0:0:0:
440,363,40327,6,0,L|427:309,3,55.2499974708558,0|0|0|0,0:0|0:0|0:0|0:0,0:0:0:0:
471,238,40741,2,0,L|423:209,3,55.2499974708558,8|0|0|0,0:0|3:0|3:0|3:0,0:0:0:0:
419,125,41155,2,0,L|365:137,3,55.2499974708558,2|2|2|2,3:0|3:0|3:0|3:0,0:0:0:0:
304,64,41569,6,0,L|263:55,3,42.5,0|0|0|0,3:0|3:0|3:0|3:0,0:0:0:0:
187,92,41982,2,0,P|159:153|170:224,1,127.5,8|0,3:0|0:0,0:0:0:0:
193,292,42396,2,0,L|179:348,3,42.5,0|0|0|0,3:0|3:0|3:0|3:0,0:0:0:0:
101,359,42810,5,8,3:0:0:0:
269,333,43017,1,2,0:0:0:0:
432,287,43224,2,0,L|418:231,3,42.5,0|0|0|0,3:0|3:0|3:0|3:0,0:0:0:0:
340,220,43638,1,8,3:0:0:0:
508,246,43845,1,2,0:0:0:0:
383,360,44051,5,0,3:0:0:0:
365,348,44154,1,0,3:0:0:0:
347,336,44258,1,0,3:0:0:0:
329,325,44361,1,0,3:0:0:0:
311,313,44465,6,0,P|281:338|268:382,2,85,8|8|0,3:0|3:0|3:0,0:0:0:0:
329,302,44982,1,0,3:0:0:0:
348,293,45086,2,0,L|340:217,1,42.5,0|0,3:0|3:0,0:0:0:0:
277,196,45293,2,0,P|240:125|265:56,1,127.5,8|0,3:0|0:0,0:0:0:0:
169,47,45707,2,0,L|111:54,3,42.5,0|0|0|0,3:0|3:0|3:0|3:0,0:0:0:0:
86,126,46120,5,8,3:0:0:0:
248,81,46327,1,2,0:0:0:0:
127,200,46534,2,0,L|185:207,3,42.5,0|0|0|0,3:0|3:0|3:0|3:0,0:0:0:0:
210,279,46947,1,8,3:0:0:0:
48,234,47154,1,2,0:0:0:0:
164,108,47362,5,2,3:0:0:0:
184,111,47465,1,2,3:0:0:0:
205,114,47569,1,2,3:0:0:0:
225,117,47672,1,0,3:0:0:0:
245,120,47776,2,0,P|260:105|270:82,1,42.5,8|0,3:0|3:0,0:0:0:0:
344,46,47982,2,0,P|351:65|351:86,1,42.5,8|0,3:0|3:0,0:0:0:0:
314,163,48189,6,0,L|318:205,3,42.5,0|0|0|0,3:0|3:0|3:0|3:0,0:0:0:0:
369,273,48603,2,0,P|324:316|262:313,1,127.5,8|0,3:0|0:0,0:0:0:0:
181,341,49017,2,0,L|126:357,3,42.5,0|0|0|0,3:0|3:0|3:0|3:0,0:0:0:0:
55,342,49431,5,8,3:0:0:0:
204,258,49638,1,2,0:0:0:0:
48,190,49845,2,0,L|103:174,3,42.5,0|0|0|0,3:0|3:0|3:0|3:0,0:0:0:0:
174,189,50259,1,8,3:0:0:0:
25,273,50466,1,2,0:0:0:0:
204,258,50672,5,0,3:0:0:0:
222,268,50776,1,0,3:0:0:0:
240,278,50879,1,0,3:0:0:0:
258,288,50982,1,0,3:0:0:0:
275,297,51086,6,0,P|280:339|262:377,2,85,10|8|0,3:0|3:0|3:0,0:0:0:0:
269,277,51603,1,0,3:0:0:0:
262,256,51707,2,0,L|268:203,1,42.5,0|0,3:0|3:0,0:0:0:0:
346,184,51913,2,0,P|379:131|437:107,1,127.5,8|0,3:0|0:0,0:0:0:0:
492,41,52327,2,0,L|437:30,3,42.5,0|0|0|0,3:0|3:0|3:0|3:0,0:0:0:0:
366,50,52741,5,8,3:0:0:0:
441,202,52948,1,2,0:0:0:0:
307,307,53155,6,0,L|362:318,3,42.5,0|0|0|0,3:0|3:0|3:0|3:0,0:0:0:0:
232,284,53569,2,0,L|197:308,3,42.5,8|0|8|0,3:0|3:0|3:0|3:0,0:0:0:0:
281,220,53982,6,0,L|322:228,3,42.5,0|0|0|0,3:0|3:0|3:0|3:0,0:0:0:0:
160,236,54396,2,0,L|125:260,3,42.5,2|2|2|2,3:0|3:0|3:0|3:0,0:0:0:0:
212,154,54810,6,0,L|202:112,1,42.5,6|0,0:0|0:0,0:0:0:0:
290,261,55224,2,0,L|280:219,1,42.5,2|0,0:0|0:0,0:0:0:0:
376,378,55638,6,0,P|366:336|381:293,1,85,2|0,0:0|3:0,0:0:0:0:
392,280,55948,1,0,3:0:0:0:
405,263,56051,2,0,P|414:221|400:177,1,85,0|0,3:0|0:0,0:0:0:0:
328,27,56465,6,0,L|325:83,2,42.5,0|0|0,3:0|3:0|3:0,0:0:0:0:
212,154,56879,6,0,L|202:112,1,42.5,0|0,0:0|0:0,0:0:0:0:
208,64,57086,2,0,L|218:106,1,42.5,0|0,0:0|0:0,0:0:0:0:
320,160,57293,6,0,L|317:216,2,42.5,0|0|0,3:0|3:0|3:0,0:0:0:0:
157,239,57707,6,0,L|147:197,1,42.5,2|0,0:0|0:0,0:0:0:0:
125,355,58120,2,0,L|115:313,1,42.5,2|0,0:0|0:0,0:0:0:0:
311,289,58431,6,0,L|308:345,2,42.5,0|0|0,3:0|3:0|0:0,0:0:0:0:
394,314,58741,1,0,0:0:0:0:
224,348,58948,6,0,L|237:186,1,127.5,2|2,0:0|0:0,0:0:0:0:
234,220,59362,2,0,B|204:196|204:196|157:200,1,85,2|0,0:0|0:0,0:0:0:0:
297,165,59776,6,0,L|265:138,3,42.5,0|0|0|0,3:0|3:0|3:0|3:0,0:0:0:0:
309,245,60189,2,0,P|350:258|391:253,1,85,0|0,0:0|0:0,0:0:0:0:
468,207,60500,1,0,0:0:0:0:
468,207,60603,6,0,L|478:255,3,42.5,0|0|0|0,3:0|3:0|3:0|3:0,0:0:0:0:
388,295,61017,2,0,L|391:253,3,42.5,2|2|2|2,3:0|3:0|3:0|3:0,0:0:0:0:
271,182,61431,6,0,L|288:231,1,42.5,6|0,0:0|0:0,0:0:0:0:
184,108,61845,2,0,L|201:157,1,42.5,2|0,0:0|0:0,0:0:0:0:
101,34,62258,6,0,P|77:70|72:111,1,85,2|0,0:0|3:0,0:0:0:0:
81,132,62569,1,0,3:0:0:0:
92,150,62672,2,0,P|86:191|63:226,1,85,0|0,3:0|0:0,0:0:0:0:
204,357,63086,6,0,L|140:351,2,42.5,0|0|0,3:0|3:0|3:0,0:0:0:0:
307,293,63500,6,0,L|324:342,1,42.5,0|0,0:0|0:0,0:0:0:0:
279,310,63707,2,0,L|265:269,1,42.5,0|0,0:0|0:0,0:0:0:0:
341,202,63913,6,0,L|383:205,2,42.5,0|0|0,3:0|3:0|3:0,0:0:0:0:
172,168,64327,6,0,L|185:208,1,42.5,2|0,0:0|0:0,0:0:0:0:
73,109,64741,2,0,L|86:149,1,42.5,2|0,0:0|0:0,0:0:0:0:
261,171,65155,6,0,L|303:174,2,42.5,0|0|0,3:0|0:0|0:0,0:0:0:0:
185,208,65465,1,0,0:0:0:0:
371,239,65569,6,0,P|391:179|372:119,1,127.5,2|2,0:0|0:0,0:0:0:0:
372,119,65982,2,0,B|409:105|409:105|453:113,1,85,2|0,0:0|0:0,0:0:0:0:
316,57,66396,6,0,L|276:72,3,42.5,0|0|0|0,3:0|3:0|3:0|3:0,0:0:0:0:
246,150,66810,2,0,P|193:159|138:139,1,85,0|0,0:0|0:0,0:0:0:0:
85,115,67120,1,0,0:0:0:0:
85,115,67224,6,0,L|79:163,3,42.5,0|0|0|0,3:0|3:0|3:0|3:0,0:0:0:0:
137,238,67638,2,0,L|143:286,3,42.5,2|2|2|2,3:0|3:0|3:0|3:0,0:0:0:0:
81,363,68051,5,4,2:0:0:0:
411,279,69707,1,4,0:0:0:0:
332,78,75913,6,0,L|339:119,3,42.5,0|0|0|0,3:0|3:0|3:0|3:0,0:0:0:0:
406,36,76327,6,0,L|422:120,1,85,4|0,0:0|0:0,0:0:0:0:
422,264,76741,2,0,L|406:347,1,85,0|0,0:0|0:0,0:0:0:0:
347,161,77155,2,0,L|331:77,1,85,0|0,0:0|0:0,0:0:0:0:
347,223,77568,2,0,L|331:306,1,85,0|0,0:0|0:0,0:0:0:0:
151,356,77982,6,0,B|195:362|195:362|249:356,1,85,4|0,0:0|0:0,0:0:0:0:
71,320,78396,2,0,P|95:285|134:270,1,85,0|0,0:0|0:0,0:0:0:0:
319,356,78810,2,0,B|275:362|275:362|221:356,1,85,4|0,0:0|0:0,0:0:0:0:
398,321,79224,2,0,P|374:286|335:270,1,85,0|0,0:0|0:0,0:0:0:0:
240,127,79638,6,0,L|243:211,1,85,4|0,0:0|0:0,0:0:0:0:
146,60,80051,2,0,L|149:144,1,85,0|0,0:0|0:0,0:0:0:0:
327,210,80465,2,0,L|331:126,1,85,0|0,0:0|0:0,0:0:0:0:
421,143,80878,2,0,L|425:59,1,85,0|0,0:0|0:0,0:0:0:0:
441,43,81189,1,0,0:0:0:0:
458,30,81293,6,0,L|456:72,1,42.5,4|8,0:0|0:0,0:0:0:0:
481,102,81500,2,0,L|479:144,1,42.5,2|0,0:0|0:0,0:0:0:0:
500,206,81707,6,0,L|502:164,3,42.5,8|0|0|8,0:0|0:0|0:0|0:0,0:0:0:0:
442,266,82120,2,0,L|454:225,3,42.5,8|0|0|8,0:0|0:0|0:0|0:0,0:0:0:0:
372,319,82534,2,0,L|394:283,3,42.5,8|0|0|0,0:0|0:0|0:0|0:0,0:0:0:0:
271,321,82948,6,0,L|248:356,2,42.5,0|0|0,3:0|3:0|3:0,0:0:0:0:
264,300,83258,1,0,3:0:0:0:
255,280,83362,1,8,3:0:0:0:
136,140,83776,2,0,L|117:103,2,42.5,0|0|0,3:0|3:0|3:0,0:0:0:0:
158,144,84086,1,0,3:0:0:0:
180,147,84190,1,8,3:0:0:0:
360,114,84603,6,0,L|402:116,2,42.5,4|0|0,3:0|3:0|3:0,0:0:0:0:
345,131,84913,1,0,3:0:0:0:
332,148,85017,1,8,3:0:0:0:
490,195,85431,2,0,L|467:230,2,42.5,4|0|0,3:0|3:0|3:0,0:0:0:0:
482,174,85741,1,0,3:0:0:0:
473,154,85845,1,8,3:0:0:0:
157,117,86258,6,0,L|176:154,2,42.5,4|0|0,3:0|3:0|3:0,0:0:0:0:
135,114,86568,1,0,3:0:0:0:
113,112,86672,1,8,3:0:0:0:
157,267,87086,2,0,L|176:229,2,42.5,0|0|0,3:0|3:0|3:0,0:0:0:0:
135,270,87396,1,0,3:0:0:0:
113,272,87500,1,8,3:0:0:0:
355,267,87913,6,0,L|335:229,2,42.5,4|0|0,3:0|3:0|3:0,0:0:0:0:
377,270,88223,1,0,3:0:0:0:
399,272,88327,1,8,3:0:0:0:
450,123,88741,2,0,L|469:160,2,42.5,6|0|2,3:0|3:0|3:0,0:0:0:0:
428,120,89051,1,0,3:0:0:0:
400,117,89155,6,0,P|385:103|374:85,1,42.5,2|2,3:0|3:0,0:0:0:0:
273,85,89362,2,0,P|262:103|246:117,1,42.5,2|2,3:0|3:0,0:0:0:0:
197,123,89569,6,0,L|178:161,2,42.5,4|0|0,3:0|3:0|3:0,0:0:0:0:
176,119,89879,1,0,3:0:0:0:
155,115,89982,1,8,3:0:0:0:
226,277,90396,2,0,L|268:275,2,42.5,0|0|0,3:0|3:0|3:0,0:0:0:0:
232,297,90706,1,0,3:0:0:0:
239,317,90809,1,8,3:0:0:0:
344,175,91224,6,0,L|321:139,2,42.5,4|0|0,3:0|3:0|3:0,0:0:0:0:
359,159,91534,1,0,3:0:0:0:
373,143,91637,1,8,3:0:0:0:
323,22,92051,2,0,L|345:57,2,42.5,4|0|0,3:0|3:0|3:0,0:0:0:0:
308,38,92361,1,0,3:0:0:0:
294,54,92464,1,8,3:0:0:0:
218,174,92672,1,2,0:0:0:0:
80,143,92879,6,0,L|102:107,2,42.5,4|0|0,3:0|3:0|3:0,0:0:0:0:
83,164,93189,1,0,3:0:0:0:
86,185,93293,1,8,3:0:0:0:
301,368,93707,2,0,L|259:367,2,42.5,0|0|0,3:0|3:0|3:0,0:0:0:0:
318,355,94017,1,0,3:0:0:0:
334,342,94121,1,8,3:0:0:0:
436,268,94534,6,0,L|455:305,2,42.5,6|0|2,3:0|3:0|3:0,0:0:0:0:
416,260,94844,1,0,3:0:0:0:
396,251,94948,2,0,L|376:288,2,42.5,2|0|2,3:0|3:0|3:0,0:0:0:0:
415,243,95258,1,0,3:0:0:0:
433,234,95362,6,0,P|437:213|439:192,1,42.5,6|0,3:0|3:0,0:0:0:0:
358,188,95569,2,0,P|346:169|332:154,1,42.5,0|0,3:0|3:0,0:0:0:0:
281,221,95776,2,0,P|260:216|239:214,1,42.5,8|0,3:0|3:0,0:0:0:0:
234,295,95983,2,0,P|215:306|200:320,1,42.5,0|0,3:0|3:0,0:0:0:0:
274,373,96189,5,2,3:0:0:0:
264,346,98672,6,0,B|335:272|271:187|271:187|297:219|297:219|334:218|334:218|302:175,1,297.5,4|0,2:0|2:0,0:0:0:0:
308,183,99500,6,0,P|286:132|292:78,1,110.499994941712,4|0,0:0|0:0,0:0:0:0:
292,78,99914,1,0,0:0:0:0:
397,231,100121,1,0,3:0:0:0:
393,204,100224,1,0,3:0:0:0:
389,177,100327,2,0,P|420:136|416:220,1,220.999989883423,8|0,0:0|0:0,0:0:0:0:
221,275,100948,6,0,B|275:266|275:266|325:289,1,110.499994941712,2|0,3:0|0:0,0:0:0:0:
119,348,101362,2,0,B|97:299|97:299|104:243,1,110.499994941712,2|0,3:0|0:0,0:0:0:0:
346,366,101776,1,0,3:0:0:0:
373,359,101879,1,0,3:0:0:0:
401,351,101983,2,0,B|453:329|453:329|404:308,1,110.499994941712,8|0,0:0|0:0,0:0:0:0:
327,246,102396,2,0,B|275:268|275:268|324:289,1,110.499994941712,0|0,0:0|0:0,0:0:0:0:
436,69,102810,6,0,P|389:41|335:49,1,110.499994941712,0|0,0:0|0:0,0:0:0:0:
335,49,103224,1,0,0:0:0:0:
178,140,103431,1,0,3:0:0:0:
166,116,103534,1,0,3:0:0:0:
155,91,103638,2,0,P|171:33|192:115,1,220.999989883423,8|0,0:0|0:0,0:0:0:0:
314,288,104259,6,0,P|260:290|220:253,1,110.499994941712,2|0,3:0|0:0,0:0:0:0:
48,276,104672,2,0,P|72:228|124:212,1,110.499994941712,2|0,3:0|0:0,0:0:0:0:
291,213,105086,1,0,0:0:0:0:
297,187,105190,1,0,0:0:0:0:
304,161,105293,5,10,0:0:0:0:
129,292,105500,1,0,0:0:0:0:
155,91,105707,1,2,0:0:0:0:
220,253,105914,1,0,0:0:0:0:
443,194,106121,6,0,P|465:146|461:80,1,110.499994941712,4|0,0:0|0:0,0:0:0:0:
463,89,106534,1,0,0:0:0:0:
288,84,106741,1,0,3:0:0:0:
296,109,106844,1,0,3:0:0:0:
306,134,106948,2,0,P|358:163|315:90,1,220.999989883423,8|0,0:0|0:0,0:0:0:0:
274,245,107569,6,0,P|272:300|293:351,1,110.499994941712,2|0,3:0|0:0,0:0:0:0:
201,202,107982,2,0,P|154:232|99:239,1,110.499994941712,2|0,3:0|0:0,0:0:0:0:
221,53,108396,1,0,3:0:0:0:
199,70,108500,1,0,3:0:0:0:
176,86,108603,2,0,B|130:124|130:124|120:74,1,110.499994941712,8|0,0:0|0:0,0:0:0:0:
244,134,109017,2,0,B|289:95|289:95|299:145,1,110.499994941712,0|0,0:0|0:0,0:0:0:0:
248,377,109431,6,0,P|236:323|256:272,1,110.499994941712,0|0,0:0|0:0,0:0:0:0:
256,272,109845,1,0,0:0:0:0:
463,319,110052,1,0,3:0:0:0:
440,334,110155,1,0,3:0:0:0:
415,348,110259,2,0,P|369:319|347:269,2,110.499994941712,8|2|2,0:0|0:0|0:0,0:0:0:0:
418,140,110879,6,0,B|463:105|463:105|473:52,1,110.499994941712,2|0,0:0|0:0,0:0:0:0:
350,190,111293,2,0,B|299:168|299:168|248:185,1,110.499994941712,0|0,0:0|0:0,0:0:0:0:
95,33,111707,1,0,3:0:0:0:
86,60,111810,1,0,3:0:0:0:
81,88,111914,2,0,L|92:202,1,110.499994941712,8|0,0:0|3:0,0:0:0:0:
91,197,112224,6,0,L|40:207,1,27.6249987354279,0|0,3:0|3:0,0:0:0:0:
137,267,112327,6,0,L|61:283,1,55.2499974708558,2|2,3:0|3:0,0:0:0:0:
182,337,112534,2,0,L|106:353,1,55.2499974708558,2|2,3:0|3:0,0:0:0:0:
259,378,112741,6,0,P|269:324|246:275,1,110.499994941712,4|0,0:0|0:0,0:0:0:0:
246,275,113155,1,0,0:0:0:0:
408,190,113362,1,0,3:0:0:0:
432,201,113465,1,0,3:0:0:0:
459,214,113569,2,0,P|453:124|385:181,1,220.999989883423,8|0,0:0|0:0,0:0:0:0:
414,46,114190,6,0,B|361:64|361:64|324:110,1,110.499994941712,2|0,3:0|0:0,0:0:0:0:
98,46,114603,2,0,B|151:64|151:64|188:110,1,110.499994941712,2|0,3:0|0:0,0:0:0:0:
111,289,115017,1,0,3:0:0:0:
110,260,115121,1,0,3:0:0:0:
110,232,115224,2,0,B|88:195|88:195|57:257,1,110.499994941712,8|0,0:0|0:0,0:0:0:0:
261,317,115638,2,0,B|246:356|246:356|205:301,1,110.499994941712,0|0,0:0|0:0,0:0:0:0:
438,273,116052,6,0,P|432:328|403:374,1,110.499994941712,0|0,0:0|0:0,0:0:0:0:
403,373,116465,1,0,0:0:0:0:
219,293,116672,1,0,3:0:0:0:
223,266,116776,1,0,3:0:0:0:
228,240,116879,2,0,P|313:239|249:313,1,220.999989883423,8|0,0:0|0:0,0:0:0:0:
71,248,117500,6,0,P|80:301|115:342,1,110.499994941712,2|0,3:0|0:0,0:0:0:0:
182,145,117913,2,0,P|218:185|227:239,1,110.499994941712,2|0,3:0|0:0,0:0:0:0:
98,98,118327,1,0,0:0:0:0:
92,125,118431,1,0,0:0:0:0:
83,151,118534,5,10,0:0:0:0:
188,45,118741,1,0,0:0:0:0:
131,226,118948,1,2,0:0:0:0:
11,99,119155,1,0,0:0:0:0:
213,155,119362,6,0,B|267:145|267:145|303:99,1,110.499994941712,4|0,0:0|0:0,0:0:0:0:
301,101,119776,1,0,0:0:0:0:
442,219,119983,1,0,3:0:0:0:
436,193,120086,1,0,3:0:0:0:
428,167,120190,2,0,P|348:181|416:249,1,220.999989883423,8|0,0:0|0:0,0:0:0:0:
282,118,120810,6,0,P|324:84|377:70,1,110.499994941712,2|0,3:0|0:0,0:0:0:0:
283,296,121224,2,0,P|325:331|378:345,1,110.499994941712,2|0,3:0|0:0,0:0:0:0:
228,209,121638,1,0,3:0:0:0:
202,216,121741,1,0,3:0:0:0:
174,222,121845,2,0,B|121:211|121:211|153:165,1,110.499994941712,8|0,0:0|0:0,0:0:0:0:
114,344,122258,2,0,B|147:299|147:299|94:288,1,110.499994941712,0|0,0:0|0:0,0:0:0:0:
201,98,122672,6,0,B|234:56|234:56|288:40,1,110.499994941712,0|0,0:0|0:0,0:0:0:0:
288,40,123086,1,0,0:0:0:0:
340,190,123293,1,0,3:0:0:0:
315,203,123396,1,0,3:0:0:0:
290,218,123500,2,0,P|280:128|357:172,1,220.999989883423,8|0,0:0|0:0,0:0:0:0:
480,357,124120,6,0,L|487:276,1,55.2499974708558,0|0,0:0|0:0,0:0:0:0:
485,274,124327,6,0,P|462:257|436:250,3,55.2499974708558,2|0|0|0,3:0|0:0|0:0|0:0,0:0:0:0:
344,308,124741,2,0,P|366:324|392:331,2,55.2499974708558,2|0|0,3:0|0:0|0:0,0:0:0:0:
320,292,125051,1,0,0:0:0:0:
304,269,125155,6,0,L|295:214,3,55.2499974708558,8|0|0|0,1:0|3:0|3:0|3:0,0:0:0:0:
242,151,125569,2,0,L|247:96,3,55.2499974708558,2|2|2|2,3:0|3:0|3:0|3:0,0:0:0:0:
363,49,125983,6,0,L|302:57,3,42.5,0|0|0|0,3:0|3:0|3:0|3:0,0:0:0:0:
346,132,126396,2,0,P|408:141|455:100,1,127.5,8|0,3:0|0:0,0:0:0:0:
500,178,126810,2,0,L|489:219,3,42.5,0|0|0|0,3:0|3:0|3:0|3:0,0:0:0:0:
404,243,127224,2,0,P|390:302|422:372,1,127.5,8|0,3:0|0:0,0:0:0:0:
319,358,127638,2,0,L|308:316,3,42.5,0|0|0|0,3:0|3:0|3:0|3:0,0:0:0:0:
227,288,128051,2,0,L|198:160,1,127.5,8|0,3:0|0:0,0:0:0:0:
198,163,128465,5,0,3:0:0:0:
219,159,128568,1,0,3:0:0:0:
241,155,128672,1,0,3:0:0:0:
261,150,128775,1,0,3:0:0:0:
282,146,128879,6,0,B|312:121|312:121|325:77,2,85,8|8|0,3:0|3:0|3:0,0:0:0:0:
266,131,129396,1,0,3:0:0:0:
250,116,129500,2,0,L|236:75,1,42.5,0|0,3:0|3:0,0:0:0:0:
157,41,129707,6,0,P|99:65|40:46,1,127.5,8|0,3:0|0:0,0:0:0:0:
54,136,130120,2,0,L|40:176,3,42.5,0|0|0|0,3:0|3:0|3:0|3:0,0:0:0:0:
126,182,130534,2,0,P|147:241|146:304,1,127.5,8|0,3:0|0:0,0:0:0:0:
78,355,130948,2,0,L|35:349,3,42.5,0|0|0|0,3:0|3:0|3:0|3:0,0:0:0:0:
146,304,131362,2,0,P|206:286|269:291,1,127.5,8|0,3:0|0:0,0:0:0:0:
269,291,131776,5,0,3:0:0:0:
272,271,131879,1,0,3:0:0:0:
275,250,131983,1,0,3:0:0:0:
278,230,132086,1,0,3:0:0:0:
280,208,132190,6,0,P|299:197|320:193,1,42.5,2|2,3:0|3:0,0:0:0:0:
397,195,132396,2,0,P|417:199|436:208,1,42.5,2|2,3:0|3:0,0:0:0:0:
362,128,132603,6,0,L|358:86,3,42.5,0|0|0|0,3:0|3:0|3:0|3:0,0:0:0:0:
443,44,133017,2,0,P|435:63|435:85,1,42.5,8|0,3:0|3:0,0:0:0:0:
444,167,133224,2,0,P|443:188|436:208,1,42.5,0|0,3:0|3:0,0:0:0:0:
376,275,133431,6,0,L|306:267,3,44.6249986381531,0|0|0|0,3:0|3:0|3:0|3:0,0:0:0:0:
242,287,133845,2,0,P|229:304|222:325,1,44.6249986381531,8|0,3:0|3:0,0:0:0:0:
133,325,134051,2,0,P|125:303|112:286,1,44.6249986381531,0|0,3:0|3:0,0:0:0:0:
27,245,134258,6,0,L|43:190,3,46.7500014266968,0|0|0|0,3:0|3:0|3:0|3:0,0:0:0:0:
129,175,134672,2,0,P|151:167|169:151,1,46.7500014266968,8|0,3:0|3:0,0:0:0:0:
224,79,134879,2,0,P|233:57|235:34,1,46.7500014266968,0|0,3:0|3:0,0:0:0:0:
137,44,135086,6,0,L|100:86,3,48.8750009322167,0|0|0|0,3:0|3:0|3:0|3:0,0:0:0:0:
169,151,135500,2,0,L|173:260,1,97.7500018644333,8|0,3:0|3:0,0:0:0:0:
193,268,135810,1,0,3:0:0:0:
214,285,135913,6,0,L|266:295,1,50.9999984436036,8|0,3:0|3:0,0:0:0:0:
361,263,136120,2,0,L|413:273,1,50.9999984436036,0|0,3:0|3:0,0:0:0:0:
448,177,136327,2,0,L|397:167,1,50.9999984436036,10|2,3:0|3:0,0:0:0:0:
301,199,136534,2,0,L|250:189,1,50.9999984436036,2|2,3:0|3:0,0:0:0:0:
151,151,136741,6,0,P|133:131|125:106,1,53.125,8|0,3:0|3:0,0:0:0:0:
23,100,136948,2,0,P|24:73|37:50,1,53.125,0|0,3:0|3:0,0:0:0:0:
140,55,137155,2,0,P|138:82|125:105,1,53.125,10|2,3:0|3:0,0:0:0:0:
94,207,137362,2,0,P|101:232|119:251,1,53.125,2|2,3:0|3:0,0:0:0:0:
211,313,137569,6,0,L|299:305,1,55.2499974708558,8|0,3:0|3:0,0:0:0:0:
159,339,137776,2,0,L|247:331,1,55.2499974708558,8|0,3:0|3:0,0:0:0:0:
261,234,137982,2,0,L|205:239,1,55.2499974708558,2|2,3:0|3:0,0:0:0:0:
313,208,138189,2,0,L|257:213,1,55.2499974708558,2|2,3:0|3:0,0:0:0:0:
365,284,138396,5,8,3:0:0:0:
386,263,138500,1,8,3:0:0:0:
400,237,138603,1,8,3:0:0:0:
404,207,138707,1,8,3:0:0:0:
400,178,138810,1,8,3:0:0:0:
387,152,138913,1,8,3:0:0:0:
366,131,139017,1,8,3:0:0:0:
339,118,139120,1,8,3:0:0:0:
310,113,139224,1,4,2:0:0:0:
256,192,139845,12,4,140879,0:0:0:0:
256,192,140982,12,2,144189,0:0:0:0:
