osu file format v9

[General]
AudioFilename: Dichromatic Lotus Butterfly ~ Ancients - UNL.mp3
AudioLeadIn: 0
PreviewTime: -1
Countdown: 1
SampleSet: Normal
StackLeniency: 0.7
Mode: 0
LetterboxInBreaks: 1

[Editor]
DistanceSpacing: 0.8
BeatDivisor: 4
GridSize: 8

[Metadata]
Title:Dichromatic Lotus Butterfly ~ Ancients
Artist:Unthinkable Natural Law
Creator:SpacemanSpiff
Version:Hard
Source:Touhou
Tags:

[Difficulty]
HPDrainRate:5
CircleSize:5
OverallDifficulty:5
ApproachRate:8
SliderMultiplier:1.7
SliderTickRate:1

[Events]
//Background and Video events
//Break Periods
2,72215,79815
//Storyboard Layer 0 (Background)
//Storyboard Layer 1 (Fail)
//Storyboard Layer 2 (Pass)
//Storyboard Layer 3 (Foreground)
//Storyboard Sound Samples
//Background Colour Transformations
3,100,163,162,255

[TimingPoints]
4815,300,4,1,0,100,1,0

[Colours]
Combo1 : 0,0,0
Combo2 : 172,0,0
Combo3 : 135,183,255
Combo4 : 221,111,111
Combo5 : 255,255,87

[HitObjects]
96,128,4815,1,0
32,96,4965,1,0
96,128,5115,1,0
48,192,5265,1,0
96,256,5415,1,0
32,288,5565,1,0
256,320,5865,5,0
480,288,6165,1,0
416,256,6315,1,0
456,192,6465,1,0
416,128,6615,1,0
376,192,6765,1,0
224,160,7065,5,0
57,329,7365,1,0
128,288,7515,2,0,B|32:224,2,85
160,224,7965,1,0
312,333,8265,5,0
422,273,8565,1,0
448,192,8865,2,0,B|384:192|352:128,1,85
448,96,9165,1,0
352,64,9315,2,0,B|288:32|256:96,1,85
79,119,9765,5,0
96,192,9915,1,0
141,257,10065,1,0
206,298,10215,1,0
281,273,10365,1,0
448,104,10665,5,0
317,137,10965,1,0
267,196,11115,1,0
329,236,11265,1,0
381,288,11415,1,0
325,342,11565,1,0
392,200,11865,5,0
256,224,12165,1,0
264,136,12315,1,0
192,160,12465,2,0,B|128:224|128:192,1,85
80,264,12765,1,0
248,352,13065,5,0
368,334,13365,1,0
460,256,13665,1,0
360,72,13965,1,0
264,104,14115,1,0
336,168,14265,1,0
248,200,14415,1,0
160,328,14715,5,0
80,336,14865,1,0
112,264,15015,1,0
160,328,15165,1,0
80,128,15465,5,0
200,56,15765,2,0,B|184:112|264:120|264:96,1,85
248,176,16065,2,0,B|312:168|304:96,1,85
352,184,16365,1,0
440,80,16665,5,0
472,216,16965,1,0
400,192,17115,2,0,B|408:256|408:280|464:264,1,85
376,328,17415,1,0
456,344,17565,1,0
120,328,17865,5,0
120,48,18165,1,0
176,208,18465,1,0
256,248,18615,1,0
248,160,18765,1,0
336,272,18915,1,0
320,112,19065,1,0
416,112,19365,5,0
416,112,19515,1,0
464,192,19665,1,0
408,272,19815,1,0
360,192,19965,1,0
232,336,20265,5,0
104,320,20565,1,0
120,248,20715,2,0,B|96:200|96:200|120:176,1,85
56,136,21015,1,0
112,72,21165,1,0
400,80,21465,5,0
448,272,21765,2,0,B|408:336|352:280|368:304,2,85
464,168,22215,1,0
400,80,22365,1,0
280,328,22665,5,0
184,280,22965,1,0
256,224,23265,1,0
184,280,23415,1,0
280,328,23565,1,0
352,248,23715,1,0
280,328,23865,1,0
184,280,24015,5,0
96,176,24315,1,0
96,176,24465,1,0
232,64,24765,1,0
376,120,25065,1,0
448,248,25365,1,0
376,320,25515,1,0
448,248,25665,1,0
376,320,25815,1,0
376,120,26115,1,0
240,304,26415,5,0
352,176,26715,1,0
352,176,26865,1,0
328,296,27165,1,0
256,96,27465,1,0
72,208,27765,1,0
160,256,27915,1,0
96,184,28065,1,0
136,272,28215,1,0
256,96,28515,1,0
472,160,28815,5,0
424,288,29115,2,0,B|368:344|320:304,1,85
472,160,29565,1,0
288,176,29865,1,0
120,192,30165,2,0,B|88:248|32:208,1,85
120,192,30465,2,0,B|144:152|208:184,1,85
112,320,30915,1,0
248,320,31215,5,0
424,256,31515,2,0,B|464:232|416:184,1,85
304,88,31965,1,0
184,264,32265,1,0
304,88,32565,1,0
176,128,32865,2,0,B|128:144|88:112,1,85
256,232,33315,1,0
304,88,33615,5,0
416,112,33915,1,0
448,144,34065,2,0,B|488:168|496:192|456:208|424:208,1,85
454,202,34365,2,0,B|408:216|432:256|496:272,1,85
488,304,34665,1,0
392,336,34965,1,0
296,336,35115,1,0
344,272,35265,1,0
208,192,35565,6,0,B|136:224|128:144,2,85
184,128,36015,1,0
360,88,36315,1,0
408,128,36465,1,0
360,168,36615,1,0
456,288,36915,1,0
416,336,37065,1,0
264,320,37365,1,0
144,256,37665,1,0
136,128,37965,5,0
192,88,38115,2,0,B|224:48|288:72,1,85
336,88,38415,1,0
256,192,38715,1,0
416,176,39015,1,0
472,224,39165,1,0
416,176,39315,1,0
408,248,39465,1,0
288,312,39765,1,0
384,320,40065,1,0
352,192,40365,5,0
280,216,40515,1,0
232,168,40665,1,0
200,224,40815,1,0
112,48,41415,1,0
56,128,41715,2,0,B|96:152|80:184|48:184,1,85
104,304,42165,1,0
176,328,42315,1,0
248,352,42465,1,0
400,328,42765,5,0
416,264,42915,1,0
432,192,43065,1,0
448,128,43215,1,0
224,64,43665,2,0,B|144:104,1,85
224,64,43965,2,0,B|320:112,1,85
224,144,44265,1,0
128,216,44565,1,0
80,272,44715,1,0
136,320,44865,1,0
312,336,45165,5,0
384,320,45315,1,0
384,320,45465,2,0,B|464:240,1,85
432,184,46065,1,0
355,150,46215,2,0,B|312:99|344:59,1,85
337,73,46515,2,0,B|384:60|408:108,1,85
288,208,46965,1,0
272,272,47115,1,0
256,336,47265,1,0
80,304,47565,5,0
96,232,47715,1,0
112,160,47865,1,0
128,88,48015,1,0
264,64,48615,1,0
400,112,49065,1,0
384,288,49365,1,0
200,320,49665,1,0
200,200,49965,5,0
232,128,50115,2,0,B|296:224,1,85
312,128,50415,1,0
472,88,50865,1,0
440,152,51015,2,0,B|480:176|456:200|432:216,2,85
392,96,51465,1,0
240,40,51765,1,0
168,40,51915,1,0
200,96,52065,1,0
168,40,52215,5,0
136,96,52365,1,0
64,96,52515,1,0
96,152,52665,1,0
64,96,52815,1,0
152,280,53265,1,0
224,232,53565,2,0,B|264:320,1,85
320,272,53865,2,0,B|400:320,1,85
440,200,54465,1,0
480,136,54765,2,0,B|432:48,1,85
376,32,55065,2,0,B|328:104,1,85
192,88,55665,1,0
88,144,55965,2,0,B|48:176|96:216,1,85
64,272,56265,1,0
128,272,56415,1,0
224,320,56715,1,0
336,296,57015,1,0
416,240,57315,1,0
456,144,57615,1,0
184,232,58065,1,0
200,112,58365,1,0
248,56,58515,1,0
288,120,58665,2,0,B|344:128|288:184,1,85
208,304,59115,1,0
288,288,59265,1,0
368,176,59565,1,0
440,160,59715,2,0,B|488:160|472:192|424:216,2,85
192,192,60390,2,0,B|136:192,1,42.5
120,80,60765,1,0
184,40,60915,1,0
120,80,61065,1,0
184,128,61215,1,0
384,200,61965,2,0,B|416:240,5,42.5
384,200,62415,1,0
280,280,62865,1,0
224,88,63165,1,0
264,168,63315,1,0
312,96,63465,1,0
384,56,63615,1,0
468,184,64065,1,0
405,272,64365,2,0,B|307:313|306:311,2,85
483,295,64815,1,0
400,104,65265,1,0
312,200,65565,1,0
192,208,65715,1,0
248,144,65865,1,0
256,256,66015,1,0
256,192,66165,12,0,66915
216,192,67215,5,0
344,96,67665,1,0
440,152,67965,2,0,B|496:192|432:256|424:240,1,85
408,176,68265,2,0,B|429:221|357:261,1,85
224,120,68715,1,0
168,160,68865,1,0
192,320,69165,1,0
264,280,69315,1,0
280,200,69465,1,0
296,120,69615,1,0
160,112,69990,2,0,B|128:96|120:128,1,42.5
112,240,70365,1,0
192,200,70515,1,0
112,240,70665,1,0
112,240,70815,1,0
256,192,70965,12,0,72015
240,192,80565,6,0,B|144:248,1,85
166,234,80865,2,0,B|88:168|88:168,1,85
101,179,81165,2,0,B|176:120,1,85
168,126,81465,1,0
168,128,81615,2,0,B|167:73|279:33|407:97|431:257|303:353|159:361|55:289|47:161,1,680
272,72,83265,5,0
424,208,83715,1,0
336,312,84015,1,0
304,136,84915,2,0,B|248:80|304:40,1,85
152,48,85365,5,0
88,88,85515,1,0
160,120,85665,1,0
24,136,85815,1,0
96,168,85965,1,0
168,200,86115,1,0
176,280,86265,1,0
240,232,86415,1,0
184,88,87615,5,0
376,104,88065,1,0
368,272,88515,1,0
280,320,88815,1,0
256,192,88965,12,0,90465
208,152,90765,6,0,B|208:248,1,85
304,240,91065,2,0,B|304:144,1,85
256,200,91365,1,0
296,200,91815,2,0,B|176:200,1,85
256,104,92265,1,0
256,200,92565,1,0
160,200,92865,1,0
192,312,93165,5,0
280,352,93315,1,0
376,304,93465,2,0,B|408:272,2,42.5
328,224,93765,1,0
232,144,94065,1,0
160,224,94365,1,0
296,216,94665,2,0,B|386:215|418:159|402:87,1,170
256,48,95265,2,0,B|200:48|144:88,1,85
296,160,95715,1,0
480,192,96015,5,0
480,96,96165,1,0
416,128,96315,1,0
416,232,96465,1,0
480,288,96615,1,0
480,192,96765,1,0
224,112,97065,5,0
56,192,97365,1,0
96,256,97515,1,0
40,304,97665,1,0
96,256,97815,1,0
112,336,97965,1,0
200,112,98265,5,0
368,88,98565,1,0
424,160,98715,2,0,B|448:144|472:144|472:232|480:240,1,85
424,280,99015,1,0
352,224,99165,1,0
232,336,99465,5,0
144,280,99765,1,0
240,232,100065,2,0,B|304:208|320:240,1,85
352,152,100365,1,0
408,88,100515,2,0,B|472:88|504:24,1,85
472,208,100965,5,0
432,272,101115,1,0
336,248,101265,1,0
248,320,101415,1,0
112,288,101565,1,0
56,176,101865,5,0
144,72,102165,1,0
240,56,102315,1,0
336,56,102465,2,0,B|392:32|432:80|408:176,1,170
329,272,103065,5,0
208,272,103365,2,0,B|256:256|224:192,1,85
112,288,103665,1,0
48,192,103815,1,0
112,288,103965,1,0
288,240,104265,5,0
240,112,104565,1,0
120,104,104865,1,0
136,256,105165,1,0
176,336,105315,1,0
240,272,105465,1,0
200,192,105615,1,0
272,336,105915,5,0
392,336,106065,1,0
272,336,106215,1,0
152,336,106365,1,0
280,152,106665,5,0
152,160,106965,2,0,B|168:216|88:224|88:200,1,85
192,248,107265,1,0
280,208,107415,2,0,B|216:200|224:128,1,85
232,48,107865,5,0
328,144,108165,1,0
432,136,108315,2,0,B|376:176|424:200|424:224|368:208,1,85
320,264,108615,1,0
288,344,108765,1,0
448,248,109065,5,0
392,48,109365,1,0
224,152,109665,1,0
264,208,109815,1,0
288,136,109965,1,0
208,64,110115,1,0
168,224,110265,1,0
104,184,110565,5,0
80,272,110715,1,0
80,272,110865,1,0
152,320,111015,1,0
80,272,111165,1,0
304,264,111465,5,0
432,256,111765,1,0
400,336,111915,1,0
304,336,112065,2,0,B|328:288|328:288|304:264,1,85
400,336,112365,1,0
112,80,112665,5,0
48,168,112965,1,0
136,232,113115,1,0
208,144,113265,2,0,B|256:120|248:208|304:152|288:176,2,85
152,328,113865,5,0
320,344,114165,1,0
432,264,114315,2,0,B|427:306|347:322,1,85
328,288,114615,1,0
280,256,114765,1,0
240,288,114915,2,0,B|200:304|192:264|184:264|136:272|136:304,1,85
328,104,115215,5,0
416,208,115515,1,0
432,264,115665,1,0
256,184,115965,1,0
248,336,116265,1,0
112,272,116565,1,0
176,160,116715,1,0
112,272,116865,1,0
176,160,117015,1,0
328,152,117315,1,0
288,272,117615,5,0
104,320,117915,2,0,B|64:288|96:208,1,85
200,56,118365,2,0,B|240:104|280:40|336:24|384:96,1,170
416,200,118965,1,0
368,288,119115,1,0
416,200,119265,1,0
352,128,119415,1,0
248,240,119715,1,0
120,240,120015,5,0
88,96,120315,2,0,B|144:40|192:80,1,85
376,64,120765,2,0,B|312:128|376:152|400:200|320:240,1,170
208,336,121365,2,0,B|160:304|120:288|208:200|232:208|48:160,1,255
400,64,122115,1,0
352,224,122415,2,0,B|312:288|360:280|288:336|288:336|240:312,1,170
158,226,122865,2,0,B|198:288|150:280|222:336|222:336|256:320,1,170
80,296,123465,6,0,B|72:233|88:169|104:177|152:209,1,170
112,64,124065,2,0,B|160:48|200:80,1,85
280,168,124515,1,0
256,288,124815,5,0
440,248,125115,1,0
392,280,125265,2,0,B|432:304|440:328|400:344|368:344,1,85
384,224,125565,2,0,B|338:238|362:278|426:294,1,85
448,248,125865,1,0
248,280,126165,2,0,B|304:264|296:200,2,85
128,96,126765,6,0,B|56:128|48:48,2,85
88,176,127215,1,0
360,88,127515,1,0
408,128,127665,1,0
360,168,127815,1,0
456,288,128115,1,0
416,336,128265,1,0
264,320,128565,1,0
144,256,128865,1,0
240,120,129165,5,0
240,56,129315,2,0,B|195:37|163:77,1,85
176,144,129615,2,0,B|112:240|240:256,1,170
360,112,130215,1,0
392,176,130365,1,0
424,240,130515,1,0
464,304,130665,1,0
280,312,130965,6,0,B|200:328|168:264|272:232,2,170
280,312,131715,1,0
264,232,131865,1,0
208,160,132015,1,0
400,40,132615,1,0
448,96,132915,2,0,B|336:160|472:152|440:152,1,85
400,240,133365,1,0
328,288,133515,1,0
256,336,133665,1,0
256,232,133965,5,0
256,120,134115,1,0
256,232,134265,1,0
256,120,134415,1,0
360,144,134865,2,0,B|280:184,1,85
328,232,135165,2,0,B|424:280,1,85
416,192,135465,1,0
304,168,135765,1,0
216,168,135915,1,0
128,168,136065,1,0
232,256,136365,5,0
168,312,136515,1,0
72,304,136665,2,0,B|152:224,1,85
144,136,137265,1,0
32,112,137415,2,0,B|8:138|51:189,1,85
32,112,137715,2,0,B|79:99|103:147,1,85
288,208,138165,1,0
280,128,138315,1,0
216,176,138465,1,0
80,304,138765,5,0
152,256,138915,1,0
232,208,139065,1,0
240,304,139215,1,0
288,128,139815,1,0
432,160,140265,1,0
312,224,140565,2,0,B|200:248|240:304|296:328,1,170
200,128,141165,6,0,B|248:136|264:224,3,85
392,264,142065,2,0,B|432:288|408:312|384:328,2,85
312,240,142515,1,0
248,288,142665,1,0
248,144,142965,5,0
216,200,143115,1,0
248,144,143265,1,0
176,144,143415,1,0
144,88,143565,1,0
112,144,143715,1,0
144,88,143865,1,0
72,88,144015,5,0
208,224,144465,2,0,B|160:192|176:128|208:104|256:88|312:80|352:80,1,255
384,168,145065,1,0
424,248,145215,1,0
136,272,145665,2,0,B|136:320|232:344|304:336,1,170
344,240,146115,1,0
280,336,146265,1,0
232,240,146415,1,0
136,104,146865,1,0
288,104,147165,2,0,B|352:136|296:192,2,85
224,152,147615,1,0
256,192,147765,12,0,148515
304,216,148815,6,0,B|272:184|264:152|368:120|400:136|456:192|328:264,1,255
216,336,149565,1,0
112,312,149715,1,0
160,232,149865,1,0
112,144,150015,1,0
256,56,150315,1,0
336,96,150465,1,0
448,176,150765,5,0
368,296,150915,2,0,B|416:280|416:224,1,85
448,176,151215,1,0
248,168,151590,1,0
256,176,151665,1,0
208,296,151965,1,0
104,256,152115,1,0
208,296,152265,1,0
264,192,152415,1,0
384,96,153165,5,0
456,176,153315,2,0,B|496:200|440:240|408:240|416:256|472:304|456:312|472:320|432:328,1,170
296,224,154065,1,0
88,192,154365,2,0,B|192:128,1,85
128,168,154665,2,0,B|96:256,1,85
224,64,155265,1,0
360,192,155565,5,0
232,232,155715,2,0,B|280:200|272:176|224:144|216:144,1,85
160,192,156015,1,0
120,312,156465,1,0
272,328,156765,1,0
416,248,156915,1,0
376,88,157065,1,0
208,96,157215,1,0
192,272,157515,5,0
320,112,157815,1,0
192,272,158115,1,0
320,112,158415,5,0
376,248,158865,1,0
248,104,159165,2,0,B|168:136,1,85
224,264,159465,2,0,B|328:216,1,85
144,272,159915,1,0
80,192,160065,1,0
240,144,160365,6,0,B|312:224,1,85
424,232,160665,2,0,B|344:152,1,85
264,272,161190,1,0
280,264,161265,1,0
176,264,161565,2,0,B|200:224|104:208,1,85
56,136,161865,1,0
128,64,162015,1,0
120,96,163215,5,0
384,304,164415,1,0
80,80,164790,1,0
80,320,165240,1,0
384,80,165615,1,0
200,256,166515,6,0,B|264:264|272:328,1,85
344,96,166965,1,0
80,248,168015,6,0,B|136:328|320:344|488:288|480:72|352:16|136:16|176:48,1,680
208,240,169665,1,0
384,112,170115,1,0
400,240,170415,1,0
408,320,171315,1,0
376,296,171465,1,0
376,192,171765,5,0
304,144,171915,1,0
304,240,172065,1,0
240,96,172215,1,0
240,280,172365,1,0
184,144,172515,1,0
184,240,172665,1,0
104,192,172815,1,0
144,88,174015,5,0
96,256,174465,1,0
304,240,174915,1,0
150,185,175215,1,0
112,104,176115,2,0,B|80:128|80:200,1,85
200,232,176565,5,0
216,152,176715,1,0
288,272,176865,1,0
312,88,177015,1,0
424,192,177165,1,0
200,232,177315,1,0
392,72,177615,2,0,B|328:152|328:152|328:272|328:272|264:264|208:272|208:272|192:192|192:192|224:144|208:136|80:152|80:152|96:136|96:280|96:272,1,680
368,328,179265,1,0
232,48,179715,1,0
256,192,180015,12,0,182415
