osu file format v9

[General]
AudioFilename: Dichromatic Lotus Butterfly ~ Ancients - UNL.mp3
AudioLeadIn: 0
PreviewTime: -1
Countdown: 1
SampleSet: Normal
StackLeniency: 0.7
Mode: 0
LetterboxInBreaks: 1

[Editor]
DistanceSpacing: 0.8
BeatDivisor: 2
GridSize: 16

[Metadata]
Title:Dichromatic Lotus Butterfly ~ Ancients
Artist:Unthinkable Natural Law
Creator:SpacemanSpiff
Version:Easy
Source:Touhou
Tags:

[Difficulty]
HPDrainRate:5
CircleSize:5
OverallDifficulty:5
ApproachRate:5
SliderMultiplier:0.600000005960464
SliderTickRate:1

[Events]
//Background and Video events
//Break Periods
2,72200,80400
//Storyboard Layer 0 (Background)
//Storyboard Layer 1 (Fail)
//Storyboard Layer 2 (Pass)
//Storyboard Layer 3 (Foreground)
//Storyboard Sound Samples
//Background Colour Transformations
3,100,163,162,255

[TimingPoints]
0,300,4,1,0,100,1,0

[Colours]
Combo1 : 0,0,0
Combo2 : 172,0,0
Combo3 : 135,183,255
Combo4 : 221,111,111
Combo5 : 255,255,87

[HitObjects]
128,128,4800,1,0
192,64,5100,1,0
192,224,6000,2,0,B|320:160|320:160,1,120.000001192093
256,192,7200,1,0
192,256,7500,2,0,B|256:288,1,60.0000005960464
32,64,8400,2,0,B|96:64,2,60.0000005960464
224,128,9600,2,0,B|224:192,1,60.0000005960464
96,192,10800,2,0,B|128:128|192:96,1,120.000001192093
416,192,12000,2,0,B|416:256|352:288,1,120.000001192093
288,64,13200,2,0,B|256:32|192:64|192:96,1,120.000001192093
192,160,14100,2,0,B|192:192|256:192,1,60.0000005960464
256,192,15000,1,0
160,288,15600,2,0,B|96:256,2,60.0000005960464
352,288,16800,2,0,B|416:256,2,60.0000005960464
320,192,18000,1,0
288,128,18300,1,0
256,192,18600,1,0
117,115,19200,1,0
160,64,19500,2,0,B|192:128,1,60.0000005960464
256,192,20400,1,0
256,192,20700,1,0
256,192,21000,1,0
256,192,21600,1,0
256,192,21900,1,0
256,192,22200,1,0
256,192,22800,1,0
256,192,23100,1,0
256,192,23400,1,0
256,192,23700,1,0
256,192,24000,1,0
256,192,24600,1,0
256,192,25200,1,0
256,192,25800,1,0
256,192,26100,1,0
256,192,26400,1,0
256,192,27000,1,0
256,192,27600,1,0
256,192,28200,1,0
256,192,28500,1,0
256,192,28800,1,0
256,192,29400,1,0
256,192,30000,1,0
256,192,30600,1,0
256,192,30900,1,0
256,192,31200,1,0
256,192,31800,1,0
256,192,32400,1,0
256,192,33000,1,0
256,192,33300,1,0
256,192,33600,1,0
256,192,34200,1,0
256,192,34800,1,0
256,192,35100,1,0
256,192,35400,1,0
256,192,36000,1,0
256,192,36600,1,0
256,192,37200,1,0
256,192,37500,1,0
256,192,37800,1,0
256,192,38400,1,0
256,192,39000,1,0
256,192,39600,1,0
256,192,39900,1,0
256,192,40200,1,0
256,192,40800,1,0
256,192,41400,1,0
256,192,42000,1,0
256,192,42300,1,0
256,192,42600,1,0
256,192,42900,1,0
256,192,43200,1,0
256,192,43800,1,0
256,192,44400,1,0
256,192,44700,1,0
256,192,45000,1,0
256,192,45300,1,0
256,192,45600,1,0
256,192,46200,1,0
256,192,46800,1,0
256,192,47100,1,0
256,192,47400,1,0
256,192,47700,1,0
256,192,48000,1,0
256,192,48600,1,0
256,192,49200,1,0
256,192,49500,1,0
256,192,49800,1,0
256,192,50100,1,0
256,192,50400,1,0
256,192,50700,1,0
256,192,51000,1,0
256,192,51300,1,0
256,192,51600,1,0
256,192,51900,1,0
256,192,52200,1,0
256,192,52500,1,0
256,192,52800,1,0
256,192,53400,1,0
256,160,54000,1,0
256,160,54300,1,0
256,160,54600,1,0
256,160,55200,1,0
256,160,55800,1,0
256,160,56400,1,0
256,160,56700,1,0
256,160,57000,1,0
256,160,57600,1,0
256,160,58200,1,0
256,160,58800,1,0
256,160,59100,1,0
256,160,59400,1,0
256,160,59700,1,0
256,160,60000,1,0
256,160,60600,1,0
256,160,61200,1,0
256,160,61800,1,0
256,160,62100,1,0
256,160,62400,1,0
256,160,63000,1,0
256,160,63600,1,0
256,160,64200,1,0
256,160,64500,1,0
256,160,64800,1,0
256,160,65400,1,0
256,160,66000,1,0
256,160,66600,1,0
256,160,66900,1,0
256,160,67200,1,0
256,160,67800,1,0
256,160,68400,1,0
256,160,69000,1,0
256,160,69300,1,0
256,160,69600,1,0
256,160,69900,1,0
352,224,70050,1,0
256,160,70350,1,0
256,160,70500,1,0
256,160,70800,1,0
256,160,71100,1,0
256,160,71400,1,0
256,160,71700,1,0
256,160,72000,1,0
256,192,81600,5,0
256,192,82800,1,0
256,192,83250,1,0
256,192,83700,1,0
256,192,84000,1,0
256,192,84900,1,0
256,192,85050,1,0
256,192,85350,1,0
256,192,86400,1,0
256,192,87600,1,0
192,64,88050,1,0
256,192,88500,1,0
256,192,88800,1,0
224,192,91200,1,0
224,192,91800,1,0
224,192,92400,1,0
224,192,92850,1,0
224,192,93300,1,0
224,192,93600,1,0
224,192,94200,1,0
224,192,94800,1,0
224,192,95400,1,0
224,192,95700,1,0
224,192,96000,1,0
224,192,96600,1,0
224,192,97200,1,0
224,192,97500,1,0
224,192,97800,1,0
224,192,98400,1,0
224,192,98700,1,0
224,192,99000,1,0
224,192,99600,1,0
224,192,99900,1,0
224,192,100200,1,0
224,192,100800,1,0
224,192,101400,1,0
224,192,102000,1,0
224,192,102300,1,0
224,192,102600,1,0
224,192,103200,1,0
224,192,103500,1,0
224,192,103800,1,0
224,192,104400,1,0
224,192,104700,1,0
224,192,105000,1,0
224,192,105300,1,0
224,192,105600,1,0
224,192,106200,1,0
224,192,106800,1,0
224,192,107100,1,0
224,192,107400,1,0
224,192,108000,1,0
224,192,108300,1,0
224,192,108600,1,0
224,192,109200,1,0
224,192,109500,1,0
224,192,109800,1,0
224,192,110100,1,0
224,192,110700,1,0
224,192,111000,1,0
224,192,111600,1,0
224,192,111900,1,0
224,192,112200,1,0
224,192,112800,1,0
224,192,113100,1,0
224,192,113400,1,0
224,192,114000,1,0
224,192,114300,1,0
224,192,114600,1,0
224,192,114900,1,0
224,192,115500,1,0
224,192,116100,1,0
224,192,116700,1,0
224,192,117300,1,0
224,192,117900,1,0
224,192,118500,1,0
224,192,119100,1,0
224,192,119400,1,0
224,192,119700,1,0
224,192,120000,1,0
224,192,120600,1,0
224,192,121200,1,0
224,192,121800,1,0
256,192,122100,1,0
224,192,122700,1,0
224,192,123300,1,0
224,192,124200,1,0
224,192,124500,1,0
224,192,124800,1,0
224,192,125400,1,0
224,192,126000,1,0
224,192,126300,1,0
224,192,126600,1,0
224,192,127200,1,0
224,192,127800,1,0
224,192,128400,1,0
224,192,128700,1,0
224,192,129000,1,0
224,192,129600,1,0
224,192,130200,1,0
224,192,130800,1,0
224,192,131100,1,0
224,192,131400,1,0
224,192,132000,1,0
224,192,132600,1,0
224,192,133200,1,0
224,192,133500,1,0
224,192,133800,1,0
224,192,134400,1,0
224,192,135000,1,0
224,192,135600,1,0
224,192,135900,1,0
224,192,136200,1,0
224,192,136800,1,0
224,192,137400,1,0
224,192,138000,1,0
224,192,138300,1,0
224,192,138600,1,0
224,192,139200,1,0
224,192,139800,1,0
224,192,140400,1,0
224,192,140700,1,0
224,192,141000,1,0
224,192,141300,1,0
224,192,141600,1,0
224,192,142200,1,0
224,192,142800,1,0
224,192,143400,1,0
224,192,143700,1,0
224,192,144000,1,0
224,192,144600,1,0
224,192,145200,1,0
224,192,145800,1,0
224,192,146400,1,0
224,192,147000,1,0
224,192,147600,1,0
224,192,147900,1,0
224,192,148200,1,0
224,192,148800,1,0
224,192,149400,1,0
224,192,150000,1,0
224,192,150600,1,0
224,192,151200,1,0
224,192,151800,1,0
224,192,152400,1,0
224,192,152700,1,0
224,192,153000,1,0
224,192,153300,1,0
224,192,153600,1,0
224,192,154200,1,0
224,192,154800,1,0
224,192,155400,1,0
224,192,156000,1,0
224,192,156600,1,0
224,192,157200,1,0
224,192,157500,1,0
224,192,157800,1,0
224,192,158100,1,0
224,192,158400,1,0
224,192,159000,1,0
224,192,159600,1,0
224,192,160200,1,0
224,192,160800,1,0
224,192,161400,1,0
224,192,162000,1,0
224,192,162300,1,0
224,192,162600,1,0
224,192,162900,1,0
224,192,163200,1,0
