osu file format v5

[General]
AudioFilename: UnsraW - 05 - Enshoku No Yume.mp3
AudioLeadIn: 2000
PreviewTime: -1
Countdown: 1
SampleSet: Soft
StackLeniency: 0.7
Mode: 0
LetterboxInBreaks: 1
EditorBookmarks: -891
EditorDistanceSpacing: 1

[Metadata]
Title:Enshoku No Yume
Artist:Unsraw
Creator:Mukku
Version:Normal
Source:
Tags:

[Difficulty]
HPDrainRate:6
CircleSize:4
OverallDifficulty:4
SliderMultiplier:1.3
SliderTickRate:2

[Events]
//Background and Video events
0,0,"unsraw1.jpg"
//Break Periods
2,51324,52122
2,106684,114730
//Storyboard Layer 0 (Background)
//Storyboard Layer 1 (Failing)
//Storyboard Layer 2 (Passing)
//Storyboard Layer 3 (Foreground)
//Storyboard Sound Samples
//Background Colour Transformations
3,100,163,162,255

[TimingPoints]
9393,579.710144927536,4,2,0,81,1,0
57935,-100,4,1,0,100,0,0
70253,-100,4,2,0,100,0,0

[Colours]
Combo1 : 0,0,0
Combo2 : 128,0,0
Combo3 : 60,148,176
Combo4 : 135,73,150

[HitObjects]
160,128,9393,1,8
224,128,9682,1,8
288,128,9972,1,2
288,192,10262,2,4,B|128:192,2,130,4|4|12
288,256,11711,5,8
224,256,12001,1,8
160,256,12291,1,2
160,192,12581,2,4,B|320:192,2,130
160,96,14610,6,4,B|256:96,1,65
288,96,15190,1,8
320,160,15479,1,8
288,224,15769,2,2,B|192:224,2,65
224,160,17219,6,6,B|224:64,1,65,6|2
224,32,17798,2,14,B|94:32,2,130
288,64,19248,6,6,B|384:64,1,65,6|2
352,128,19827,2,14,B|352:288,2,130
288,128,21277,1,4
224,128,21566,1,0
224,192,21856,2,14,B|384:192,2,130,14|10|10
160,192,23306,5,4
160,256,23595,1,0
224,256,23885,2,14,B|224:96,2,130
320,128,25624,6,0,B|384:128,1,32.5
320,224,26204,2,0,B|256:224,1,32.5
192,224,26929,5,6
192,160,27219,2,6,B|192:96,3,32.5
288,128,27943,2,10,B|352:128,1,32.5
288,32,28523,2,2,B|224:32,1,32.5
128,64,29248,5,6
128,128,29537,1,10
128,128,29682,2,2,B|128:256,1,97.5
128,256,30262,2,10,B|192:256,1,32.5
256,256,30842,2,10,B|320:256,1,32.5
256,128,31566,5,8
320,128,31856,1,0
320,128,32001,2,6,B|320:192,2,32.5
384,128,32581,6,10,B|448:128,1,32.5
384,224,33161,2,2,B|448:224,1,32.5
256,224,33885,5,10
190,222,34175,1,10
191,222,34320,2,2,B|191:94,1,97.5
256,192,35190,5,12
256,128,35479,1,0
256,64,35769,2,10,B|192:0,2,65
320,32,36639,1,12
384,64,36929,1,0
256,160,37508,5,8
256,224,37798,1,0
256,288,38088,2,14,B|320:352,2,65
224,352,38958,2,0,B|160:288,1,65,0|4
256,160,40117,5,4
192,160,40407,1,0
128,160,40697,2,10,B|64:224,2,65
128,96,41566,1,4
192,64,41856,1,8
256,96,42146,1,4
352,192,42726,6,0,B|352:96,2,65
288,224,43595,1,8
224,192,43885,1,4
160,224,44175,1,8
96,192,44465,2,14,B|96:288,3,65,14|14|14|2
192,320,45914,5,4
256,320,46204,1,0
320,320,46494,2,10,B|320:192,2,97.5,10|10|2
256,224,47943,5,8
192,160,48233,2,4,B|192:256,2,65
128,160,49103,1,2
128,96,49393,1,6
288,64,50552,5,8
224,96,50842,1,4
352,96,51132,1,2
224,96,53450,6,0,B|320:96,3,65,4|8|4|8
352,128,54610,2,8,B|352:224,3,65
288,224,55769,2,2,B|192:224,3,65,4|8|4|8
160,192,56929,2,14,B|160:96,3,65,8|8|8|8
224,128,58088,5,4
288,128,58378,1,0
288,192,58668,1,4
224,192,58958,1,0
160,192,59248,1,12
96,192,59537,1,12
96,192,59682,2,8,B|33:192,3,32.5,10|12|12|12
96,288,60407,5,0
160,256,60697,1,0
224,288,60987,2,0,B|288:256,1,65
352,288,61566,1,0
416,256,61856,6,0,B|416:160,1,65
352,160,62436,1,0
224,64,63016,5,4
160,128,63306,2,4,B|256:128,1,65
288,128,63885,1,4
288,192,64175,2,4,B|192:192,1,65
160,192,64755,1,4
64,64,65335,6,8,B|64:160,1,65
64,192,65914,2,0,B|64:288,1,65
128,256,66494,1,8
320,96,67653,5,4
256,96,67943,1,4
192,96,68233,1,4
192,160,68523,2,0,B|352:160,2,130
192,160,69972,1,0
256,256,70552,6,8,B|320:192|192:160|288:64,1,195
275,77,71711,1,8
224,64,72001,2,2,B|128:64,1,65
96,64,72581,1,8
128,128,72871,1,8
256,64,73740,5,8
320,64,74030,2,2,B|352:32|384:64,1,65
442,60,74610,1,8
448,128,74900,1,8
384,128,75190,1,6
256,64,75769,6,2,B|192:96|288:128|224:192,1,130
192,227,76639,2,0,B|288:227,1,65
192,64,77798,6,2,B|192:160,1,65
256,96,78378,2,0,B|256:192,1,65,2|2
320,128,78958,1,4
256,256,80697,6,8,B|256:160,1,65,4|2
192,224,81277,2,2,B|224:320|288:320|320:224,1,195,2|6
256,96,82726,5,8
320,64,83016,1,0
384,96,83306,1,0
352,160,83595,2,0,B|192:160,1,130,8|0
160,192,84465,1,4
256,288,85335,5,8
256,224,85624,1,8
320,256,85914,2,6,B|224:256,1,65
128,256,86784,5,2
128,192,87074,2,8,B|128:96,2,65
172,239,87943,1,0
187,175,88233,2,4,B|283:143|347:239|418:167,2,227.5,12|4|4
160,128,90842,5,2
224,128,91132,1,2
288,128,91421,1,8
288,192,91711,2,0,B|128:192,2,130
288,256,93161,5,8
224,256,93450,1,2
160,256,93740,1,2
160,192,94030,2,0,B|320:192,2,130,8|8|2
160,128,95479,5,2
224,96,95769,1,2
288,128,96059,1,8
352,96,96349,1,2
416,128,96639,1,8
384,192,96929,1,2
416,256,97219,1,2
384,320,97508,2,8,B|320:288,1,65
256,160,98378,6,2,B|256:64,2,65
256,224,99248,2,2,B|256:320,1,65,2|6
128,96,100407,5,8
192,64,100697,2,0,B|256:96,1,65,0|8
320,64,101277,1,0
384,96,101566,1,0
352,160,101856,2,8,B|256:160,1,65
224,160,102436,6,0,B|128:160,2,65
288,160,103306,1,10
352,128,103595,2,0,B|352:224,1,65,2|8
352,256,104175,1,8
256,288,105045,6,4,B|192:224|320:192|224:160,1,130
128,128,106204,1,8
64,128,106494,1,4
160,256,116059,5,8
224,256,116349,2,0,B|320:256,1,65
352,256,116929,1,8
352,192,117219,2,0,B|256:192,1,65,0|8
224,192,117798,1,2
160,192,118088,1,8
160,128,118378,6,2,B|256:128,1,65
288,128,118958,1,8
352,128,119248,2,0,B|448:128,1,65,2|8
416,64,119827,1,2
352,64,120117,2,0,B|256:64,1,65,8|8
224,64,120697,5,2
160,64,120987,1,8
96,64,121277,2,0,B|96:160,1,65,2|8
160,128,121856,1,2
224,128,122146,1,8
288,128,122436,2,8,B|384:128,1,65
352,192,123016,2,2,B|256:192,1,65
224,192,123595,5,8
160,192,123885,1,2
96,192,124175,2,0,B|96:288,1,65,8|2
160,256,124755,1,8
160,192,125045,1,8
160,128,125335,2,0,B|256:128,1,65,0|2
288,128,125914,5,8
288,192,126204,2,2,B|384:192,1,65,2|8
352,128,126784,2,0,B|256:128,1,65,2|8
224,160,127364,1,2
224,96,127653,1,8
160,128,127943,6,0,B|160:32,2,65,8|0|0
160,192,128813,2,0,B|160:288,1,65
224,224,129393,2,8,B|224:128,2,65
288,256,130262,6,2,B|384:256,1,65,2|8
416,224,130842,2,0,B|416:128,2,65,2|8|2
352,192,131711,1,2
288,192,132001,1,2
224,224,132291,2,8,B|160:256,1,65,8|8
128,192,132871,5,2
128,128,133161,1,8
160,64,133450,2,2,B|256:64,1,65,2|8
256,128,134030,2,12,B|160:128,1,65
