osu file format v14

[General]
AudioFilename: Unknown Error - Shadows (Unicron Remix).mp3
AudioLeadIn: 0
PreviewTime: -1
Countdown: 1
SampleSet: None
StackLeniency: 0.7
Mode: 0
LetterboxInBreaks: 1
WidescreenStoryboard: 0

[Editor]
DistanceSpacing: 1
BeatDivisor: 4
GridSize: 32
TimelineZoom: 1.5

[Metadata]
Title:Shadows (Unicron Remix)
TitleUnicode:Shadows (Unicron Remix)
Artist:Unknown Error
ArtistUnicode:Unknown Error
Creator:kiroh1N
Version:Not So Easy
Source:
Tags:
BeatmapID:667439
BeatmapSetID:297317

[Difficulty]
HPDrainRate:3
CircleSize:4
OverallDifficulty:5
ApproachRate:7
SliderMultiplier:1
SliderTickRate:1

[Events]
//Background and Video events
0,0,"h5d0hwhX2b8.jpg",0,0
//Break Periods
2,38573,43547
2,106671,111093
//Storyboard Layer 0 (Background)
//Storyboard Layer 1 (Fail)
//Storyboard Layer 2 (Pass)
//Storyboard Layer 3 (Foreground)
//Storyboard Sound Samples

[TimingPoints]
-184.294478527607,368.098159509202,4,1,0,100,1,0
66901,368.098159509202,4,1,0,100,1,0

[HitObjects]
99,163,11226,5,0,0:0:0:0:
143,111,11594,1,0,0:0:0:0:
212,109,11870,2,0,P|325:111|381:201,1,225
390,254,13159,1,0,0:0:0:0:
307,255,13527,1,0,0:0:0:0:
299,171,13895,1,0,0:0:0:0:
390,254,14263,1,0,0:0:0:0:
307,255,14631,1,0,0:0:0:0:
217,258,14907,1,0,0:0:0:0:
142,260,15183,6,0,L|34:261,2,100
314,257,16472,1,0,0:0:0:0:
437,140,16840,2,0,P|349:87|332:95,1,125
294,131,17760,1,0,0:0:0:0:
230,177,18128,2,0,P|131:140|94:102,1,150
93,102,19232,1,0,0:0:0:0:
96,275,19600,1,0,0:0:0:0:
96,275,19969,1,0,0:0:0:0:
256,276,20337,1,0,0:0:0:0:
256,194,20705,6,0,B|255:90|255:90|256:290,1,300
383,290,22453,1,0,0:0:0:0:
283,292,22821,1,0,0:0:0:0:
179,293,23189,1,0,0:0:0:0:
176,213,23558,1,0,0:0:0:0:
255,190,24662,5,0,0:0:0:0:
255,190,25122,1,0,0:0:0:0:
79,117,25398,2,0,B|212:97|173:270|173:270|336:123|383:223|390:251,1,475
320,100,27883,1,0,0:0:0:0:
192,98,28251,1,0,0:0:0:0:
320,100,28527,2,0,P|319:149|319:155,1,50
325,225,28987,1,0,0:0:0:0:
191,228,29263,5,0,0:0:0:0:
133,173,29539,2,0,L|114:157,1,25
143,91,29907,1,0,0:0:0:0:
194,40,30275,1,0,0:0:0:0:
263,37,30643,2,0,P|263:344|254:343,1,500
257,189,33128,1,0,0:0:0:0:
255,33,33680,2,0,B|232:71|232:71|282:106|282:106|240:148|240:148|283:181|283:181|244:217|244:217|287:244|288:245|288:246|288:246|243:291|243:291|295:316|295:316|242:359|242:359|241:364,1,500
256,192,36441,12,0,37269,0:0:0:0:
117,156,37637,5,0,0:0:0:0:
253,242,38005,1,0,0:0:0:0:
366,156,38373,1,0,0:0:0:0:
61,62,44447,6,0,L|183:61,2,100
180,130,45827,6,0,L|314:129,2,125
304,202,47208,2,0,L|438:202,2,125
257,191,48864,1,0,0:0:0:0:
197,142,49140,2,0,B|136:111|134:110|82:160,1,125
91,150,49969,1,0,0:0:0:0:
359,334,50337,2,0,B|416:336|416:336|459:290,1,100
461,211,51073,2,0,B|459:151|459:151|403:107,1,125
332,43,51901,1,0,0:0:0:0:
259,117,52177,2,0,B|195:115|195:115|148:72,1,125
76,77,53005,2,0,L|77:115,5,25
82,224,53742,1,0,0:0:0:0:
161,224,54018,2,0,L|196:224,5,25
256,192,54754,12,0,55582,0:0:0:0:
128,89,56042,6,0,L|422:91,1,275
409,162,57515,2,0,L|409:199,5,25
410,236,58251,2,0,L|103:237,1,300
108,173,59907,2,0,L|106:143,5,25
128,95,60735,2,0,B|256:163|256:163|421:164|421:164|421:166,1,300
156,190,62484,2,0,B|227:191|227:191|25:193,1,250
351,194,63956,2,0,B|285:194|285:194|483:193,1,250
81,55,65429,1,0,0:0:0:0:
137,101,65705,2,0,P|190:160|151:241,1,175
89,305,66809,1,0,0:0:0:0:
164,306,66901,2,0,P|254:302|294:238,1,150
303,167,67913,1,0,0:0:0:0:
353,102,68189,2,0,P|417:134|392:264,1,210
314,284,69385,2,0,B|232:289|232:291|232:291|163:229,1,150
171,165,70397,2,0,L|172:40,4,120
116,81,72422,1,0,0:0:0:0:
191,77,72606,2,0,P|261:83|284:112,1,100
312,158,73342,1,0,0:0:0:0:
345,216,73526,2,0,B|414:254|409:293|232:313,1,225
156,268,74631,2,0,L|52:268,2,100
116,81,75735,5,0,0:0:0:0:
213,80,76011,2,0,P|301:89|324:133,1,125
324,186,76747,1,0,0:0:0:0:
324,186,77115,2,0,P|274:249|181:240,1,175
88,162,78035,1,0,0:0:0:0:
165,160,78404,2,0,L|221:160,2,50
303,160,79140,1,0,0:0:0:0:
382,160,79508,2,0,L|439:160,2,50
256,35,80336,1,0,0:0:0:0:
259,104,80612,2,0,L|259:177,2,50
254,213,81256,2,0,L|321:213,1,50
252,288,81716,2,0,L|323:289,2,50
251,362,82361,2,0,L|308:362,1,50
254,98,82821,2,0,L|254:160,2,50
182,177,83373,2,0,L|77:78,1,125
319,180,84477,2,0,L|408:78,1,125
169,222,86594,1,0,0:0:0:0:
169,222,86870,1,0,0:0:0:0:
205,80,87238,1,0,0:0:0:0:
280,118,87514,1,0,0:0:0:0:
257,191,87790,1,0,0:0:0:0:
173,210,88066,1,0,0:0:0:0:
140,138,88342,1,0,0:0:0:0:
256,192,88618,12,0,88986,0:0:0:0:
256,191,89631,5,0,0:0:0:0:
102,105,89815,2,0,L|363:106,1,250
354,104,91011,1,8,0:0:0:0:
354,190,91287,1,0,0:0:0:0:
354,190,91471,1,0,0:0:0:0:
356,262,91747,2,0,B|179:175|216:214|88:245|114:236|41:158,1,350
41,158,93220,1,8,0:0:0:0:
100,112,93496,2,8,B|191:77|159:103|252:141|226:100|301:75|302:132|356:61|338:175|389:17|434:15|434:15|430:15|432:17,1,375
319,229,95152,1,0,0:0:0:0:
188,125,95612,1,0,0:0:0:0:
338,126,96072,1,0,0:0:0:0:
187,236,96532,1,0,0:0:0:0:
142,167,96808,2,0,L|174:166,5,25
343,170,97545,2,0,L|301:169,5,25
255,25,98373,2,0,B|256:356|256:356|256:170,1,500
255,189,100581,1,0,0:0:0:0:
92,69,101686,6,0,B|205:68|205:68|179:104|179:104|313:105,1,275
254,206,102974,2,0,B|321:209|321:209|156:207,1,225
94,142,104078,5,0,0:0:0:0:
196,140,104447,1,0,0:0:0:0:
301,140,104815,1,0,0:0:0:0:
405,140,105183,1,0,0:0:0:0:
256,192,105735,12,0,106471,0:0:0:0:
106,95,111993,6,0,B|227:94|227:94|201:121|201:121|346:120,1,300
342,120,113281,1,8,0:0:0:0:
348,194,113557,6,0,B|225:194|241:211|157:260|172:206|130:333,1,275
90,178,114845,1,0,0:0:0:0:
88,104,115121,2,0,L|126:104,3,25
212,99,115674,1,0,0:0:0:0:
214,177,115950,2,0,L|176:175,3,25
423,44,116778,2,0,B|331:96|332:95|416:176|402:189|402:189|296:222|296:222|216:67|216:67|46:140|190:253|190:253|57:262,1,850
256,192,120275,12,0,121287,0:0:0:0:
256,192,121563,12,0,122391,0:0:0:0:
