osu file format v13

[General]
AudioFilename: Alle meine Entchen - Kindermusik.mp3
AudioLeadIn: 2000
PreviewTime: 434
Countdown: 0
SampleSet: Soft
StackLeniency: 0.7
Mode: 0
LetterboxInBreaks: 0
WidescreenStoryboard: 0

[Editor]
DistanceSpacing: 1.2
BeatDivisor: 4
GridSize: 4
TimelineZoom: 2.9

[Metadata]
Title:Alle meine Entchen
TitleUnicode:Alle meine Entchen
Artist:Unknown Artist
ArtistUnicode:Unknown Artist
Creator:Desperate-kun
Version:Hard
Source:
Tags:all my ducklings ducks folksong child baby kinderlied volkslied ernst anschütz mao sey
BeatmapID:515522
BeatmapSetID:220246

[Difficulty]
HPDrainRate:5
CircleSize:5.5
OverallDifficulty:5
ApproachRate:6.3
SliderMultiplier:1.6
SliderTickRate:1

[Events]
//Background and Video events
0,0,"BG.png",0,0
//Break Periods
//Storyboard Layer 0 (Background)
//Storyboard Layer 1 (Fail)
//Storyboard Layer 2 (Pass)
//Storyboard Layer 3 (Foreground)
//Storyboard Sound Samples
//Background Colour Transformations
3,100,163,162,255

[TimingPoints]
434,779.220779220779,4,2,1,39,1,0
1213,754.716981132075,4,2,1,39,1,8
3477,754.716981132075,4,2,1,39,1,0
4986,778.210116731518,4,2,1,39,1,8
6542,759.493670886076,4,2,1,39,1,0
8060,779.220779220779,4,2,1,39,1,8
8839,759.493670886076,4,2,1,39,1,8
9598,740.740740740741,4,2,1,39,1,0
10338,772.200772200772,4,2,1,39,1,8
12654,800,4,2,1,39,1,0
13454,740.740740740741,4,2,1,39,1,8
14194,770.218228498074,4,2,1,39,1,8
15734,770.218228498074,4,2,1,39,1,0
17274,745.341614906832,4,2,1,39,1,8
18764,779.220779220779,4,2,1,39,1,0
20322,740.740740740741,4,2,1,39,1,8
21803,759.493670886076,4,2,1,39,1,0
23321,779.220779220779,4,2,1,39,1,8
24879,766.283524904215,4,2,1,39,1,0
26411,736.196319018405,4,2,1,39,1,8
27147,774.193548387097,4,2,1,39,1,8
27921,729.040097205346,4,2,1,39,1,0
28650,765.30612244898,4,2,1,39,1,8
30945,729.040097205346,4,2,1,39,1,0
31674,750,4,2,1,39,1,8
33174,759.493670886076,4,2,1,39,1,8
33933,745.341614906832,4,2,1,39,1,0
34678,774.193548387097,4,2,1,39,1,0
35452,759.493670886076,4,2,1,39,1,0
35641,-100,4,2,1,5,0,0

[Colours]
Combo1 : 125,125,255
Combo2 : 255,128,0
Combo3 : 61,216,61
Combo4 : 255,255,0

[HitObjects]
336,63,434,5,2,0:0:0:0:
430,44,823,1,0,0:0:0:0:
477,128,1213,1,0,0:0:0:0:
412,199,1590,1,0,0:0:0:0:
324,159,1967,1,2,0:0:0:0:
324,159,2722,1,2,0:0:0:0:
240,331,3477,5,2,0:0:0:0:
144,341,3854,1,0,0:0:0:0:
134,245,4231,1,0,0:0:0:0:
230,235,4609,1,0,0:0:0:0:
144,341,4986,2,0,P|69:318|44:213,1,160,2|0,0:0|0:0,0:0:0:0:
123,71,6542,5,2,0:0:0:0:
164,157,6921,1,0,0:0:0:0:
256,129,7301,1,0,0:0:0:0:
348,157,7681,1,0,0:0:0:0:
389,71,8060,1,2,0:0:0:0:
389,71,8839,1,2,0:0:0:0:
484,242,9598,5,2,0:0:0:0:
428,320,9968,1,0,0:0:0:0:
387,237,10338,1,0,0:0:0:0:
440,157,10724,1,0,0:0:0:0:
335,316,11110,1,2,0:0:0:0:
89,338,12654,6,0,P|74:302|80:254,1,80,2|0,0:0|0:0,0:0:0:0:
166,209,13454,2,0,P|181:245|175:293,1,80
256,333,14194,2,0,P|323:326|377:250,1,160,2|2,0:0|0:0,0:0:0:0:
304,78,15734,5,2,0:0:0:0:
208,78,16119,1,0,0:0:0:0:
208,173,16504,1,2,0:0:0:0:
304,173,16889,1,0,0:0:0:0:
256,259,17274,2,0,P|177:268|113:193,1,160,2|0,0:0|0:0,0:0:0:0:
304,173,18764,6,0,L|397:164,1,80,2|0,0:0|0:0,0:0:0:0:
447,237,19543,2,0,L|367:244,1,80,0|0,0:0|0:0,0:0:0:0:
275,286,20322,2,0,P|238:353|143:356,1,160,2|2,0:0|0:0,0:0:0:0:
55,209,21803,5,2,0:0:0:0:
149,192,22182,1,0,0:0:0:0:
164,97,22562,1,2,0:0:0:0:
70,114,22941,1,0,0:0:0:0:
149,192,23321,2,0,B|232:200|211:146|303:155,1,160,2|0,0:0|0:0,0:0:0:0:
414,313,24879,5,2,0:0:0:0:
477,241,25262,1,0,0:0:0:0:
394,192,25645,1,0,0:0:0:0:
477,143,26028,1,0,0:0:0:0:
414,71,26411,1,2,0:0:0:0:
414,71,27147,1,2,0:0:0:0:
256,202,27921,5,2,0:0:0:0:
188,134,28285,1,0,0:0:0:0:
256,66,28650,1,0,0:0:0:0:
324,134,29032,1,0,0:0:0:0:
199,191,29415,2,0,P|131:148|165:80,1,160,2|0,0:0|0:0,0:0:0:0:
357,85,30945,5,2,0:0:0:0:
360,181,31309,1,0,0:0:0:0:
305,256,31674,1,0,0:0:0:0:
212,280,32049,1,0,0:0:0:0:
125,238,32424,1,2,0:0:0:0:
125,238,33174,1,2,0:0:0:0:
155,85,33933,5,2,0:0:0:0:
152,181,34305,1,0,0:0:0:0:
207,256,34678,1,0,0:0:0:0:
300,280,35065,1,0,0:0:0:0:
387,238,35452,2,0,P|421:138|289:190,1,320,2|0,0:0|0:0,0:0:0:0:
