osu file format v12

[General]
AudioFilename: Tob grian tak.mp3
AudioLeadIn: 3000
PreviewTime: 51885
Countdown: 1
SampleSet: Normal
StackLeniency: 0.7
Mode: 3
LetterboxInBreaks: 1

[Editor]
DistanceSpacing: 0.5
BeatDivisor: 4
GridSize: 4

[Metadata]
Title:Tob Grean Tak!
TitleUnicode:Tob Grean Tak!
Artist:Unknown
ArtistUnicode:Unknown
Creator:regenz
Version:grean indy
Source:
Tags:mercury2004 indyinyou P A N P_A_N AsprikaQ
BeatmapID:251051
BeatmapSetID:92937

[Difficulty]
HPDrainRate:7
CircleSize:7
OverallDifficulty:7
ApproachRate:8
SliderMultiplier:2.7
SliderTickRate:1

[Events]
//Background and Video events
0,0,"grianbg.jpg",0,0
//Break Periods
//Storyboard Layer 0 (Background)
//Storyboard Layer 1 (Fail)
//Storyboard Layer 2 (Pass)
//Storyboard Layer 3 (Foreground)
//Storyboard Sound Samples
//Background Colour Transformations
3,100,163,162,255

[TimingPoints]
3885,428.571428571429,4,1,0,60,1,0
91313,-100,4,1,0,55,0,0
91527,-100,4,1,0,50,0,0
91742,-100,4,1,0,45,0,0
91956,-100,4,1,0,40,0,0
92170,-100,4,1,0,35,0,0
92385,-100,4,1,0,30,0,0
92599,-100,4,1,0,25,0,0
92813,-100,4,1,0,20,0,0
93027,-100,4,1,0,60,0,0

[HitObjects]
36,192,3885,1,4,0:0:0:0:
475,192,3885,1,4,0:0:0:0:
182,192,4313,1,8,0:0:0:70:drum-hitclap3.wav
329,192,4313,1,8,0:0:0:70:drum-hitclap3.wav
182,192,5170,1,8,0:0:0:70:drum-hitclap3.wav
329,192,5170,1,0,0:0:0:70:drum-hitclap3.wav
182,192,6027,1,8,0:0:0:70:drum-hitclap3.wav
329,192,6027,1,0,0:0:0:70:drum-hitclap3.wav
182,192,6885,1,8,0:0:0:70:drum-hitclap3.wav
329,192,6885,1,0,0:0:0:70:drum-hitclap3.wav
36,192,7742,1,8,0:0:0:70:drum-hitclap3.wav
182,192,7742,1,0,0:0:0:70:drum-hitclap3.wav
36,192,8599,1,8,0:0:0:70:drum-hitclap3.wav
182,192,8599,1,0,0:0:0:70:drum-hitclap3.wav
329,192,9456,1,8,0:0:0:70:drum-hitclap3.wav
475,192,9456,1,0,0:0:0:70:drum-hitclap3.wav
109,192,9885,1,0,0:0:0:70:drum-hitclap3.wav
182,192,9992,1,0,0:0:0:70:drum-hitclap3.wav
475,192,10313,1,8,0:0:0:70:drum-hitclap3.wav
329,192,10313,1,0,0:0:0:70:drum-hitclap3.wav
36,192,11170,1,0,0:0:0:70:drum-hitclap3.wav
329,192,11170,1,0,0:0:0:70:drum-hitclap3.wav
36,192,12027,1,0,0:0:0:70:drum-hitclap3.wav
329,192,12027,1,0,0:0:0:70:drum-hitclap3.wav
182,192,12885,1,0,0:0:0:70:drum-hitclap3.wav
475,192,12885,1,0,0:0:0:70:drum-hitclap3.wav
182,192,13742,1,0,0:0:0:70:drum-hitclap3.wav
475,192,13742,1,0,0:0:0:70:drum-hitclap3.wav
402,192,14492,1,0,0:0:0:70:drum-hitclap3.wav
329,192,14599,1,0,0:0:0:70:drum-hitclap3.wav
182,192,14599,1,0,0:0:0:70:drum-hitclap3.wav
329,192,15456,1,0,0:0:0:70:drum-hitclap3.wav
182,192,15456,1,0,0:0:0:70:drum-hitclap3.wav
109,192,15885,1,0,0:0:0:70:drum-hitclap3.wav
402,192,15992,1,0,0:0:0:70:drum-hitclap3.wav
109,192,16099,1,0,0:0:0:70:drum-hitclap3.wav
329,192,16206,1,0,0:0:0:70:drum-hitclap3.wav
182,192,16313,1,0,0:0:0:70:drum-hitclap3.wav
109,192,16527,1,0,0:0:0:70:drum-hitclap3.wav
402,192,16742,1,0,0:0:0:70:drum-hitclap3.wav
109,192,16849,1,0,0:0:0:70:drum-hitclap3.wav
402,192,16956,1,0,0:0:0:70:drum-hitclap3.wav
182,192,17063,1,0,0:0:0:70:drum-hitclap3.wav
329,192,17170,1,0,0:0:0:70:drum-hitclap3.wav
402,192,17385,1,0,0:0:0:70:drum-hitclap3.wav
36,192,17599,1,4,0:0:0:0:
475,192,17599,1,4,0:0:0:0:
182,192,18027,1,0,0:0:0:70:drum-hitclap3.wav
475,192,18242,1,0,0:0:0:70:drum-whistle3.wav
402,192,18456,1,0,0:0:0:70:drum-whistle3.wav
36,192,18885,1,0,0:0:0:70:drum-hitclap3.wav
402,192,19099,1,0,0:0:0:70:drum-whistle3.wav
402,192,19313,1,0,0:0:0:70:drum-whistle3.wav
182,192,19742,1,0,0:0:0:70:drum-hitclap3.wav
475,192,19956,1,0,0:0:0:70:drum-whistle3.wav
402,192,20170,1,0,0:0:0:70:drum-whistle3.wav
36,192,20599,1,0,0:0:0:70:drum-hitclap3.wav
256,192,20813,1,0,0:0:0:70:drum-whistle3.wav
256,192,21027,1,0,0:0:0:70:drum-whistle3.wav
329,192,21456,1,0,0:0:0:70:drum-hitclap3.wav
36,192,21670,1,0,0:0:0:70:drum-whistle3.wav
109,192,21885,1,0,0:0:0:70:drum-whistle3.wav
475,192,22313,1,0,0:0:0:70:drum-hitclap3.wav
109,192,22527,1,0,0:0:0:70:drum-whistle3.wav
109,192,22742,1,0,0:0:0:70:drum-whistle3.wav
329,192,23170,1,0,0:0:0:70:drum-hitclap3.wav
256,192,23385,1,0,0:0:0:70:drum-whistle3.wav
109,192,23599,1,0,0:0:0:70:drum-hitclap3.wav
182,192,23706,1,0,0:0:0:70:drum-hitclap3.wav
475,192,24027,1,0,0:0:0:70:drum-hitclap3.wav
256,192,24242,1,0,0:0:0:70:drum-whistle3.wav
36,192,24456,1,4,0:0:0:0:
475,192,24456,1,4,0:0:0:0:
182,192,24885,1,0,0:0:0:70:drum-hitclap3.wav
402,192,24885,1,0,0:0:0:70:drum-hitclap3.wav
36,192,25099,1,0,0:0:0:70:drum-whistle3.wav
109,192,25313,1,0,0:0:0:70:drum-whistle3.wav
182,192,25742,1,0,0:0:0:70:drum-hitclap3.wav
402,192,25742,1,0,0:0:0:70:drum-hitclap3.wav
256,192,25956,1,0,0:0:0:70:drum-whistle3.wav
256,192,26170,1,0,0:0:0:70:drum-whistle3.wav
329,192,26599,1,0,0:0:0:70:drum-hitclap3.wav
109,192,26599,1,0,0:0:0:70:drum-hitclap3.wav
475,192,26813,1,0,0:0:0:70:drum-whistle3.wav
402,192,27027,1,0,0:0:0:70:drum-whistle3.wav
109,192,27456,1,0,0:0:0:70:drum-hitclap3.wav
329,192,27456,1,0,0:0:0:70:drum-hitclap3.wav
256,192,27670,1,0,0:0:0:70:drum-whistle3.wav
256,192,27885,1,0,0:0:0:70:drum-whistle3.wav
109,192,28206,1,0,0:0:0:70:drum-hitclap3.wav
402,192,28313,1,0,0:0:0:70:drum-hitclap3.wav
256,192,28742,1,0,0:0:0:70:drum-whistle3.wav
182,192,29170,1,0,0:0:0:70:drum-hitclap3.wav
402,192,29170,1,0,0:0:0:70:drum-hitclap3.wav
36,192,29599,1,0,0:0:0:70:drum-hitclap3.wav
109,192,29706,1,0,0:0:0:70:drum-hitclap3.wav
182,192,29813,1,0,0:0:0:70:drum-hitclap3.wav
256,192,29920,1,0,0:0:0:70:drum-hitclap3.wav
329,192,30027,1,0,0:0:0:70:drum-hitclap3.wav
109,192,30242,1,0,0:0:0:70:drum-hitclap3.wav
475,192,30456,1,0,0:0:0:70:drum-hitclap3.wav
402,192,30563,1,0,0:0:0:70:drum-hitclap3.wav
329,192,30670,1,0,0:0:0:70:drum-hitclap3.wav
256,192,30777,1,0,0:0:0:70:drum-hitclap3.wav
182,192,30885,1,0,0:0:0:70:drum-hitclap3.wav
402,192,31099,1,0,0:0:0:70:drum-hitclap3.wav
475,192,31313,1,4,0:0:0:0:
36,192,31313,1,4,0:0:0:0:
182,192,31742,1,0,0:0:0:70:drum-hitclap3.wav
36,192,31742,1,0,0:0:0:70:drum-hitclap3.wav
402,192,31956,1,0,0:0:0:70:drum-whistle3.wav
402,192,32170,1,0,0:0:0:70:drum-whistle3.wav
182,192,32599,1,0,0:0:0:70:drum-hitclap3.wav
36,192,32599,1,0,0:0:0:70:drum-hitclap3.wav
402,192,32813,1,0,0:0:0:70:drum-whistle3.wav
402,192,33027,1,0,0:0:0:70:drum-whistle3.wav
329,192,33456,1,0,0:0:0:70:drum-hitclap3.wav
475,192,33456,1,0,0:0:0:70:drum-hitclap3.wav
109,192,33670,1,0,0:0:0:70:drum-whistle3.wav
109,192,33885,1,0,0:0:0:70:drum-whistle3.wav
329,192,34313,1,0,0:0:0:70:drum-hitclap3.wav
475,192,34313,1,0,0:0:0:70:drum-hitclap3.wav
256,192,34527,1,0,0:0:0:70:drum-whistle3.wav
475,192,34742,1,4,0:0:0:0:
36,192,34742,1,4,0:0:0:0:
182,192,35170,1,0,0:0:0:70:drum-hitclap3.wav
329,192,35170,1,0,0:0:0:70:drum-hitclap3.wav
109,192,35385,1,0,0:0:0:70:drum-whistle3.wav
109,192,35599,1,0,0:0:0:70:drum-whistle3.wav
182,192,36027,1,0,0:0:0:70:drum-hitclap3.wav
329,192,36027,1,0,0:0:0:70:drum-hitclap3.wav
109,192,36242,1,0,0:0:0:70:drum-whistle3.wav
109,192,36456,1,0,0:0:0:70:drum-whistle3.wav
182,192,36885,1,0,0:0:0:70:drum-hitclap3.wav
329,192,36885,1,0,0:0:0:70:drum-hitclap3.wav
402,192,37099,1,0,0:0:0:70:drum-whistle3.wav
402,192,37313,1,0,0:0:0:70:drum-whistle3.wav
182,192,37742,1,0,0:0:0:70:drum-hitclap3.wav
329,192,37742,1,0,0:0:0:70:drum-hitclap3.wav
256,192,37956,1,0,0:0:0:70:drum-whistle3.wav
36,192,38170,1,4,0:0:0:0:
475,192,38170,1,4,0:0:0:0:
109,192,38599,1,0,0:0:0:70:drum-hitclap3.wav
329,192,38599,1,0,0:0:0:70:drum-hitclap3.wav
475,192,38813,1,0,0:0:0:70:drum-whistle3.wav
475,192,39027,1,0,0:0:0:70:drum-whistle3.wav
109,192,39456,1,0,0:0:0:70:drum-hitclap3.wav
329,192,39456,1,0,0:0:0:70:drum-hitclap3.wav
475,192,39670,1,0,0:0:0:70:drum-whistle3.wav
402,192,39885,1,0,0:0:0:70:drum-whistle3.wav
329,192,40313,1,0,0:0:0:70:drum-hitclap3.wav
109,192,40313,1,0,0:0:0:70:drum-hitclap3.wav
475,192,40527,1,0,0:0:0:70:drum-whistle3.wav
475,192,40742,1,0,0:0:0:70:drum-whistle3.wav
329,192,41170,1,0,0:0:0:70:drum-hitclap3.wav
109,192,41170,1,0,0:0:0:70:drum-hitclap3.wav
256,192,41385,1,0,0:0:0:70:drum-whistle3.wav
36,192,41599,1,4,0:0:0:0:
475,192,41599,1,4,0:0:0:0:
182,192,42027,1,0,0:0:0:70:drum-hitclap3.wav
475,192,42027,1,0,0:0:0:70:drum-hitclap3.wav
36,192,42242,1,0,0:0:0:70:drum-whistle3.wav
36,192,42456,1,0,0:0:0:70:drum-whistle3.wav
182,192,42885,1,0,0:0:0:70:drum-hitclap3.wav
329,192,42885,1,0,0:0:0:70:drum-hitclap3.wav
36,192,43099,1,0,0:0:0:70:drum-whistle3.wav
109,192,43313,1,0,0:0:0:70:drum-whistle3.wav
182,192,43742,1,0,0:0:0:70:drum-hitclap3.wav
475,192,43742,1,0,0:0:0:70:drum-hitclap3.wav
36,192,43956,1,0,0:0:0:70:drum-whistle3.wav
36,192,44170,1,0,0:0:0:70:drum-whistle3.wav
182,192,44599,1,0,0:0:0:70:drum-hitclap3.wav
329,192,44599,1,0,0:0:0:70:drum-hitclap3.wav
256,192,44813,1,0,0:0:0:70:drum-whistle3.wav
36,192,45027,1,4,0:0:0:0:
475,192,45027,1,4,0:0:0:0:
329,192,45456,1,0,0:0:0:70:drum-hitclap3.wav
182,192,45456,1,0,0:0:0:70:drum-hitclap3.wav
475,192,45670,1,0,0:0:0:70:drum-whistle3.wav
402,192,45885,1,0,0:0:0:70:drum-whistle3.wav
