osu file format v12

[General]
AudioFilename: Tob grian tak.mp3
AudioLeadIn: 3000
PreviewTime: 51885
Countdown: 1
SampleSet: Normal
StackLeniency: 0.7
Mode: 0
LetterboxInBreaks: 1

[Editor]
Bookmarks: 88313
DistanceSpacing: 1
BeatDivisor: 4
GridSize: 4

[Metadata]
Title:Tob Grean Tak!
TitleUnicode:Tob Grean Tak!
Artist:Unknown
ArtistUnicode:Unknown
Creator:regenz
Version:grean P A N
Source:
Tags:mercury2004 indyinyou P A N P_A_N AsprikaQ
BeatmapID:251509
BeatmapSetID:92937

[Difficulty]
HPDrainRate:6
CircleSize:4
OverallDifficulty:6
ApproachRate:7
SliderMultiplier:1.9
SliderTickRate:1

[Events]
//Background and Video events
0,0,"grianbg.jpg",0,0
//Break Periods
//Storyboard Layer 0 (Background)
//Storyboard Layer 1 (Fail)
//Storyboard Layer 2 (Pass)
//Storyboard Layer 3 (Foreground)
//Storyboard Sound Samples
//Background Colour Transformations
3,100,163,162,255

[TimingPoints]
3885,428.571428571429,4,1,0,60,1,0
91313,-100,4,1,0,55,0,0
91527,-100,4,1,0,50,0,0
91742,-100,4,1,0,45,0,0
91956,-100,4,1,0,40,0,0
92170,-100,4,1,0,35,0,0
92385,-100,4,1,0,30,0,0
92599,-100,4,1,0,25,0,0
92813,-100,4,1,0,20,0,0
93027,-100,4,1,0,60,0,0

[HitObjects]
396,104,27,2,0,P|352:116|296:100,1,95
216,68,456,2,0,P|168:57|124:69,1,95
124,69,777,1,0,0:0:0:0:
124,69,884,1,0,0:0:0:0:
84,156,1099,2,0,L|72:264,1,95
164,276,1527,2,0,L|176:176,1,95
256,128,1956,1,0,0:0:0:0:
320,60,2170,6,0,L|356:24,4,47.5
256,128,2813,1,0,0:0:0:0:
192,60,3027,2,0,L|156:24,4,47.5
256,128,3670,1,0,0:0:0:0:
324,196,3885,2,0,P|412:208|456:316,2,190
168,304,5170,1,0,0:0:0:0:
168,304,5599,6,0,P|176:248|164:200,1,95
108,136,6027,2,0,P|100:98|108:42,1,95
192,88,6456,2,0,P|240:96|292:84,1,95
372,48,6885,1,0,0:0:0:0:
428,228,7313,6,0,P|344:196|244:232,2,190
252,304,8599,2,0,P|160:333|76:301,2,190
340,336,9670,1,0,0:0:0:0:
428,300,9885,5,0,0:0:0:0:
468,116,10313,1,0,0:0:0:0:
280,76,10742,1,0,0:0:0:0:
240,260,11170,1,0,0:0:0:0:
160,312,11385,1,0,0:0:0:0:
68,300,11599,5,0,0:0:0:0:
156,132,12027,1,0,0:0:0:0:
348,132,12456,1,0,0:0:0:0:
440,300,12885,1,0,0:0:0:0:
356,340,13099,1,0,0:0:0:0:
264,316,13313,5,0,0:0:0:0:
184,144,13742,1,0,0:0:0:0:
164,332,14170,1,0,0:0:0:0:
280,184,14599,1,0,0:0:0:0:
376,184,14813,1,0,0:0:0:0:
440,112,15027,1,0,0:0:0:0:
256,72,15456,1,0,0:0:0:0:
196,252,15885,6,0,L|172:212,4,47.5
256,328,16527,1,0,0:0:0:0:
316,252,16742,2,0,L|340:212,4,47.5
256,328,17385,2,0,P|208:336|156:328,1,95
68,336,17813,1,0,0:0:0:0:
104,248,18027,2,0,P|128:152|96:56,1,190
244,60,18777,2,0,L|392:56,1,142.5
368,148,19313,5,0,0:0:0:0:
384,240,19527,1,0,0:0:0:0:
440,316,19742,1,0,0:0:0:0:
384,240,19956,1,0,0:0:0:0:
328,316,20170,2,0,B|256:312|256:312|204:336|204:336|128:336,1,190
56,296,20813,1,0,0:0:0:0:
72,204,21027,6,0,P|72:112|156:44,1,190
312,128,21885,2,0,P|312:220|228:288,1,190
148,292,22527,1,0,0:0:0:0:
68,244,22742,6,0,L|88:148,1,95
172,56,23170,2,0,L|192:156,1,95
212,244,23599,1,0,0:0:0:0:
212,244,23706,1,0,0:0:0:0:
212,244,23813,1,0,0:0:0:0:
280,308,24027,2,0,P|328:300|384:312,2,95
192,344,24670,1,0,0:0:0:0:
96,332,24885,6,0,P|32:264|48:164,1,190
168,32,25742,2,0,P|232:100|216:200,1,190
200,284,26385,1,0,0:0:0:0:
292,308,26599,2,0,P|328:336|384:344,1,95
372,252,27027,2,0,P|460:200|464:108,1,190
372,128,27670,1,0,0:0:0:0:
344,36,27885,2,0,P|256:88|252:180,1,190
80,76,28742,2,0,L|104:276,1,190
184,316,29385,1,0,0:0:0:0:
280,332,29599,5,0,0:0:0:0:
308,324,29706,1,0,0:0:0:0:
340,316,29813,2,0,L|400:296,2,47.5
308,224,30242,1,0,0:0:0:0:
272,136,30456,1,0,0:0:0:0:
260,104,30563,1,0,0:0:0:0:
248,72,30670,2,0,L|232:28,2,47.5
164,116,31099,1,0,0:0:0:0:
68,104,31313,6,0,P|32:192|80:276,1,190
168,272,31956,1,0,0:0:0:0:
240,336,32170,2,0,P|320:288|416:320,1,190
472,240,32813,2,0,L|484:140,1,95
312,64,33456,5,0,0:0:0:0:
244,244,33885,1,0,0:0:0:0:
188,64,34313,1,0,0:0:0:0:
336,184,34742,1,0,0:0:0:0:
404,252,34956,1,0,0:0:0:0:
404,348,35170,5,0,0:0:0:0:
216,360,35599,1,0,0:0:0:0:
196,172,36027,1,0,0:0:0:0:
384,152,36456,1,0,0:0:0:0:
360,344,36885,5,0,0:0:0:0:
204,316,37313,1,0,0:0:0:0:
240,164,37742,1,0,0:0:0:0:
388,196,38170,5,0,0:0:0:0:
248,324,38599,2,0,P|200:336|152:324,1,95
76,272,39027,2,0,P|88:224|80:176,1,95
120,92,39456,2,0,P|200:40|288:76,1,190
376,44,40099,1,0,0:0:0:0:
428,124,40313,2,0,L|432:228,1,95
452,312,40742,2,0,P|352:292|272:340,1,190
92,304,41599,6,0,L|80:200,1,95
68,116,42027,1,0,0:0:0:0:
92,304,42456,6,0,L|84:208,1,95
76,116,42885,1,0,0:0:0:0:
92,304,43313,6,0,L|88:192,1,95
84,116,43742,1,0,0:0:0:0:
92,304,44170,6,0,L|92:196,1,95,0|0,0:0|0:0,0:0:0:0:
92,116,44599,1,0,0:0:0:0:
280,80,45027,6,0,P|324:92|376:80,1,95
460,48,45456,1,0,0:0:0:0:
460,48,45885,1,0,0:0:0:0:
460,48,46313,1,0,0:0:0:0:
476,140,46527,1,0,0:0:0:0:
452,232,46742,5,0,0:0:0:0:
364,200,46956,1,0,0:0:0:0:
296,268,47170,1,0,0:0:0:0:
212,224,47385,1,0,0:0:0:0:
116,232,47599,1,0,0:0:0:0:
256,104,48027,6,0,P|208:100|156:68,1,95
336,72,48456,2,0,P|376:40|424:36,1,95
324,156,48885,2,0,P|344:200|340:248,1,95
304,332,49313,6,0,P|224:288|120:320,1,190
40,340,49956,1,0,0:0:0:0:
60,248,50170,2,0,L|36:196,4,47.5
148,212,50813,1,0,0:0:0:0:
236,172,51027,2,0,L|260:216,4,47.5
164,108,51670,1,0,0:0:0:0:
256,80,51885,6,0,P|344:48|440:88,1,190
432,268,52742,2,0,P|344:300|248:260,1,190
68,248,53599,2,0,L|52:344,2,95
100,60,54456,6,0,L|292:72,1,190
440,192,55313,2,0,L|240:180,1,190
204,264,55956,1,0,0:0:0:0:
120,308,56170,1,0,0:0:0:0:
76,124,56599,5,0,0:0:0:0:
256,64,57027,1,0,0:0:0:0:
76,124,57456,1,0,0:0:0:0:
256,64,57885,1,0,0:0:0:0:
352,52,58099,1,0,0:0:0:0:
436,96,58313,5,0,0:0:0:0:
424,284,58742,1,0,0:0:0:0:
256,200,59170,1,0,0:0:0:0:
84,284,59599,1,0,0:0:0:0:
196,132,60027,6,0,B|140:108|140:108|92:48|92:48|40:20,2,190
316,132,61313,2,0,B|372:108|372:108|420:48|420:48|472:20,2,190
256,204,62385,2,0,L|256:264,2,47.5
160,204,62813,1,0,0:0:0:0:
160,204,63027,2,0,P|108:128|176:64,1,190
356,64,63885,5,0,0:0:0:0:
376,92,63992,1,0,0:0:0:0:
396,120,64099,2,0,L|424:160,2,47.5
332,192,64527,1,0,0:0:0:0:
424,224,64742,1,0,0:0:0:0:
404,252,64849,1,0,0:0:0:0:
384,276,64956,2,0,L|344:324,2,47.5
332,192,65385,1,0,0:0:0:0:
280,112,65599,6,0,P|240:192|292:276,1,190
220,340,66242,1,0,0:0:0:0:
220,340,66456,2,0,P|164:264|156:148,1,190
144,76,67099,1,0,0:0:0:0:
228,32,67313,2,0,P|276:24|328:32,1,95
412,60,67742,1,0,0:0:0:0:
412,60,67849,1,0,0:0:0:0:
412,60,67956,2,0,P|412:112|420:156,1,95
448,296,68492,6,0,P|384:320|308:292,1,142.5
264,220,69027,2,0,P|228:252|220:300,2,95
412,100,69885,2,0,P|324:128|224:96,1,190
152,52,70527,1,0,0:0:0:0:
116,140,70742,2,0,P|84:220|128:316,1,190
122,311,71277,1,0,0:0:0:0:
122,311,71385,1,0,0:0:0:0:
212,340,71599,6,0,L|316:328,1,95
392,224,72027,2,0,L|296:236,1,95
228,172,72456,2,0,P|236:128|224:72,1,95
80,120,72885,2,0,P|72:164|84:220,1,95
140,284,73313,2,0,P|232:304|332:276,1,190
412,244,73956,1,0,0:0:0:0:
452,156,74170,6,0,P|464:108|444:56,1,95
324,92,74599,1,0,0:0:0:0:
324,92,74706,1,0,0:0:0:0:
324,92,74813,2,0,P|312:140|332:192,1,95
368,320,75349,2,0,P|300:296|228:328,1,142.5
144,348,75885,6,0,L|128:248,1,95
60,192,76313,1,0,0:0:0:0:
128,129,76527,2,0,L|144:36,1,95
280,76,77063,2,0,P|348:52|412:80,1,142.5
344,148,77599,5,0,0:0:0:0:
364,172,77706,1,0,0:0:0:0:
388,196,77813,2,0,L|424:232,2,47.5
292,204,78242,1,0,0:0:0:0:
248,148,78456,1,0,0:0:0:0:
228,172,78563,1,0,0:0:0:0:
204,196,78670,2,0,L|168:232,2,47.5
292,204,79099,1,0,0:0:0:0:
324,292,79313,6,0,P|264:344|152:336,1,190
68,308,79956,1,0,0:0:0:0:
96,216,80170,2,0,P|156:144|136:56,1,190
68,124,80813,1,0,0:0:0:0:
68,124,81027,6,0,L|264:160,1,190
328,96,81670,1,0,0:0:0:0:
408,148,81885,2,0,P|440:232|388:320,1,190
300,320,82527,6,0,L|192:344,1,95
128,236,83170,2,0,L|104:128,2,95
212,64,84027,2,0,L|320:40,2,95
384,148,84885,2,0,L|408:256,2,95
384,148,85420,1,0,0:0:0:0:
384,148,85527,2,0,P|344:124|284:128,1,95
312,216,85956,2,0,P|264:215|224:191,1,95
84,64,86599,5,0,0:0:0:0:
104,156,86813,1,0,0:0:0:0:
80,248,87027,1,0,0:0:0:0:
384,20,87456,5,0,0:0:0:0:
292,40,87670,1,0,0:0:0:0:
200,16,87884,1,0,0:0:0:0:
428,320,88313,5,0,0:0:0:0:
408,228,88527,1,0,0:0:0:0:
432,136,88741,1,0,0:0:0:0:
128,364,89170,5,0,0:0:0:0:
220,344,89384,1,0,0:0:0:0:
312,368,89598,1,0,0:0:0:0:
440,304,89920,1,0,0:0:0:0:
440,304,90027,2,0,P|456:256|444:208,1,95
426,120,90456,2,0,P|342:84|252:124,1,190
255,120,91099,1,0,0:0:0:0:
204,200,91313,6,0,L|176:240,4,47.5
255,120,91956,1,0,0:0:0:0:
308,200,92170,2,0,L|336:240,4,47.5
255,120,92813,2,0,L|256:16,1,95,0|4,0:0|0:0,0:0:0:0:
