osu file format v12

[General]
AudioFilename: Tob grian tak.mp3
AudioLeadIn: 3000
PreviewTime: 51885
Countdown: 1
SampleSet: None
StackLeniency: 0.7
Mode: 0
LetterboxInBreaks: 1

[Editor]
DistanceSpacing: 1.1
BeatDivisor: 4
GridSize: 4

[Metadata]
Title:Tob Grean Tak!
TitleUnicode:Tob Grean Tak!
Artist:Unknown
ArtistUnicode:Unknown
Creator:regenz
Version:grean Asp
Source:
Tags:mercury2004 indyinyou P A N P_A_N AsprikaQ
BeatmapID:252083
BeatmapSetID:92937

[Difficulty]
HPDrainRate:6
CircleSize:4
OverallDifficulty:6
ApproachRate:7
SliderMultiplier:1.6
SliderTickRate:1

[Events]
//Background and Video events
0,0,"grianbg.jpg",0,0
//Break Periods
2,69012,90413
//Storyboard Layer 0 (Background)
//Storyboard Layer 1 (Fail)
//Storyboard Layer 2 (Pass)
//Storyboard Layer 3 (Foreground)
//Storyboard Sound Samples
//Background Colour Transformations
3,100,163,162,255

[TimingPoints]
3885,428.571428571429,4,1,0,60,1,0
91313,-100,4,1,0,55,0,0
91527,-100,4,1,0,50,0,0
91742,-100,4,1,0,45,0,0
91956,-100,4,1,0,40,0,0
92170,-100,4,1,0,35,0,0
92385,-100,4,1,0,30,0,0
92599,-100,4,1,0,25,0,0
92813,-100,4,1,0,20,0,0
93027,-100,4,1,0,60,0,0

[HitObjects]
148,132,3885,2,0,P|224:132|264:60,2,160
88,192,4956,1,0,0:0:0:0:
60,272,5170,1,0,0:0:0:0:
68,300,5277,1,0,0:0:0:0:
76,328,5385,1,0,0:0:0:0:
160,328,5599,5,0,0:0:0:0:
332,312,5813,1,0,0:0:0:0:
160,328,6027,1,0,0:0:0:0:
332,312,6242,1,0,0:0:0:0:
392,108,6670,2,0,L|280:120,2,80
228,56,7313,6,0,P|212:148|272:220,2,160
348,192,8385,1,0,0:0:0:0:
348,212,8492,1,0,0:0:0:0:
348,232,8599,1,0,0:0:0:0:
348,252,8706,1,0,0:0:0:0:
348,272,8813,6,0,L|240:308,1,80
68,312,9456,1,0,0:0:0:0:
56,116,9670,1,0,0:0:0:0:
148,136,9885,1,0,0:0:0:0:
148,136,9992,1,0,0:0:0:0:
148,136,10099,1,0,0:0:0:0:
232,92,10313,6,0,P|320:64|412:96,1,160
336,268,11170,2,0,L|440:288,2,80
168,284,12027,1,0,0:0:0:0:
168,284,12456,2,0,P|128:208|152:132,1,160
236,148,13099,1,0,0:0:0:0:
268,68,13313,1,0,0:0:0:0:
404,172,13742,6,0,P|432:252|400:336,1,160
328,296,14385,1,0,0:0:0:0:
328,296,14492,1,0,0:0:0:0:
328,296,14599,1,0,0:0:0:0:
248,320,14813,2,0,L|148:328,1,80
128,160,15456,1,0,0:0:0:0:
272,68,15885,6,0,L|328:80,4,40
256,152,16527,1,0,0:0:0:0:
236,236,16742,2,0,L|180:224,4,40
316,208,17385,1,0,0:0:0:0:
328,292,17599,6,0,L|436:304,1,80
407,300,18027,1,0,0:0:0:0:
364,136,18456,2,0,L|492:128,2,120
280,144,19313,1,0,0:0:0:0:
232,212,19527,1,0,0:0:0:0:
148,216,19742,1,0,0:0:0:0:
148,216,19849,1,0,0:0:0:0:
148,216,19956,1,0,0:0:0:0:
64,204,20170,2,0,P|52:124|88:80,2,120
88,284,21027,5,0,0:0:0:0:
4,264,21242,1,0,0:0:0:0:
88,284,21456,2,0,P|152:304|232:240,1,160
352,216,22206,1,0,0:0:0:0:
268,120,22527,1,0,0:0:0:0:
324,56,22742,6,0,L|424:48,1,80
476,104,23170,1,0,0:0:0:0:
476,104,23277,1,0,0:0:0:0:
476,104,23385,1,0,0:0:0:0:
444,176,23599,2,0,P|408:248|432:324,1,160
352,336,24242,1,0,0:0:0:0:
272,328,24456,6,0,P|188:344|124:292,1,160
100,148,25313,1,0,0:0:0:0:
180,60,25635,1,0,0:0:0:0:
292,104,25956,1,0,0:0:0:0:
320,180,26170,2,0,L|428:188,1,80
424,264,26599,2,0,L|480:268,2,40
344,280,27027,2,0,P|264:280|200:336,1,160
148,272,27670,1,0,0:0:0:0:
72,244,27885,6,0,P|48:168|80:92,2,160
168,172,29063,1,0,0:0:0:0:
256,92,29385,1,0,0:0:0:0:
256,192,29599,12,0,31313,0:0:0:0:
264,96,31742,6,0,L|352:84,1,80
420,64,32170,2,0,P|456:128|440:216,1,160
364,224,32813,1,0,0:0:0:0:
364,304,33027,1,0,0:0:0:0:
204,308,33456,2,0,P|128:280|96:212,2,160
212,148,34742,6,0,L|104:136,1,80
96,68,35170,1,0,0:0:0:0:
172,48,35385,1,0,0:0:0:0:
252,52,35599,2,0,P|332:64|408:32,2,160
132,160,36885,2,0,P|120:240|152:316,2,160
380,160,38170,6,0,P|392:240|360:316,1,160
288,280,38813,1,0,0:0:0:0:
212,300,39027,1,0,0:0:0:0:
192,224,39242,1,0,0:0:0:0:
112,232,39456,2,0,P|96:152|136:52,1,160
196,64,40099,2,0,L|300:60,1,80
356,56,40527,1,0,0:0:0:0:
436,48,40742,2,0,P|468:120|440:200,1,160
364,208,41385,6,0,L|328:288,2,80
204,192,42242,1,0,0:0:0:0:
204,192,42456,1,0,0:0:0:0:
204,192,42670,1,0,0:0:0:0:
296,60,43099,2,0,L|204:44,1,80
140,56,43527,1,0,0:0:0:0:
56,192,43956,6,0,L|48:288,1,80
48,352,44385,2,0,P|136:360|228:316,1,160
276,300,45027,2,0,L|364:308,1,80
432,328,45456,2,0,P|464:256|436:180,2,160
364,288,46527,1,0,0:0:0:0:
300,240,46742,2,0,L|196:232,1,80
156,184,47170,2,0,P|140:228|148:268,2,80
292,100,48027,6,0,P|308:56|300:16,2,80
308,180,48670,2,0,P|348:188|396:176,1,80
228,152,49099,2,0,P|220:192|232:240,1,80
92,144,49742,1,0,0:0:0:0:
64,220,49956,1,0,0:0:0:0:
120,276,50170,6,0,L|108:332,4,40
232,232,50813,1,0,0:0:0:0:
220,112,51027,1,0,0:0:0:0:
248,100,51135,1,0,0:0:0:0:
276,88,51242,1,0,0:0:0:0:
304,76,51349,1,0,0:0:0:0:
336,64,51456,1,0,0:0:0:0:
408,100,51670,1,0,0:0:0:0:
472,56,51885,6,0,P|500:132|464:204,1,160
392,224,52527,1,0,0:0:0:0:
316,244,52742,2,0,L|216:256,1,80
236,253,53063,1,0,0:0:0:0:
236,253,53170,1,0,0:0:0:0:
160,236,53385,1,0,0:0:0:0:
152,116,53599,6,0,L|236:112,1,80
312,108,54027,2,0,P|384:144|464:128,1,160
472,208,54670,1,0,0:0:0:0:
468,236,54777,1,0,0:0:0:0:
464,264,54885,1,0,0:0:0:0:
376,280,55099,1,0,0:0:0:0:
296,304,55313,6,0,P|224:324|148:280,1,160
232,232,55956,1,0,0:0:0:0:
164,168,56170,2,0,P|236:148|312:192,2,160
92,116,57242,2,0,L|48:128,2,40
148,48,57670,1,0,0:0:0:0:
236,36,57885,1,0,0:0:0:0:
264,40,57992,1,0,0:0:0:0:
292,44,58099,1,0,0:0:0:0:
372,80,58313,6,0,P|456:88|508:40,2,160
360,168,59385,1,0,0:0:0:0:
440,208,59599,2,0,P|388:248|292:224,1,160
220,196,60242,1,0,0:0:0:0:
164,128,60456,6,0,P|136:216|184:276,2,160
236,76,61527,2,0,L|232:32,2,40
324,76,61956,2,0,L|416:84,1,80
444,160,62385,1,0,0:0:0:0:
444,160,62492,1,0,0:0:0:0:
444,160,62599,1,0,0:0:0:0:
412,240,62813,2,0,L|376:320,1,80
292,320,63242,1,0,0:0:0:0:
292,320,63349,1,0,0:0:0:0:
292,320,63456,1,0,0:0:0:0:
212,284,63670,1,0,0:0:0:0:
132,252,63885,2,0,L|72:244,4,40
208,160,64527,1,0,0:0:0:0:
284,64,64742,2,0,L|344:72,4,40
196,72,65385,1,0,0:0:0:0:
108,84,65599,2,0,L|28:100,1,80
24,188,66027,2,0,P|28:264|84:328,1,160
156,216,66777,1,0,0:0:0:0:
268,284,67099,1,0,0:0:0:0:
292,200,67313,2,0,P|332:184|376:192,1,80
444,232,67742,2,0,L|464:272,2,40
440,144,68170,2,0,P|464:88|444:32,2,120
184,236,91313,6,0,L|148:288,4,40
256,192,91956,1,0,0:0:0:0:
328,236,92170,2,0,L|364:288,4,40
252,276,92813,1,0,0:0:0:0:
