osu file format v14

[General]
AudioFilename: Star power-! More like O-oooooooooo AAAAE-A-A-I-A-U- JO-oooooooooooo AAE-O-A-A-U-U-A.mp3
AudioLeadIn: 0
PreviewTime: 4091
Countdown: 1
SampleSet: Soft
StackLeniency: 0.7
Mode: 0
LetterboxInBreaks: 1
WidescreenStoryboard: 0

[Editor]
DistanceSpacing: 1.2
BeatDivisor: 4
GridSize: 8
TimelineZoom: 2.3

[Metadata]
Title:Star Power
TitleUnicode:Star Power
Artist:Unknown
ArtistUnicode:Unknown
Creator:TehDragonGuy
Version:8-Bit O-oooooooooo AAAAE-A-A-I-A-U- JO-oooooooooooo
Source:
Tags:
BeatmapID:957488
BeatmapSetID:445742

[Difficulty]
HPDrainRate:6
CircleSize:4.2
OverallDifficulty:7.5
ApproachRate:9.2
SliderMultiplier:1.6
SliderTickRate:1

[Events]
//Background and Video events
0,0,"Star Power.png",0,0
//Break Periods
//Storyboard Layer 0 (Background)
//Storyboard Layer 1 (Fail)
//Storyboard Layer 2 (Pass)
//Storyboard Layer 3 (Foreground)
//Storyboard Sound Samples

[TimingPoints]
-216,387.096774193548,4,1,0,40,1,0
2590,360.36036036036,4,2,0,40,1,0
3191,360.36036036036,4,2,0,40,1,0
4812,-100,4,2,0,10,0,0
4902,-100,4,2,0,40,0,0
5082,-100,4,2,0,10,0,0
5172,-100,4,2,0,40,0,0
5353,-100,4,2,0,10,0,0
5443,-100,4,2,0,40,0,0
5623,-100,4,2,0,10,0,0
5713,-100,4,2,0,40,0,0
6067,360.36036036036,4,2,0,40,1,0
6067,-100,4,2,0,40,0,1
8769,-100,4,2,0,40,0,0
8949,-100,4,2,0,40,0,1
11652,-100,4,2,0,40,0,0
11832,-100,4,2,0,40,0,1
14535,-100,4,2,0,40,0,0
14715,-100,4,2,0,40,0,1
17418,-100,4,2,0,40,0,0
17598,-100,4,2,0,40,0,1
17778,-100,4,2,0,40,0,0
17789,387.096774193548,4,2,0,40,1,0
18563,-66.6666666666667,4,2,0,40,0,0
19627,-66.6666666666667,4,2,0,10,0,0
19724,-66.6666666666667,4,2,0,40,0,0
19918,-66.6666666666667,4,2,0,10,0,0
20014,-66.6666666666667,4,2,0,40,0,0
20208,-66.6666666666667,4,2,0,10,0,0
20305,-66.6666666666667,4,2,0,40,0,0
20875,461.538461538462,4,2,0,40,1,0
20875,-80,4,2,0,40,0,0

[HitObjects]
70,155,171,5,0,0:0:0:0:
78,193,267,1,0,0:0:0:0:
104,223,364,1,0,0:0:0:0:
141,236,461,1,0,0:0:0:0:
180,228,558,5,0,0:0:0:0:
315,244,751,1,0,0:0:0:0:
145,158,945,1,0,0:0:0:0:
350,314,1138,1,0,0:0:0:0:
185,289,1332,6,0,P|179:228|218:185,2,120
301,179,2106,2,0,P|281:126|225:104,1,120
91,149,2590,6,0,B|81:194|45:247|45:247|92:222,2,160
188,101,3731,1,0,0:0:0:0:
188,101,4632,6,0,P|187:143|208:182,1,80
324,283,4902,6,0,P|324:240|303:201,1,80
122,192,5172,6,0,P|142:229|179:252,1,80
390,192,5443,6,0,P|369:154|332:131,1,80
244,276,5713,5,0,0:0:0:0:
268,108,5893,5,0,0:0:0:0:
125,113,6067,6,0,P|116:151|122:194,1,80
340,151,6427,5,0,0:0:0:0:
311,112,6517,1,0,0:0:0:0:
270,87,6607,1,0,0:0:0:0:
222,94,6697,1,0,0:0:0:0:
196,134,6787,1,0,0:0:0:0:
201,181,6877,1,0,0:0:0:0:
212,227,6967,1,0,0:0:0:0:
210,274,7057,1,0,0:0:0:0:
179,311,7148,5,0,0:0:0:0:
131,318,7238,1,0,0:0:0:0:
88,296,7328,1,0,0:0:0:0:
64,254,7418,1,0,0:0:0:0:
65,206,7508,2,0,P|72:181|87:158,3,40
264,154,7868,5,0,0:0:0:0:
145,261,8048,1,0,0:0:0:0:
122,101,8229,1,0,0:0:0:0:
299,283,8409,1,0,0:0:0:0:
400,139,8589,1,0,0:0:0:0:
231,168,8769,1,0,0:0:0:0:
95,320,8949,6,0,P|131:339|169:333,1,80
308,91,9310,5,0,0:0:0:0:
324,136,9400,1,0,0:0:0:0:
331,183,9490,1,0,0:0:0:0:
321,230,9580,1,0,0:0:0:0:
299,272,9670,1,0,0:0:0:0:
265,305,9760,1,0,0:0:0:0:
219,321,9850,1,0,0:0:0:0:
171,316,9940,1,0,0:0:0:0:
126,299,10030,5,0,0:0:0:0:
92,263,10121,1,0,0:0:0:0:
75,217,10211,1,0,0:0:0:0:
70,169,10301,1,0,0:0:0:0:
79,121,10391,6,0,L|141:112,1,40
308,91,10571,1,0,0:0:0:0:
167,263,10751,1,0,0:0:0:0:
136,33,10931,1,0,0:0:0:0:
320,170,11112,1,0,0:0:0:0:
90,201,11292,1,0,0:0:0:0:
216,22,11472,1,0,0:0:0:0:
248,252,11652,1,0,0:0:0:0:
370,110,11832,6,0,P|396:144|394:193,1,80
194,323,12193,5,0,0:0:0:0:
146,318,12283,1,0,0:0:0:0:
107,291,12373,1,0,0:0:0:0:
87,249,12463,1,0,0:0:0:0:
90,201,12553,1,0,0:0:0:0:
116,162,12643,1,0,0:0:0:0:
159,140,12733,1,0,0:0:0:0:
206,143,12823,1,0,0:0:0:0:
246,169,12913,5,0,0:0:0:0:
285,195,13003,1,0,0:0:0:0:
332,203,13093,1,0,0:0:0:0:
378,192,13183,1,0,0:0:0:0:
415,162,13274,6,0,L|421:108,3,40
226,112,13634,1,0,0:0:0:0:
328,276,13814,1,0,0:0:0:0:
341,85,13994,1,0,0:0:0:0:
213,230,14175,1,0,0:0:0:0:
400,196,14355,1,0,0:0:0:0:
265,25,14535,1,0,0:0:0:0:
101,77,14715,6,0,P|89:121|90:157,1,80
281,201,15076,5,0,0:0:0:0:
326,188,15166,1,0,0:0:0:0:
372,202,15256,1,0,0:0:0:0:
403,237,15346,1,0,0:0:0:0:
411,284,15436,1,0,0:0:0:0:
393,328,15526,1,0,0:0:0:0:
355,356,15616,1,0,0:0:0:0:
308,360,15706,1,0,0:0:0:0:
264,338,15796,5,0,0:0:0:0:
224,312,15886,1,0,0:0:0:0:
179,296,15976,1,0,0:0:0:0:
132,298,16066,1,0,0:0:0:0:
88,317,16157,6,0,L|41:343,1,40
80,177,16337,1,0,0:0:0:0:
167,384,16517,1,0,0:0:0:0:
14,248,16697,1,0,0:0:0:0:
175,152,16877,1,0,0:0:0:0:
328,276,17057,1,0,0:0:0:0:
189,290,17238,1,0,0:0:0:0:
313,137,17418,1,0,0:0:0:0:
401,285,17598,6,0,P|396:308|383:326,1,40
264,315,17778,5,0,0:0:0:0:
224,309,17868,1,0,0:0:0:0:
189,290,17958,1,0,0:0:0:0:
163,260,18048,1,0,0:0:0:0:
221,130,18369,5,0,0:0:0:0:
221,130,18466,1,0,0:0:0:0:
221,130,18563,2,0,P|226:91|241:135,2,120.000004577637
88,163,19433,5,0,0:0:0:0:
88,163,19530,2,0,L|93:228,1,60.0000022888184
173,190,19724,5,0,0:0:0:0:
173,190,19821,2,0,L|178:255,1,60.0000022888184
258,217,20014,5,0,0:0:0:0:
258,217,20111,2,0,L|263:282,1,60.0000022888184
343,244,20305,6,0,L|347:297,4,30.0000011444092
114,126,20875,6,0,P|102:148|95:177,1,50
170,181,21105,2,0,P|166:205|169:235,1,50
241,213,21336,2,0,P|245:237|259:264,1,50
318,218,21567,2,0,P|331:239|352:259,1,50
392,196,21798,6,0,L|454:196,1,50
370,121,22028,2,0,L|370:59,1,50
295,143,22259,2,0,L|233:143,1,50
317,218,22490,2,0,L|317:280,1,50
343,169,22721,5,0,0:0:0:0:
169,215,23182,5,0,0:0:0:0:
